#VERSION:0.83;
#TITLE:Spiral Clouds;
#SUBTITLE:;
#ARTIST:TIME CAPSULE Lab.;
#TITLETRANSLIT:;
#SUBTITLETRANSLIT:;
#ARTISTTRANSLIT:;
#GENRE:;
#CREDIT:chronon;
#MUSIC:Spiral Clouds.ogg;
#BANNER:Spiral Clouds.png;
#BACKGROUND:Spiral Clouds-bg.png;
#CDTITLE:;
#SAMPLESTART:51.384;
#SAMPLELENGTH:25.782;
#SELECTABLE:YES;
#OFFSET:-0.523;
#BPMS:0.000=155.000;
#STOPS:;
#BGCHANGES:;
#FGCHANGES:;

//--------------- dance-single - chronon ----------------
#NOTEDATA:;
#STEPSTYPE:dance-single;
#DESCRIPTION:chronon;
#DIFFICULTY:Beginner;
#METER:2;
#RADARVALUES:0,0,0,0,0;
#NOTES:
0000
0000
0000
0000
,
0000
0000
0000
0000
,
1000
0000
0000
0000
,
1000
0000
0000
0000
,
0010
0000
0000
0000
,
0010
0000
0000
0000
,
0100
0000
0000
0000
,
0100
0000
0000
0000
,
0001
0000
0000
0000
,
0000
0000
0000
0000
,
0001
0000
0000
0000
,
0100
0000
0000
0000
,
0100
0000
0000
0000
,
0001
0000
0001
0000
,
1000
0000
0000
0000
,
0100
0000
0000
0000
,
0100
0000
0000
0000
,
1000
0000
1000
0000
,
0001
0000
0000
0000
,
0100
0000
0000
0000
,
1000
0000
0000
0000
,
0100
0000
0000
0000
,
0001
0000
0000
0000
,
0100
0000
0000
0000
,
0100
0000
0000
0000
,
0001
0000
1000
0000
,
0001
0000
0000
0000
,
0010
0000
0000
0000
,
0100
0000
0000
0000
,
1000
0000
0000
0000
,
0001
0000
1000
0000
,
0001
0000
0000
0000
,
1000
0000
0001
0000
,
0000
0000
1000
0000
,
0010
0000
0100
0000
,
0000
0000
0001
0000
,
0100
0000
0010
0000
,
0000
0000
1000
1000
,
1000
0000
0001
0001
,
0001
0000
1000
1000
,
1000
0000
0000
0000
,
0000
0000
0001
0000
,
0010
0000
0100
0000
,
0000
0000
1000
0000
,
0100
0000
0010
0000
,
0000
0000
0001
0001
,
0001
0000
1000
1000
,
1000
0000
0001
0001
,
0001
0000
0000
0000
,
0000
0000
0000
0000
,
0000
0000
0000
0000
,
0000
0000
0000
0000
,
0000
0000
0000
0000
,
0000
0000
0000
0000
,
0000
0000
0000
0000
,
0000
0000
0000
0000
,
0000
0000
0000
0000
,
0000
0000
1001
0000
,
1000
0000
0001
0000
,
0000
0000
1001
0000
,
0001
0000
1000
0000
,
0000
0000
1001
0000
,
1000
0000
1001
0000
,
0001
0000
1001
0000
,
1000
0000
0001
0000
,
0010
0000
0010
0000
,
0100
0000
1001
0000
;

//--------------- dance-single - chronon ----------------
#NOTEDATA:;
#STEPSTYPE:dance-single;
#DESCRIPTION:chronon;
#DIFFICULTY:Easy;
#METER:6;
#RADARVALUES:0,0,0,0,0;
#NOTES:
0000
0000
0000
0000
,
0000
0000
0000
0000
,
0001
0000
0100
0000
,
0010
0010
0010
0000
,
1000
0000
0100
0000
,
0010
0010
0010
0000
,
0001
0000
0100
0000
,
0010
0010
0010
0000
,
1000
0000
0100
0000
,
0020
0000
0000
0030
,
0001
1000
0001
0000
,
0001
0100
0001
0000
,
0001
0010
0001
0000
,
0011
0000
0000
1001
0000
0000
1000
0000
,
0010
0010
0100
0100
,
0001
1000
0001
0000
,
0010
0100
1000
0000
,
1100
0000
0000
1001
0000
0000
0001
0000
,
0100
0001
1000
0000
,
0010
1000
0001
0000
,
0010
0000
0100
0000
,
1100
0000
0000
1001
0000
0000
0001
0000
,
1000
0001
1000
0000
,
1000
0010
1000
0000
,
1000
0100
1000
0000
,
1000
0100
0010
0001
,
1000
1000
0010
0100
,
0001
0000
1000
0000
,
0001
0001
0010
0100
,
1000
0000
0001
0000
,
1000
0010
0100
0000
,
0001
0010
0100
0000
,
1000
0010
0100
0000
,
0000
0000
0000
0002
0000
0000
0000
0203
,
0000
0000
0320
0000
0000
2030
0000
0000
,
3001
0000
0000
2000
0000
0000
0000
3200
,
0000
0000
0302
0000
0000
0203
0000
0000
,
1300
0000
0100
0000
0010
0000
0000
0010
,
0000
0000
0001
0000
0000
0001
0000
0000
,
1000
0000
0010
0000
0100
0000
0000
0100
,
0000
0001
1000
0010
,
0000
0000
0000
2000
0000
0000
0000
3020
,
0000
0000
0230
0000
0000
0302
0000
0000
,
1003
0000
0000
0002
0000
0000
0000
0023
,
0000
0000
2030
0000
0000
3020
0000
0000
,
0031
0000
0010
0000
0100
0000
0000
0100
,
0000
0000
1000
0000
0000
1000
0000
0000
,
0001
0000
0100
0000
0010
0000
0000
0010
,
0000
1000
0001
1000
,
0100
0000
0100
0000
2000
0000
3000
0002
,
0000
0003
2000
0000
3000
0002
0000
0003
,
2000
0000
3001
0000
0020
0000
0030
0200
,
0000
0300
0020
0000
0030
0200
0000
0300
,
0020
0000
0031
0000
0002
0000
0003
2000
,
0000
3000
0002
0000
0003
2000
0000
3000
,
0002
0000
1003
0000
0020
0000
0030
0200
,
0000
0300
0010
0000
2002
0000
3000
0000
,
0003
0000
0101
0001
,
0100
0001
1000
0100
,
1000
0000
1100
1000
,
0100
0000
1000
0000
1100
0000
0000
1001
,
0000
0000
0011
0001
,
0010
0001
0010
0100
,
1000
0100
1100
1000
,
0010
0000
1000
0000
0001
0000
0000
1000
,
0000
0000
0000
0010
0000
0000
0010
0000
,
0100
0000
0000
1001
0000
0000
0000
0000
;

//--------------- dance-single - chronon ----------------
#NOTEDATA:;
#STEPSTYPE:dance-single;
#DESCRIPTION:chronon;
#DIFFICULTY:Medium;
#METER:11;
#RADARVALUES:0,0,0,0,0;
#NOTES:
0000
0000
0000
0000
,
0000
0000
0000
0000
,
1000
0000
0000
0010
0000
0000
0100
0000
0000
0001
0000
0000
1000
0000
0001
0000
,
0010
0000
0000
0001
0000
0000
1000
0000
0000
0001
0000
0000
0200
0000
0000
0000
,
0301
0000
0000
0100
0000
0000
0010
0000
0000
1000
0000
0000
0001
0000
1000
0000
,
0100
0000
0000
1000
0000
0000
0001
0000
0000
1000
0000
0000
0020
0000
0000
0000
,
1030
0000
0000
0100
0000
0000
0010
0000
0000
0001
0000
0000
1000
0000
0001
0000
,
0100
0000
0000
0001
0000
0000
1000
0000
0000
0001
0000
0000
0020
0000
0000
0000
,
0031
0000
0000
0010
0000
0000
0100
0000
0000
1000
0000
0000
0001
0000
1000
0000
,
0020
0000
0000
0030
,
1000
0000
0000
0001
0000
0000
0020
0000
0000
0000
0130
0000
0010
0000
0000
0000
,
0001
0000
0000
1000
0000
0000
0020
0000
0000
0000
0130
0000
0010
0000
0000
0000
,
1000
0000
0000
0010
0000
0000
0002
0000
0000
0000
0013
0000
0100
0000
0001
0000
,
0101
0000
0000
1000
0000
0000
1001
0000
0000
0000
0001
0000
0010
0000
0000
0000
,
0011
0000
0000
0000
1010
0000
0000
0000
1000
0000
0000
0001
0000
0000
0200
0000
,
0000
0310
1000
0002
0000
1003
0100
0000
,
1000
0100
0001
0200
0000
0310
0001
0000
,
0011
0000
0000
1000
0000
0000
1001
0000
0000
0000
0001
0000
0100
0000
0000
0000
,
0001
0000
0000
0200
0000
0000
1000
0000
0000
0000
0310
0000
1000
0000
0001
0000
,
1000
0000
0000
0200
0000
0000
0001
0000
0000
0000
0310
0000
0001
0000
1000
0000
,
0002
0000
0103
0010
2000
0000
3010
0000
,
1010
0000
0000
0001
0000
0000
1001
0000
0000
0000
1000
0000
0100
0000
0000
0000
,
1000
0000
0000
0001
0000
0000
0200
0000
0000
0000
0310
0000
0100
0000
0000
0000
,
0001
0000
0000
1000
0000
0000
0200
0000
0000
0000
0310
0000
0100
0000
0000
0000
,
1000
0000
0000
0100
0000
0000
0002
0000
0000
0000
0103
0000
0010
0000
0000
0000
,
0110
0000
0100
0000
1000
0000
1001
0000
0001
0000
0100
0000
,
0001
0100
0101
1010
,
1000
0100
1100
0011
,
0001
0010
0011
1100
,
1000
0000
0000
0010
0000
0000
0100
0010
0000
1000
0001
0000
,
1000
0100
0000
0010
0100
0000
0010
0000
0001
0000
1000
0000
,
0001
0100
0000
0010
0100
0000
0010
0000
1000
0000
0001
0000
,
1000
0000
0000
0000
0100
0000
0000
0000
0010
0000
0000
0000
0002
0000
0000
0000
0000
0000
0000
0000
0000
1003
0000
0000
,
0001
0100
0010
0002
0000
0013
0100
0002
,
0000
0013
0200
0000
1300
0020
0000
0130
,
0001
0100
0010
0002
0000
0013
0100
0020
,
0000
1030
0200
0000
0310
0002
0000
1003
,
0001
0100
0010
0200
1000
0000
0310
1000
,
0001
0020
0001
0000
0130
0010
0000
0100
,
1000
0100
0010
0200
0001
0000
0310
0001
,
1000
0001
0200
0000
0301
0000
0100
0001
,
1000
0100
0010
2000
0000
3010
0100
2000
,
0000
3010
0200
0000
0301
0020
0000
0130
,
1000
0100
0010
2000
0000
3010
0100
0020
,
0000
0031
0200
0000
0310
2000
0000
3001
,
1000
0100
0010
0200
0001
0000
0310
0001
,
1000
0020
1000
0000
0130
0010
0000
0100
,
0001
0100
0010
0200
1000
0000
0310
1000
,
0001
1000
0200
0000
1300
0100
0010
0001
,
2000
0000
0000
3002
0000
0000
0203
0000
0302
0000
0000
0000
0003
0000
2000
0000
,
0000
3000
0002
0000
0003
2000
0000
3000
,
0002
0000
0103
0000
0020
0000
0030
0200
,
0000
0300
0020
0000
0030
0200
0000
0300
,
0020
0000
1030
0001
2000
0000
3000
0002
,
0000
0003
2000
0000
3000
0002
0000
0003
,
2000
0000
3100
0000
0020
0000
0030
0200
,
0000
0300
0010
0000
2002
0000
0003
0000
,
3000
0000
0000
0000
1010
0000
1000
0010
,
1000
0010
1000
0000
0001
0010
0001
0010
,
0011
0000
1001
0000
0101
0000
0001
0100
,
0001
0000
0100
0000
0001
0000
0000
0000
0101
0000
0000
1000
0000
0000
1001
0000
,
0000
0001
1000
0001
0011
0010
0001
0010
,
0001
0010
1001
1000
0010
1000
0010
1000
,
1010
0000
1001
0000
1100
0100
1000
0100
,
1000
0000
0100
0000
1001
0000
0000
0000
0101
0000
0000
0100
0000
0000
0010
0000
,
0000
1000
0001
0110
0000
0000
1001
0000
,
1000
0100
0010
1001
0000
0000
0000
0000
;

//--------------- dance-single - chronon ----------------
#NOTEDATA:;
#STEPSTYPE:dance-single;
#DESCRIPTION:chronon;
#DIFFICULTY:Hard;
#METER:15;
#RADARVALUES:0,0,0,0,0;
#NOTES:
0000
0000
0000
0000
,
0000
0000
0000
0000
,
0001
0010
0000
0100
0010
0000
0100
1000
0000
0001
1000
0000
0010
0000
0010
0000
,
1000
0010
0000
0100
0010
0000
0100
0001
0000
1000
0001
0000
1001
0000
0000
0000
,
0001
0010
0000
0100
0010
0000
0100
1000
0000
0001
1000
0000
0010
0000
0010
0000
,
1000
0010
0000
0100
0010
0000
0100
0001
0000
1000
0001
0000
0011
0000
0000
0000
,
1000
0100
0000
0010
0100
0000
0010
0001
0000
1000
0001
0000
0100
0000
0100
0000
,
0001
0100
0000
0010
0100
0000
0010
1000
0000
0001
1000
0000
1001
0000
0000
0000
,
1000
0100
0000
0010
0100
0000
0010
0001
0000
1000
0001
0000
0100
0000
0100
0000
,
0001
0000
0100
0001
1000
0000
0100
1000
0001
0000
0010
0100
1000
0001
1000
0010
,
0100
0000
0001
0100
0000
0001
0020
0000
0000
0000
0130
0000
1000
0000
0000
0000
,
0100
0000
1000
0100
0000
1000
0020
0000
0000
0000
0130
0000
0001
0000
0100
0000
,
0001
0000
0100
0010
0000
0100
2000
0000
0000
0000
3100
0000
0010
0000
1000
0000
,
1010
0000
0000
0001
0000
0000
1100
0000
0000
0000
1000
0000
0100
0010
0001
1000
,
0002
0000
0010
0000
2003
0000
0100
0000
3002
0000
0000
0203
0000
0000
2300
0000
,
0000
0000
3100
0010
0100
0000
0002
0000
0000
0000
0013
0000
0100
1000
0001
1000
,
0010
0100
0001
0020
0000
0031
0010
0000
,
0011
0000
0000
1000
0000
0000
0101
0000
0000
0000
0001
0000
0100
0010
1000
0001
,
1000
0000
0000
0200
0000
0000
0001
0000
0000
0000
1300
0000
0001
0000
0100
0000
,
0001
0000
0000
0200
0000
0000
1000
0000
0000
0000
0301
0000
1000
0000
0100
0000
,
0020
0000
0000
0000
0031
0000
1000
0001
0200
0000
0000
0000
0301
0000
0000
0000
,
0101
0000
0000
1000
0000
0000
0011
0000
0000
0000
0010
0000
0001
1000
0001
0100
,
0010
0000
1000
0010
0000
1000
0200
0000
0000
0000
0310
0000
0001
0000
0000
0000
,
0010
0000
0001
0010
0000
0001
0200
0000
0000
0000
0310
0000
1000
0000
0010
0000
,
1000
0000
0010
0100
0000
0010
0002
0000
0000
0000
0013
0000
0100
0000
0000
0000
,
0110
0000
0010
1000
0001
0000
1000
0100
0010
0001
0010
0000
,
0011
0000
0001
0010
0100
0000
1100
0000
0000
1001
0000
0000
,
1010
0000
1000
0010
0100
0000
0101
0000
0000
1001
0000
0000
,
0011
0000
0001
0010
0100
0000
1100
0000
0000
1001
0000
0000
,
1010
0000
0010
1000
0001
0000
1000
0100
0000
1000
0000
0000
,
1100
0000
1000
0100
0010
0002
0010
0000
1000
0000
0103
0000
,
0101
0000
0001
0100
0010
2000
0010
0000
0001
0000
3100
0000
,
1100
0000
0000
0000
0000
0000
0000
0000
0100
0000
0000
0000
1000
0000
0000
0000
0001
0000
0000
0000
0000
0000
0000
0000
1001
0000
0000
0000
0000
0000
0000
0000
0000
0000
0000
0000
0000
0000
0000
0000
0000
0000
1000
0000
0000
0100
0000
0000
,
0010
0001
1000
0010
0100
0000
2000
0000
3100
0010
0100
0000
0001
0000
0020
0000
,
0130
0010
0100
0000
0002
0000
0103
0010
0100
0000
2000
0000
3001
0000
1000
0000
,
0010
0000
0100
0000
0010
0000
0002
0000
0013
0100
0010
0000
1000
0000
0200
0000
,
0310
0100
0010
0000
2000
0000
3010
0100
0010
0000
0002
0000
1003
0000
0001
0000
,
0010
0100
1000
0200
0001
0310
0100
1000
,
0001
0000
0200
0000
1000
0000
0310
0000
0100
0000
0001
0000
1000
0000
0001
0010
,
0100
0010
0001
0020
1000
0130
0010
0001
,
1000
0000
0001
0000
0200
0000
0000
0000
0301
0000
0000
0000
0100
0000
0001
0100
,
0010
1000
0001
0010
0100
0000
0002
0000
0103
0010
0100
0000
1000
0000
0020
0000
,
0130
0010
0100
0000
2000
0000
3100
0010
0100
0000
0002
0000
0103
0000
0001
0000
,
1000
0000
0100
0000
0010
0000
2000
0000
3010
0100
0010
0000
0001
0000
0200
0000
,
0310
0100
0010
0000
0002
0000
0013
0100
0010
0000
2000
0000
3010
0000
1000
0000
,
0010
0100
0001
0200
1000
0310
0100
0001
,
1000
0000
0200
0000
0001
0000
0310
0000
0100
0000
1000
0000
0001
0000
1000
0010
,
0100
0010
1000
0020
0001
0130
0010
1000
,
0001
0010
2000
0000
3010
0100
0010
0001
,
0200
0000
0000
0320
0000
0000
2030
0000
3002
0000
0000
0000
0003
0000
2000
0000
,
0000
3000
0002
0000
0003
2000
0000
3000
,
0002
0000
0103
0000
0020
0000
0030
0200
,
0000
0300
0020
0000
0030
0200
0000
0300
,
0020
0000
1030
0001
2000
0000
3000
0002
,
0000
0003
2000
0000
3000
0002
0000
0003
,
2000
0000
3100
0000
0020
0000
0030
0200
,
0000
0000
0300
0000
0010
0000
0000
0000
1001
0000
0000
0000
0001
1000
0001
1000
,
0001
0000
0000
0000
0000
0000
0000
0000
0100
0000
0000
0000
0000
0000
0000
0000
0010
0000
0000
0000
0000
0000
0000
0000
0101
0000
0000
0000
0000
0000
0000
0000
0000
0000
0000
0000
0001
0000
0000
0100
0000
0000
0001
0000
0000
0100
0000
0000
,
0001
0100
0001
0100
0020
0000
0000
0000
1030
0100
1000
0100
1000
0100
1000
0100
,
0010
0000
0000
0000
0110
0000
0000
0000
0011
0000
0000
0000
0001
0010
0001
0010
,
0001
0010
0001
0010
0100
0000
0000
0000
1100
0000
0000
0001
0000
0000
1010
0000
,
1000
0010
0100
0001
1000
0100
0010
0001
1000
0010
1000
0010
1000
0010
1000
0010
,
1000
0010
1000
0010
0100
0001
1000
0001
0010
0001
0010
0001
0010
0001
0010
0001
,
1000
0100
0010
0001
1000
0001
0100
0010
0100
0001
0100
0001
0100
0001
0100
0001
,
0100
0001
0100
0001
1000
0000
0000
0000
1002
0000
0000
0013
0000
0000
0200
0000
,
0000
0000
0310
0001
1000
0000
0020
0000
0030
0000
0100
0000
0101
0000
0001
0000
,
0100
0001
0100
0001
1000
0000
1001
0000
0000
0000
0000
0000
0000
0000
0000
0000
;

//--------------- dance-single - mine ----------------
#NOTEDATA:;
#STEPSTYPE:dance-single;
#DESCRIPTION:mine;
#DIFFICULTY:Edit;
#METER:1;
#RADARVALUES:0,0,0,0,0;
#NOTES:
0000
0000
0000
0000
,
0000
0000
0000
0000
,
0000
0000
0000
0000
,
0000
0000
0000
0000
,
0000
0000
0000
0000
,
0000
0000
0000
0000
,
0000
0000
0000
0000
,
0000
0000
0000
0000
,
0000
0000
0000
0000
,
0000
0000
0000
0000
,
0000
0000
0000
0000
,
0000
0000
0000
0000
,
0000
0000
0000
0000
,
0000
0000
0000
0000
,
0000
0000
0000
0000
,
0000
0000
0000
0000
,
0000
0000
0000
0000
,
0000
0000
0000
0000
,
0000
0000
0000
0000
,
0000
0000
0000
0000
,
0000
0000
0000
0000
,
0000
0000
0000
0000
,
0000
0000
0000
0000
,
0000
0000
0000
0000
,
0000
0000
0000
0000
,
0000
0000
0000
0000
,
0000
0000
0000
0000
,
0000
0000
0000
0000
,
0000
0000
0000
0000
,
0000
0000
0000
0000
,
0000
0000
0000
0000
,
0000
0000
0000
0000
,
0000
0000
0000
0000
,
0000
0000
0000
0000
,
0000
0000
0000
0000
,
0000
0000
0000
0000
,
0000
0000
0000
0000
,
0000
0000
0000
0000
,
0000
0000
0000
0000
,
0000
0000
0000
0000
,
0000
0000
0000
0000
,
0000
0000
0000
0000
,
0000
0000
0000
0000
,
0000
0000
0000
0000
,
0000
0000
0000
0000
,
0000
0000
0000
0000
,
0000
0000
0000
0000
,
0000
0000
0000
0000
,
0000
0000
0000
0000
,
0000
0000
0000
0000
,
0000
0000
0000
0000
,
0000
0000
0000
0000
,
0000
0000
0000
0000
,
0000
0000
0000
0000
,
0000
0000
0000
0000
,
0000
0000
0000
0000
,
0000
0000
0000
0000
,
0000
0000
0000
0000
,
0000
0000
0000
0000
,
0000
0000
0000
0000
,
0000
0000
0000
0000
,
0000
0000
0000
0000
,
0000
0000
0000
0000
,
0000
0000
0000
0000
,
0000
0000
0000
0000
,
0000
0000
0000
0000
,
0000
0000
0000
0000
,
0000
0000
0000
0000
,
0000
0000
0000
0000
,
0000
0000
0000
0000
,
0000
0000
0000
0000
,
0000
0000
0000
0000
,
0000
0000
0000
0000
,
0M00
0000
0000
0000
;
