#TITLE:Smells Like a Chocolate (V.Kim's Style);
#SUBTITLE:;
#ARTIST:Vospi vs. XOX Generation;
#TITLETRANSLIT:;
#SUBTITLETRANSLIT:;
#ARTISTTRANSLIT:;
#GENRE:WORLD MUSIC;
#CREDIT:;
#BANNER:Smells Like a Chocolate.png;
#BACKGROUND:Smells Like a Chocolate-bg.png;
#LYRICSPATH:;
#CDTITLE:;
#MUSIC:Smells Like a Chocolate (V.Kim's Style).ogg;
#OFFSET:-0.043000;
#SAMPLESTART:77.812683;
#SAMPLELENGTH:14.980000;
#SELECTABLE:YES;
#BPMS:0.000000=176.000000
,68.000000=88.000000
,84.000000=176.000000
,116.000000=88.000000
,148.000000=176.000000
;
#STOPS:
;
#BGCHANGES:;
#KEYSOUNDS:;
#ATTACKS:;

//---------------dance-single - ----------------
#NOTES:
     dance-single:
     :
     Beginner:
     4:
     0.149923,0.215722,0.016658,0.083290,0.000000,126.000000,124.000000,2.000000,10.000000,0.000000,0.000000,0.149923,0.215722,0.016658,0.083290,0.000000,126.000000,124.000000,2.000000,10.000000,0.000000,0.000000:
0000
0000
0000
0000
,
0000
0000
0000
0000
,
0000
0000
0000
0000
,
0000
0000
0000
0000
,
0000
0000
0000
0000
,
1000
0000
1000
0000
,
1000
0000
0000
0000
,
0001
0000
0001
0000
,
0001
0000
0000
0000
,
1000
0000
0001
0000
,
1000
0000
0001
0000
,
0100
0000
0010
0000
,
0100
0000
0010
0000
,
1000
0000
0010
0000
,
0100
0000
0001
0000
,
0100
0000
0010
0000
,
1000
0000
0001
0000
,
1000
1000
2000
0000
,
3000
0000
0000
0000
,
0001
0001
0002
0000
,
0003
0000
1001
0000
,
1000
0000
0100
0000
,
1000
0000
0100
0000
,
0010
0000
0001
0000
,
0010
0000
0001
0000
,
0100
0000
0010
0000
,
0100
0000
0010
0000
,
0200
0000
0300
0000
,
0020
0000
0030
0000
,
0010
0010
0010
0000
,
0100
0000
0010
0000
,
1000
1000
1000
0000
,
0001
0000
1000
0000
,
0001
0010
0001
0000
,
0100
0000
0010
0000
,
1000
0100
1000
0000
,
0010
0100
0200
0300
,
0001
0000
1000
0000
,
0001
0000
0010
0000
,
0001
0000
1000
0000
,
0001
0000
0001
0000
,
1000
0000
0001
0000
,
1000
0000
0010
0000
,
1000
0000
0001
0000
,
1000
1000
1000
0000
,
0100
0000
0010
0000
,
0001
0000
1000
0000
,
0100
0000
0100
0000
,
0010
0000
0010
0000
,
0002
0000
0000
0000
,
0003
0000
1000
1000
,
1000
0000
0001
0000
,
2000
0000
3000
0000
,
0010
0000
0000
0010
,
0000
0010
0000
0010
,
0010
0000
1000
0000
,
0001
0000
0100
0000
,
0010
0000
1000
0000
,
0001
0000
0100
0000
,
1000
0000
0010
0000
,
0001
0000
1000
0000
,
2002
0000
0000
0000
,
0000
0000
0000
0000
,
3003
0000
0000
0000
,
0000
0000
0000
0000
,
1000
0000
1000
0000
,
1000
0000
0000
0000
,
0001
0000
0001
0000
,
0001
0000
0000
0000
,
0100
0000
0100
0000
,
0100
0000
0000
0000
,
0010
0000
0010
0000
,
0020
0000
0000
0000
,
0000
0000
0000
0000
,
0030
0000
0000
0000
;

//---------------dance-single - ----------------
#NOTES:
     dance-single:
     :
     Easy:
     6:
     0.239162,0.308174,0.141594,0.183239,0.000000,201.000000,184.000000,17.000000,22.000000,0.000000,0.000000,0.239162,0.308174,0.141594,0.183239,0.000000,201.000000,184.000000,17.000000,22.000000,0.000000,0.000000:
0000
0000
0000
0000
,
0000
0000
0000
0000
,
0000
0000
0000
0000
,
0000
0000
0000
0000
,
0000
0000
0000
0000
,
2000
3000
1000
0001
,
1000
0000
1000
0000
,
0002
0003
0001
1000
,
0001
1001
0000
0000
,
1000
0000
0010
0000
,
1000
0100
1000
0000
,
0001
0000
0100
0000
,
0001
0010
0001
0000
,
1000
0000
0001
0000
,
0100
0010
0100
0000
,
0001
0000
1000
0000
,
0010
0100
0010
0010
,
1000
1000
2000
3000
,
0100
1000
0001
0010
,
0001
0001
0002
0003
,
0100
0100
0100
0000
0020
0000
0030
0000
,
1000
0001
0100
0000
,
0001
1000
1001
0000
,
0001
1000
0010
0000
,
1000
0001
1001
0000
,
1000
0010
0100
0000
,
0100
1000
1001
0000
,
0001
0100
0010
0000
,
0010
0001
1001
0000
,
1000
0100
0020
0030
,
0110
0000
0110
0000
,
0001
0010
0200
0300
,
0110
0000
0110
0000
,
1000
1000
0010
0010
,
0001
0001
0100
0100
,
1000
0010
0001
0100
,
2000
3000
0002
0003
,
1000
0010
1000
0010
,
1000
0010
1000
0000
,
0001
0100
0001
0100
,
0001
0100
0001
0000
,
1000
0001
1000
0001
,
0100
0010
0100
0010
,
1000
0001
0100
0010
,
0100
0100
0200
0300
,
0001
0000
0010
0000
,
0100
0000
1000
0000
,
1010
0000
0101
0000
,
0011
0000
1100
0000
,
2002
0000
0000
0000
,
3003
0000
1000
0001
,
1000
0100
0010
0001
,
0020
0000
0030
0001
,
0200
0000
0300
0010
,
0000
0010
0000
0010
,
0010
1000
0010
0100
,
0001
0100
0010
1000
,
1001
0001
0100
0010
,
1000
0100
0010
0001
,
0010
1000
0010
0001
,
0010
0100
1000
0001
,
2002
0000
0000
0000
,
0000
0000
0000
0000
,
3003
0000
0000
0000
,
0000
0000
0000
0000
,
0002
0003
0001
0010
,
0100
0000
0000
0000
,
2000
3000
1000
0100
,
0010
0000
0000
0000
,
0020
0030
0010
0001
,
0100
0000
0000
0000
,
0200
0300
0100
0010
,
2002
0000
0000
0000
,
0000
0000
0000
0000
,
3003
0000
0000
0000
;

//---------------dance-double - ----------------
#NOTES:
     dance-double:
     :
     Easy:
     7:
     0.233213,0.308174,0.108277,0.208226,0.000000,196.000000,183.000000,13.000000,25.000000,0.000000,0.000000,0.233213,0.308174,0.108277,0.208226,0.000000,196.000000,183.000000,13.000000,25.000000,0.000000,0.000000:
// measure 0
00000000
00000000
00000000
00000000
,  // measure 1
00000000
00000000
00000000
00000000
,  // measure 2
00000000
00000000
00000000
00000000
,  // measure 3
00000000
00000000
00000000
00000000
,  // measure 4
00000000
00000000
00000000
00000000
,  // measure 5
00002000
00003000
00001000
00001000
,  // measure 6
00001000
00000000
00011000
00000000
,  // measure 7
00020000
00030000
00010000
00010000
,  // measure 8
00010000
00011000
00000000
00000000
,  // measure 9
00001000
00000000
00010000
00000000
,  // measure 10
01000000
10000000
01000000
00000000
,  // measure 11
00010000
00000000
00001000
00000000
,  // measure 12
00000100
00000001
00000100
00000000
,  // measure 13
00001000
00000000
00010000
00000000
,  // measure 14
00100000
10000000
00100000
00000000
,  // measure 15
00010000
00000000
00001000
00000000
,  // measure 16
00000010
00000001
00000010
00000010
,  // measure 17
00000001
00000100
00002000
00003000
,  // measure 18
00010000
00010000
00001000
00001000
,  // measure 19
00010000
00100000
20000000
30000000
,  // measure 20
00010000
01000000
02200000
03300000
,  // measure 21
00100000
10000000
01000000
00000000
,  // measure 22
01000000
00010000
00011000
00000000
,  // measure 23
00010000
00001000
00000010
00000000
,  // measure 24
00000010
00000001
00000101
00000000
,  // measure 25
00000100
00001000
00010000
00000000
,  // measure 26
00010000
01000000
11000000
00000000
,  // measure 27
10000000
00100000
00010000
00000000
,  // measure 28
00010000
00001000
00011000
00000000
,  // measure 29
00010000
00000100
00000020
00000030
,  // measure 30
00000200
00000000
00001300
00000000
,  // measure 31
00001000
00100000
02000000
03000000
,  // measure 32
00200000
00000000
00310000
00000000
,  // measure 33
00010000
00001000
00000010
00001000
,  // measure 34
00010000
00100000
00010000
00001000
,  // measure 35
00000100
00001000
00010000
01000000
,  // measure 36
00020000
00000000
00002000
00033000
,  // measure 37
00001000
01000000
00001000
00010000
,  // measure 38
00001000
01000000
00001000
00000000
,  // measure 39
00010000
00000100
00010000
00001000
,  // measure 40
00010000
00000100
00010000
00000000
,  // measure 41
00001000
00100000
00001000
00010000
,  // measure 42
00000010
00010000
00001000
00100000
,  // measure 43
01000000
00010000
00001000
00000010
,  // measure 44
00000100
00000010
00000020
00000030
,  // measure 45
00000001
00000000
00000100
00000000
,  // measure 46
00001000
00000000
00010000
00000000
,  // measure 47
00010010
00000000
00101000
00000000
,  // measure 48
00010100
00000000
01001000
00000000
,  // measure 49
00022000
00000000
00000000
00000000
,  // measure 50
00033000
00000000
00001000
00010000
,  // measure 51
00100000
10000000
01000000
00100000
,  // measure 52
02000000
00000000
03000000
00010000
,  // measure 53
00002000
00000000
00003000
00000100
,  // measure 54
00000000
00000100
00000000
00000100
,  // measure 55
00000100
00000001
00000100
00001000
,  // measure 56
00010000
00100000
10000000
02000000
,  // measure 57
03100000
00100000
00001000
00010000
,  // measure 58
00100000
00001000
00000010
00010000
,  // measure 59
00001000
00000100
00010000
01000000
,  // measure 60
00001000
00001000
00010000
00010000
,  // measure 61
00022000
00000000
00000000
00000000
,  // measure 62
00000000
00000000
00000000
00000000
,  // measure 63
00033000
00000000
00000000
00000000
,  // measure 64
00000000
00000000
00000000
00000000
,  // measure 65
00002000
00003000
00100000
00100000
,  // measure 66
00100000
00000000
00000000
00000000
,  // measure 67
00020000
00030000
00000010
00000010
,  // measure 68
00000010
00000000
00000000
00000000
,  // measure 69
00002000
00003000
01000000
01000000
,  // measure 70
01000000
00000000
00000000
00000000
,  // measure 71
00020000
00030000
00000100
00000100
,  // measure 72
00000200
00000000
00000000
00000000
,  // measure 73
00000000
00000000
00000000
00000000
,  // measure 74
00000300
00000000
00000000
00000000
;

//---------------dance-single - ----------------
#NOTES:
     dance-single:
     :
     Medium:
     9:
     0.348629,0.493079,0.091619,0.283187,0.045810,293.000000,282.000000,11.000000,34.000000,0.000000,0.000000,0.348629,0.493079,0.091619,0.283187,0.045810,293.000000,282.000000,11.000000,34.000000,0.000000,0.000000:
0000
0000
0000
0000
,
0000
0000
0000
0000
,
0000
0000
0000
0000
,
0000
0000
0000
0000
,
0000
0000
0000
0000
,
1000
0001
0000
0100
0000
0100
0000
0100
,
0000
0000
0000
0000
0001
1000
0001
0000
,
0001
1000
0000
0010
0000
0010
0000
0010
,
0000
2002
0000
0000
0000
0000
3003
0000
,
1000
0010
1000
0010
,
1000
0100
0000
0100
1000
0000
0001
0000
,
0010
0001
0010
0001
,
0010
0001
0000
0001
0100
0001
0100
0000
,
0010
0100
0001
0100
,
0010
0100
0000
0100
0001
0000
0100
0000
,
0010
1000
0010
0100
,
0010
1000
0000
1000
0010
1000
0010
0000
,
0100
0000
0000
0100
0000
0000
0200
0000
0000
0000
0000
0000
0301
0000
0000
0000
,
0001
0010
0100
1000
,
0010
0000
0000
0010
0000
0000
0020
0000
0000
0000
0000
0000
1030
0000
0000
0000
,
1000
0100
0010
0001
2002
0000
3003
0000
,
1000
0010
0000
0010
0000
0100
0000
0000
,
0010
0100
0000
0010
0000
1010
0000
0000
,
0001
0010
0000
0010
0000
0100
0000
0000
,
0010
0100
0000
0010
0000
0011
0000
0000
,
1000
0100
0000
0100
0000
0001
0000
0000
,
0100
1000
0000
0010
0000
0101
0000
0000
,
0001
0100
0000
0100
0000
1000
0000
0000
,
0100
0001
0000
0010
0000
1100
0000
0000
,
1000
0000
0000
1000
0000
0000
2000
0000
0000
0000
0000
0000
0000
0000
0000
0000
,
3010
0000
0000
0010
0000
0010
0000
0000
0100
0000
0001
0100
0000
0000
0000
0000
,
0001
0000
0000
0001
0000
0000
0002
0000
0000
0000
0000
0000
0000
0000
0000
0000
,
0103
0000
0000
0100
0000
0100
0000
0000
0010
0000
1000
0010
0000
1000
0000
0000
,
0001
0100
0010
0100
1000
0100
0010
0100
,
0002
2003
3020
0230
,
0310
1000
0010
0100
0010
0001
0010
0100
,
0020
0030
2002
3003
,
1000
0010
1000
0000
0001
0010
0001
0000
,
1000
0010
1000
0010
1000
0000
0000
0000
,
0001
0100
0001
0000
1000
0100
1000
0000
,
0001
0100
0001
0100
0001
0000
0000
0000
,
1000
0010
1000
0000
0001
0010
0001
0000
,
1000
0100
1000
0000
0001
0100
0001
0000
,
1000
0010
0100
0001
1000
0010
0100
0010
,
0000
0010
0000
0020
0000
0000
0130
0001
,
1000
0000
0100
1000
0000
0001
0000
1000
,
0000
1001
0000
0000
0001
0000
0001
0000
,
0200
0000
0320
0000
,
2030
0000
3002
0000
,
0013
0000
0010
0100
0000
0010
0000
0200
,
0000
0000
0000
1300
0010
0100
0001
0100
,
0010
1000
0000
0100
0000
0010
0000
0002
,
0000
0000
0000
0000
0003
0000
0010
0001
,
0200
0000
0000
0000
0300
0000
1000
0200
,
0300
0000
0001
0200
0000
0300
0000
1000
,
0100
0001
0000
0010
0000
0100
0000
1000
,
0000
0010
0000
0001
0000
0010
0000
1000
,
0200
0000
0310
0001
0100
0000
0010
1000
,
0100
0000
0010
0001
1000
0000
0100
1000
,
0001
0100
0001
1000
0100
0000
1000
0000
,
0010
1000
0001
0010
0001
1000
0010
0000
,
2002
0000
0000
0000
,
0000
0000
0000
0000
,
3003
0000
0000
0000
,
0000
0000
0000
0000
,
0001
0100
0000
0010
0000
0010
0000
1000
,
0000
0200
0000
0000
0300
0000
0000
0000
,
1000
0010
0000
0100
0000
0100
0000
0001
,
0000
2002
0000
0000
3003
0000
0000
0000
,
0001
0010
0000
0010
0000
1000
0000
1000
,
0000
0200
0000
0000
0300
0000
0000
0000
,
1000
0010
0000
0010
0000
0001
0000
0100
,
0000
2002
0000
0000
0000
0000
0000
0000
,
0000
0000
0000
0000
,
3003
0000
0000
0000
;

//---------------dance-double - ----------------
#NOTES:
     dance-double:
     :
     Medium:
     10:
     0.343870,0.523896,0.099948,0.258200,0.045810,289.000000,277.000000,12.000000,31.000000,0.000000,0.000000,0.343870,0.523896,0.099948,0.258200,0.045810,289.000000,277.000000,12.000000,31.000000,0.000000,0.000000:
// measure 0
00000000
00000000
00000000
00000000
,  // measure 1
00000000
00000000
00000000
00000000
,  // measure 2
00000000
00000000
00000000
00000000
,  // measure 3
00000000
00000000
00000000
00000000
,  // measure 4
00000000
00000000
00000000
00000000
,  // measure 5
00001000
00010000
00000000
00000010
00000000
00001000
00000000
00000010
,  // measure 6
00000000
00010000
00000000
00000000
00001000
00010000
00001000
00000000
,  // measure 7
00010000
00001000
00000000
00100000
00000000
00010000
00000000
00100000
,  // measure 8
00000000
00002000
00000000
00000000
00000000
00010000
00013000
00000000
,  // measure 9
00011000
00001000
00100000
00010000
,  // measure 10
01000000
00100000
00000000
01000000
00100000
00000000
01000000
00000000
,  // measure 11
00010000
00100000
00001000
00010000
,  // measure 12
00000100
00001000
00000000
00001000
00000010
00000100
00000010
00000000
,  // measure 13
00001000
00000001
00000100
00001000
,  // measure 14
00010000
00001000
00000000
00010000
00001000
00000000
00010000
00000000
,  // measure 15
00100000
10000000
01000000
00100000
,  // measure 16
00010000
01000000
00000000
01000000
00001000
00010000
00001000
00000000
,  // measure 17
00010000
00000000
00000000
00010000
00000000
00000000
00020000
00000000
00000000
00000000
00000000
00000000
00030010
00000000
00000000
00000000
,  // measure 18
00000010
00001000
00000100
00000010
,  // measure 19
00001000
00000000
00000000
00001000
00000000
00000000
00002000
00000000
00000000
00000000
00000000
00000000
00103000
00000000
00000000
00000000
,  // measure 20
00100000
00010000
01000000
00001000
00022000
00000000
00033000
00000000
,  // measure 21
00010000
00000100
00000000
00001000
00000000
00000100
00000000
00000000
,  // measure 22
00000010
00000001
00000000
00000100
00000000
00000110
00000000
00000000
,  // measure 23
00000010
00010000
00000000
00001000
00000000
00010000
00000000
00000000
,  // measure 24
00001000
00100000
00000000
01000000
00000000
11000000
00000000
00000000
,  // measure 25
10000000
00100000
00000000
01000000
00000000
00100000
00000000
00000000
,  // measure 26
00010000
00001000
00000000
00010000
00000000
00010010
00000000
00000000
,  // measure 27
00000010
00001000
00000000
00000100
00000000
00001000
00000000
00000000
,  // measure 28
00000001
00000100
00000000
00001000
00000000
00011000
00000000
00000000
,  // measure 29
00010000
00000000
00000000
00010000
00000000
00000000
00020000
00000000
00000000
00000000
00000000
00000000
00000000
00000000
00000000
00000000
,  // measure 30
00030100
00000000
00000000
00000100
00000000
00000100
00000000
00000000
00010000
00000000
00001000
00010000
00000000
00000000
00000000
00000000
,  // measure 31
00001000
00000000
00000000
00001000
00000000
00000000
00002000
00000000
00000000
00000000
00000000
00000000
00000000
00000000
00000000
00000000
,  // measure 32
01003000
00000000
00000000
01000000
00000000
01000000
00000000
00000000
00001000
00000000
00010000
00001000
00000000
00010000
00000000
00000000
,  // measure 33
00000100
00000010
00000001
00000010
00001000
00000010
00000001
00000010
,  // measure 34
00002000
01000000
00023000
00000010
,  // measure 35
00130000
01000000
10000000
01000000
00010000
01000000
10000000
01000000
,  // measure 36
00010000
00100000
01000000
00010000
00022000
00000000
00033000
00000000
,  // measure 37
00001000
00010000
01000000
10000000
,  // measure 38
00100000
00010000
00001000
00000000
00011000
00000000
00000000
00000000
,  // measure 39
00010000
00001000
00000100
00000001
,  // measure 40
00000010
00001000
00010000
00000000
00011000
00000000
00000000
00000000
,  // measure 41
00001000
00100000
01000000
00010000
,  // measure 42
00001000
00000010
00000100
00010000
,  // measure 43
00001000
01000000
00000000
00001000
00000000
00010000
00000000
00000100
,  // measure 44
00000000
00010000
00000000
00002000
00000000
00000000
00103000
00010000
,  // measure 45
00100000
00000000
01000000
00100000
00000000
01000000
00000000
10000000
,  // measure 46
00000000
00020000
00000000
00000000
01030000
00000000
00001000
00000000
,  // measure 47
00020000
00000000
00230000
00000000
,  // measure 48
00302000
00000000
00003020
00000000
,  // measure 49
00000130
00000000
00000100
00000001
00000000
00000100
00000000
00000020
,  // measure 50
00000000
00000000
00000000
00001030
00000100
00001000
00000100
00000010
,  // measure 51
00000001
00000100
00000000
00001000
00000000
00010000
00000000
00022000
,  // measure 52
00000000
00000000
00000000
00000000
00033000
00000000
00001000
00010000
,  // measure 53
02000000
00000000
00000000
00000000
03000000
00000000
00010000
00002000
,  // measure 54
00003000
00000000
00010000
02000000
00000000
03000000
00000000
10000000
,  // measure 55
00100000
00010000
00000000
00001000
00000000
00100000
00000000
00010000
,  // measure 56
00000000
00000010
00000000
00001000
00000000
00010000
00000000
00000100
,  // measure 57
00002000
00000000
00003001
00000100
00000010
00000000
00001000
00000100
,  // measure 58
00010000
00000000
00001000
00100000
00010000
00000000
01000000
00100000
,  // measure 59
10000000
00100000
01000000
00010000
00100000
00001000
00010000
00000100
,  // measure 60
00001000
00000100
00000010
00000001
00000100
00000010
00001000
00000000
,  // measure 61
00022000
00000000
00000000
00000000
,  // measure 62
00000000
00000000
00000000
00000000
,  // measure 63
00033000
00000000
00000000
00000000
,  // measure 64
00000000
00000000
00000000
00000000
,  // measure 65
00010000
00001000
00000000
01000000
00000000
00001000
00000000
00010000
,  // measure 66
00000000
00002000
00000000
00000000
00003000
00000000
00000000
00000000
,  // measure 67
00001000
00010000
00000000
00000100
00000000
00010000
00000000
00001000
,  // measure 68
00000000
00020000
00000000
00000000
00030000
00000000
00000000
00000000
,  // measure 69
00010000
00001000
00000000
00010000
00000000
00100000
00000000
00010000
,  // measure 70
00000000
00002000
00000000
00000000
00003000
00000000
00000000
00000000
,  // measure 71
00001000
00010000
00000000
00001000
00000000
00000010
00000000
00001000
,  // measure 72
00000000
00022000
00000000
00000000
00000000
00000000
00000000
00000000
,  // measure 73
00000000
00000000
00000000
00000000
,  // measure 74
00033000
00000000
00000000
00000000
;

//---------------dance-single - ----------------
#NOTES:
     dance-single:
     :
     Hard:
     12:
     0.472375,0.708800,0.299845,0.641335,0.166581,397.000000,361.000000,36.000000,77.000000,0.000000,0.000000,0.472375,0.708800,0.299845,0.641335,0.166581,397.000000,361.000000,36.000000,77.000000,0.000000,0.000000:
0000
0000
0000
0000
,
0000
0000
0000
0000
,
0000
0000
0000
0000
,
0000
0000
0000
0000
,
0000
0000
0000
0000
,
0001
1000
0000
1010
0000
0010
0000
1010
,
0000
2000
3000
0000
1000
0100
0010
0001
,
1000
0001
0000
0011
0000
0010
0000
0011
,
0000
0000
2002
0000
0000
0000
0003
0000
0000
0000
3010
0000
0010
0000
0100
0010
,
0100
0001
0000
0011
0000
0010
0000
0001
,
0100
0020
0000
0130
0020
0000
1030
0000
,
1000
0100
0000
1100
0000
1000
0000
0100
,
1000
0020
0000
0130
0001
0010
0100
0100
,
1000
0001
0000
0101
0000
0100
0000
1010
,
0000
2000
0000
3100
0010
0100
1000
1000
,
0001
0100
0000
0101
0000
0010
0000
1010
,
1000
0100
0000
0000
1000
0000
0001
0100
0000
0001
0000
0000
0100
0000
0100
0000
,
0020
0000
0000
2030
0000
0000
3002
0000
0000
0000
0000
0000
0103
0000
0000
0100
,
0001
0000
0000
0001
0010
0000
0000
0010
1000
0000
0000
1000
0010
0000
0000
0010
,
0002
0000
0000
2003
0000
0000
3020
0000
0000
0000
0000
0000
0130
0000
0000
0000
,
0100
0001
0010
0100
2002
0000
3003
0000
,
1000
0010
0100
0010
0000
0011
0000
0001
,
0010
0100
0010
1000
0000
2200
3300
0000
,
0001
0010
0100
0010
0000
1010
0000
1000
,
0010
0100
0010
0001
0000
0202
0303
0000
,
1000
0100
0001
0100
0000
1100
0000
1000
,
0010
0001
1000
0100
0000
0220
0330
0000
,
0001
0100
1000
0100
0000
0101
0000
0001
,
0010
1000
0001
0100
0000
2002
3003
0000
,
0002
0000
0000
0023
0000
0000
0230
0000
0000
0000
0000
0000
0000
0000
0000
0000
,
1300
0000
1000
0010
0000
1010
0000
0000
0011
0000
0010
1000
0000
0000
0000
0000
,
2000
0000
0000
3200
0000
0000
0320
0000
0000
0000
0000
0000
0000
0000
0000
0000
,
0031
0000
0001
0100
0000
0101
0000
0000
1100
0000
0100
0001
0000
0020
0000
0000
,
0130
1000
0100
0000
1000
0010
1000
0000
0001
0100
0001
0000
0010
0001
0010
0000
,
0002
0103
2000
3010
0002
0013
2000
3100
,
0100
0010
0001
0000
1000
0100
0010
0000
0001
1000
0010
0000
1000
0001
0100
0010
,
2000
0000
0002
3003
,
0001
0100
0001
1000
0001
0100
0001
1000
,
0001
0100
1000
0100
0001
1000
1001
0000
,
1000
0100
1000
0001
1000
0100
1000
0001
,
1000
0000
0100
0000
0001
0000
0100
0000
1000
0010
0000
0100
0001
0000
0010
0000
,
0010
0001
0100
0001
1000
0100
1000
0010
,
1000
0000
0001
0000
0010
0000
0001
0000
0100
0000
0001
0000
1000
0100
1000
0100
,
1000
0020
0000
0230
0000
0302
0000
2003
,
0000
0000
3200
0000
0000
0000
0320
0000
0000
0000
0000
0000
0031
0000
0001
1000
,
0001
0000
1000
0020
0000
0032
0000
0023
,
0000
2030
0000
0000
3200
0000
0320
0000
,
0032
0100
2003
0010
,
3200
0010
2300
3001
,
1001
0000
0001
0020
0000
2030
0000
3020
,
0000
0000
0000
0031
0100
1000
0100
0010
,
0100
0002
0000
0023
0000
0230
0000
1300
,
1000
0010
1000
0000
0001
0000
0010
0001
0000
0010
0000
0000
0100
0000
0100
0000
,
0220
0000
0000
0000
0000
0000
0000
0000
0330
0000
0000
0000
0010
0002
0000
0000
,
0003
0000
0000
0000
0010
2000
0000
0000
0000
0000
3000
0000
0000
0000
0010
0001
,
0010
0200
0000
2300
0000
3020
0000
0032
,
0000
2003
0000
3200
0000
0302
0000
0013
,
0100
1000
0001
0000
0010
0001
1000
0000
,
0100
1000
0100
0010
0001
0010
0100
1000
,
0010
0001
0010
0001
0010
1000
0010
1000
,
0010
0100
1000
0100
0001
0100
1000
0100
,
0020
0000
0000
0000
,
0000
0000
0000
0000
,
2030
0000
0000
0000
0000
0000
0000
0002
,
0000
0000
0000
3003
,
0001
0100
0000
0101
0000
0001
0000
1001
,
0000
2000
0000
0000
3000
0000
0000
0000
,
0010
1000
0000
1010
0000
0010
0000
0110
,
0000
0200
0000
0000
0300
0000
0000
0000
,
0001
0010
0000
0011
0000
0100
0000
1100
,
0000
0020
0000
0000
0030
0000
0000
0000
,
0100
1000
0000
1010
0000
0001
0000
0101
,
0000
2002
0000
0000
0000
0000
0000
0000
,
0000
0000
0000
0000
,
3003
0000
0000
0000
;

//---------------dance-double - ----------------
#NOTES:
     dance-double:
     :
     Hard:
     13:
     0.480704,0.708800,0.324832,0.591361,0.183239,404.000000,365.000000,39.000000,71.000000,0.000000,0.000000,0.480704,0.708800,0.324832,0.591361,0.183239,404.000000,365.000000,39.000000,71.000000,0.000000,0.000000:
// measure 0
00000000
00000000
00000000
00000000
,  // measure 1
00000000
00000000
00000000
00000000
,  // measure 2
00000000
00000000
00000000
00000000
,  // measure 3
00000000
00000000
00000000
00000000
,  // measure 4
00000000
00000000
00000000
00000000
,  // measure 5
00010000
00001000
00000000
00011000
00000000
00010000
00000000
00011000
,  // measure 6
00000000
02000000
03000000
00000000
00001000
00100000
00010000
01000000
,  // measure 7
00001000
00010000
00000000
00011000
00000000
00001000
00000000
00011000
,  // measure 8
00000000
00000000
00000020
00000000
00000000
00000000
00000000
00000000
00000000
00000000
00001030
00000000
00001000
00000000
00000001
00000100
,  // measure 9
00000001
00001000
00000000
00001100
00000000
00000100
00000000
00000010
,  // measure 10
00001000
00020000
00000000
00031000
00020000
00000000
00030100
00000000
,  // measure 11
00010000
00001000
00000000
01001000
00000000
01000000
00000000
00010000
,  // measure 12
00100000
02000000
00000000
13000000
00100000
00010000
00001000
00100000
,  // measure 13
00010000
01000000
00000000
01001000
00000000
00001000
00000000
00011000
,  // measure 14
00000000
00020000
00000000
00030100
00001000
00000100
00000010
00000010
,  // measure 15
00000001
00000100
00000000
00000110
00000000
00000010
00000000
00001010
,  // measure 16
00001000
00000100
00000000
00000000
00010000
00000000
00001000
00010000
00000000
00001000
00000000
00000000
01000000
00000000
01000000
00000000
,  // measure 17
00020000
00000000
00000000
00230000
00000000
00000000
02300000
00000000
00000000
00000000
00000000
00000000
13000000
00000000
00000000
10000000
,  // measure 18
00100000
00000000
00000000
00100000
00010000
00000000
00000000
00010000
00001000
00000000
00000000
00001000
00000100
00000000
00000000
00000100
,  // measure 19
00000002
00000000
00000000
00002003
00000000
00000000
00003200
00000000
00000000
00000000
00000000
00000000
00000310
00000000
00000000
00000000
,  // measure 20
00000010
00000001
00000100
00001000
00022000
00000000
00033000
00000000
,  // measure 21
00010000
00000000
00001000
00000000
01000000
00000000
00001000
00000000
00010000
00000000
00100000
00000000
00000000
00100000
00000000
00000000
,  // measure 22
00100000
10000000
01000000
00100000
00000000
00202000
00303000
00000000
,  // measure 23
00001000
00000000
00010000
00000000
00000100
00000000
00010000
00000000
00001000
00000000
00000010
00000000
00000000
00000010
00000000
00000000
,  // measure 24
00000010
00000001
00000100
00000010
00000000
00020020
00030030
00000000
,  // measure 25
00010000
00000000
00000100
00000000
00001000
00000000
00000010
00000000
00000100
00000000
00001000
00000000
00000000
00001000
00000000
00000000
,  // measure 26
00001000
00010000
00100000
01000000
00000000
02002000
03003000
00000000
,  // measure 27
00001000
00000000
01000000
00000000
00010000
00000000
00100000
00000000
01000000
00000000
00010000
00000000
00000000
00010000
00000000
00000000
,  // measure 28
00010000
00001000
00000010
00000100
00000000
00020200
00030300
00000000
,  // measure 29
00020000
00000000
00000000
00032000
00000000
00000000
02003000
00000000
00000000
00000000
00000000
00000000
00000000
00000000
00000000
00000000
,  // measure 30
03100000
00000000
00100000
10000000
00000000
11000000
00000000
00000000
01100000
00000000
00100000
00001000
00000000
00000000
00000000
00000000
,  // measure 31
00020000
00000000
00000000
00030200
00000000
00000000
00000320
00000000
00000000
00000000
00000000
00000000
00000000
00000000
00000000
00000000
,  // measure 32
00000031
00000000
00000001
00000100
00000000
00000110
00000000
00000000
00001010
00000000
00001000
00000100
00000000
00020000
00000000
00000000
,  // measure 33
00031000
01000000
00001000
00000000
00010000
00000100
00010000
00000000
00001000
00100000
00001000
00000000
00010000
00000010
00010000
00000000
,  // measure 34
00001000
00000100
00001000
00010000
01000000
00010000
00001000
00010000
,  // measure 35
00100000
10000000
01000000
00000000
01000000
00100000
00010000
00000000
00100000
00001000
00010000
00000000
00000010
00001000
00000010
00000100
,  // measure 36
00000002
00000000
00002000
00003003
,  // measure 37
00001000
00000100
00000010
00000001
00001000
00000100
00000010
00000001
,  // measure 38
00000100
00001000
00010000
01000000
10000000
00000000
10010000
00000000
,  // measure 39
00010000
01000000
00100000
10000000
00010000
01000000
00100000
10000000
,  // measure 40
01000000
00000000
00010000
00000000
00001000
00000000
00000010
00000000
00000001
00001000
00000000
00001000
00000001
00000000
00000100
00000000
,  // measure 41
00000010
00010000
00001000
01000000
00010000
00100000
00001000
00010000
,  // measure 42
00000100
00000000
00001000
00000000
00000010
00000000
00010000
00000000
00001000
00000000
01000000
00000000
00010000
00100000
00010000
00100000
,  // measure 43
00010000
20000000
00000000
32000000
00000000
03200000
00000000
00320000
,  // measure 44
00000000
00000000
00032000
00000000
00000000
00000000
00003020
00000000
00000000
00000000
00000000
00000000
00000130
00000000
00000100
00000001
,  // measure 45
00001000
00000000
00000100
00000120
00000000
00000032
00000000
00000203
,  // measure 46
00000000
00002300
00000000
00000000
00010000
00000000
00013000
00000000
,  // measure 47
00021000
00030100
00012000
01003000
,  // measure 48
00021000
00030010
00012000
00103000
,  // measure 49
01100000
00000000
01000000
20000000
00000000
30200000
00000000
00320000
,  // measure 50
00000000
00000000
00000000
00031000
01000000
00100000
00010000
00001000
,  // measure 51
00000100
00000020
00000000
00020030
00000000
00032000
00000000
00003100
,  // measure 52
00000100
00000010
00000100
00000000
00000001
00000000
00000010
00001000
00000000
00001000
00000000
00000000
00010000
00000000
00001000
00000000
,  // measure 53
00022000
00000000
00000000
00000000
00000000
00000000
00000000
00000000
00033000
00000000
00000000
00000000
00010000
00001000
02000000
00000000
,  // measure 54
03000000
00000000
00000000
00000000
00001000
00010000
00000200
00000000
00000000
00000000
00000300
00000000
00000000
00000000
00010000
00001000
,  // measure 55
00100000
00120000
00000000
02030000
00000000
03200000
00000000
20300000
,  // measure 56
00000000
32000000
00000000
03020000
00000000
00032000
00000000
00103000
,  // measure 57
01000000
00010000
00001000
00000000
00000010
00001000
00010000
00000000
,  // measure 58
00100000
00010000
00001000
00000100
00001000
00010000
00100000
10000000
,  // measure 59
01000000
00100000
00010000
01000000
00100000
00010000
00001000
00100000
,  // measure 60
00010000
00001000
00000100
00010000
00001000
00000100
00000010
00001000
,  // measure 61
00002002
00000000
00000000
00000000
,  // measure 62
00000000
00000000
00000000
00000000
,  // measure 63
00003003
00000000
00000000
00000000
00000000
00000000
00000000
00022000
,  // measure 64
00000000
00000000
00000000
00033000
,  // measure 65
00001000
01000000
00000000
01001000
00000000
00010000
00000000
00010100
,  // measure 66
00000000
00002000
00000000
00000000
00003000
00000000
00000000
00000000
,  // measure 67
00010000
00000010
00000000
00010010
00000000
00001000
00000000
00101000
,  // measure 68
00000000
00020000
00000000
00000000
00030000
00000000
00000000
00000000
,  // measure 69
00001000
00100000
00000000
00110000
00000000
01000000
00000000
00101000
,  // measure 70
00000000
00000200
00000000
00000000
00000300
00000000
00000000
00000000
,  // measure 71
00010000
00000100
00000000
00001010
00000000
00000100
00000000
00010010
,  // measure 72
00000000
00202000
00000000
00000000
00000000
00000000
00000000
00000000
,  // measure 73
00000000
00000000
00000000
00000000
,  // measure 74
00303000
00000000
00000000
00000000
;

//---------------dance-single - ----------------
#NOTES:
     dance-single:
     :
     Challenge:
     15:
     0.649664,0.832070,0.391464,0.766271,0.366477,546.000000,499.000000,47.000000,92.000000,0.000000,0.000000,0.649664,0.832070,0.391464,0.766271,0.366477,546.000000,499.000000,47.000000,92.000000,0.000000,0.000000:
0000
0000
0000
0000
,
0000
0000
0000
0000
,
0000
0000
0000
0000
,
0000
0000
0000
0000
,
0000
0000
0000
0000
,
1000
0010
0000
1010
0000
1010
0000
1010
,
0000
0202
0300
0000
1003
0100
0010
0001
,
1000
0001
0000
0011
0000
0011
0000
0011
,
0000
0000
2200
0000
0000
0300
0000
0000
0000
0000
3010
0000
0010
0000
0100
0001
,
0100
0010
1000
0010
0100
0010
1000
0010
,
0100
0002
0013
0100
2000
3010
0110
0000
,
0100
0001
0100
0010
0100
0001
0100
0010
,
0100
0002
1003
0001
2000
3020
0230
0302
,
1003
1000
0010
1000
0001
1000
0010
1000
,
0001
2000
3010
0100
0002
0013
0100
0100
,
1000
0001
0010
0001
1000
0001
0010
0001
,
1000
0001
0000
0100
0001
0000
0010
0001
0000
1000
0001
0000
0100
0000
0100
0000
,
0120
0000
0000
2030
0000
0000
3200
0000
0310
0001
0020
0000
0100
0000
0000
0031
,
0100
0000
1000
0100
1000
0000
0100
0010
0100
0000
0010
0001
0010
0000
0100
0010
,
2000
0000
0000
3002
0000
0000
0023
0000
0130
1000
0200
0000
0001
0000
0000
0000
,
2300
3020
0230
0302
2003
0000
0001
3001
,
0001
0200
0301
1000
0200
1300
0001
0100
,
0020
0030
0000
0000
0020
0030
0000
0000
0001
0000
0000
0000
0100
0000
0000
0000
0020
0030
0000
0000
0020
0030
0000
0000
0001
0000
0000
0000
1000
0000
0000
0000
,
1000
0200
1300
0001
0200
0301
1000
0100
,
0020
0030
0000
0000
0020
0030
0000
0000
1000
0000
0000
0000
0100
0000
0000
0000
0020
0030
0000
0000
0020
0030
0000
0000
1000
0000
0000
0000
0001
0000
0000
0000
,
0200
0310
0100
0002
1003
0001
0010
0100
,
2000
3000
0000
0000
2000
3000
0000
0000
0010
0000
0000
0000
0100
0000
0000
0000
2000
3000
0000
0000
2000
3000
0000
0000
0010
0000
0000
0000
0100
0000
0000
0000
,
2000
3001
1000
0200
0310
0100
0010
0001
,
0200
0300
0000
0000
0200
0300
0000
0000
1000
0000
0000
0000
0001
0000
0000
0000
0000
0000
0000
0000
2002
0000
0000
0000
3003
0000
0000
0000
0000
0000
0000
0000
,
1010
0000
0000
0011
0000
0000
0202
0000
0000
0000
0000
0000
0303
0000
0000
0000
,
0110
0000
0010
1000
0000
0200
0000
0000
1300
0000
0001
0020
0000
0030
0000
0000
,
0011
0000
0000
0101
0000
0000
2200
0000
0000
0000
0000
0000
3300
0000
0000
0000
,
1001
0000
0001
0100
0000
0020
0000
0000
0031
0000
0010
1000
0000
0200
0000
0000
,
1300
0010
0100
0001
1000
0010
0100
0001
1000
0100
0010
0001
1000
0100
0010
0001
,
2000
0010
3002
0100
2003
0100
3002
0010
,
0103
0010
1000
0001
0010
0100
1000
0010
0100
0001
1000
0100
0010
1000
0010
0001
,
0020
0100
1000
0031
2002
0000
0000
3003
,
1000
0010
0100
0000
0100
0000
0010
1000
0100
0000
0100
0000
1000
0000
0010
0100
,
0001
0010
1000
0010
0001
1000
1001
0000
,
0001
0010
0100
0000
0100
0000
0010
0001
0100
0000
0100
0000
0001
0000
0010
0100
,
1000
0000
0010
0000
0001
0000
0010
0000
1000
0010
0000
0100
0002
0000
1003
0000
,
1000
0001
0100
0000
0100
0000
0001
1000
0010
0000
0010
0000
1000
0000
0001
0100
,
0010
0000
1000
0100
0010
0000
0001
0100
0010
0000
0010
0000
1000
0001
0100
0010
,
1000
1010
0000
0101
0000
0011
0010
0110
,
0100
0000
1100
0000
1000
0000
1001
0000
0001
0000
0100
0000
0110
0000
0010
1000
,
0001
0000
0001
0000
0100
0000
0010
1000
0000
0100
1000
0000
0002
0000
0003
0000
,
1000
0000
1000
0000
0010
0000
0100
0001
0000
0010
0001
0000
2000
0000
3000
0000
,
0100
0000
0100
0000
0010
0000
0001
0100
0000
0010
0100
0000
0002
0000
0003
0000
,
0010
0000
0010
0000
0100
0000
1000
0010
0000
0100
0010
0000
0100
0000
0001
0000
,
1001
1000
0020
0100
0030
0001
0020
0100
,
0030
1000
0100
0010
0001
0100
1000
0001
,
0010
1000
0100
0001
1000
0010
0001
0100
,
0010
1000
0010
0000
0100
0000
0001
0010
0000
0001
1000
0000
0100
0000
1000
0000
,
1001
0000
0001
0000
0100
0000
0010
1000
0000
0100
1000
0000
0100
0010
0002
0000
,
0103
0000
0010
0000
1000
0001
0020
0000
0130
0000
1000
0000
0010
0100
0001
1000
,
0020
0230
0301
0200
0310
0200
1300
0200
,
0310
0000
0200
0000
0301
0000
0001
0010
0000
0100
1000
0000
0020
0000
0030
0000
,
0110
0100
0001
0100
0010
1000
0010
0100
,
0001
1000
0001
1000
0001
0000
0100
0010
0000
0100
0010
0000
0200
0000
0300
0000
,
0001
1000
0100
0000
0010
0000
0100
0000
1000
0001
0010
0000
0100
0000
0010
0000
,
0001
0100
0001
0100
0010
1000
0010
1000
0100
0010
0100
0010
0001
1000
0010
0100
,
0020
0000
0000
0000
,
0000
0000
0000
0000
,
2030
0000
0000
0000
0000
0000
0000
0002
,
0000
0000
0000
3003
,
0001
0100
0000
0101
0000
0011
0000
1010
,
0000
2200
0000
0000
3300
0000
0000
0000
,
1000
0010
0000
1010
0000
1100
0000
0101
,
0000
0022
0003
0000
1030
0010
0001
0100
,
0010
1000
0000
1100
0000
0101
0000
1010
,
0000
0022
0000
0000
0033
0000
0000
0000
,
0010
0001
0000
0101
0000
1100
0000
0011
,
0000
2020
0000
0000
0000
0000
0000
0000
,
0000
0000
0000
0000
,
3030
0000
0000
0000
;

//---------------dance-double - ----------------
#NOTES:
     dance-double:
     :
     Challenge:
     16:
     0.661563,0.770435,0.583032,0.666322,0.366477,556.000000,486.000000,70.000000,80.000000,0.000000,0.000000,0.661563,0.770435,0.583032,0.666322,0.366477,556.000000,486.000000,70.000000,80.000000,0.000000,0.000000:
// measure 0
00000000
00000000
00000000
00000000
,  // measure 1
00000000
00000000
00000000
00000000
,  // measure 2
00000000
00000000
00000000
00000000
,  // measure 3
00000000
00000000
00000000
00000000
,  // measure 4
00000000
00000000
00000000
00000000
,  // measure 5
00001000
00010000
00000000
00010010
00000000
00001010
00000000
00010010
,  // measure 6
00000000
00022000
00030000
00000000
00103000
00010000
01000000
00001000
,  // measure 7
00010000
00001000
00000000
00101000
00000000
00011000
00000000
00101000
,  // measure 8
00000000
00000000
00022000
00000000
00003000
00000000
00000000
00000000
00000000
00000000
00030100
00000000
00000100
00000000
00001000
00000001
,  // measure 9
00000010
00000100
00001000
00000100
00000010
00000100
00001000
00000100
,  // measure 10
00000010
00000011
00000001
00000100
00001010
00010000
00011000
00000000
,  // measure 11
01000000
00010000
01000000
00100000
01000000
00010000
01000000
00100000
,  // measure 12
01000000
01010000
00010000
10000000
10100000
00100000
00010000
00001000
,  // measure 13
00011000
00010000
00000010
00010000
00001000
00010000
00000010
00010000
,  // measure 14
00001000
00101000
00100000
00010000
10010000
00100000
00011000
00011000
,  // measure 15
00010000
00001000
00100000
00001000
00010000
00001000
00100000
00001000
,  // measure 16
00010000
00000100
00000000
00000100
00001000
00000000
00001000
00000001
00000000
00000001
00000100
00000000
00001000
00000000
00010000
00000000
,  // measure 17
00012000
00000000
00000000
00000010
00000000
00000000
00010000
00000000
00103000
01000000
20000000
00000000
00100000
00000000
00000000
30010000
,  // measure 18
00100000
00000000
00100000
01000000
00010000
00000000
00010000
00001000
00000010
00000000
00000010
00000001
00000100
00000000
00000100
00001000
,  // measure 19
00020000
00000000
00000000
00100000
00000000
00000000
00001000
00000000
00030010
00001000
00000200
00000000
00000010
00000000
00000000
00000000
,  // measure 20
00000301
00000100
00010000
00001000
00022000
00000000
00000000
00033000
,  // measure 21
00010000
00000000
00002000
00000000
01003000
00000000
00001000
00000000
00020000
00000000
01030000
00000000
00000000
01000000
00000000
00000000
,  // measure 22
11000000
10000000
00100000
01010000
00100000
10000000
01000000
00010000
,  // measure 23
00001000
00000000
00020000
00000000
00030100
00000000
00010000
00000000
00002000
00000000
00003100
00000000
00000000
00000100
00000000
00000000
,  // measure 24
00000101
00000001
00000010
00001100
00000010
00000001
00000100
00001000
,  // measure 25
00021000
00000000
00030010
00000000
00010000
00000000
00001000
00000000
00012000
00000000
01003000
00000000
00000000
00010000
00000000
00000000
,  // measure 26
00110000
01000000
00010000
00101000
00010000
01000000
00100000
00010000
,  // measure 27
00012000
00000000
00103000
00000000
00001000
00000000
00010000
00000000
00021000
00000000
00030100
00000000
00000000
00001000
00000000
00000000
,  // measure 28
00001010
00000100
00001000
00010010
00000000
02002000
03003000
00000000
,  // measure 29
00011000
00000000
00000000
00010100
00000000
00000000
00202000
00000000
00000000
00000000
00000000
00000000
00303000
00000000
00000000
00000000
,  // measure 30
01100000
00000000
01000000
10000000
00000000
00200000
00000000
00000000
00310000
00000000
00010000
00002000
00000000
00003000
00000000
00000000
,  // measure 31
00011000
00000000
00000000
01001000
00000000
00000000
00020020
00000000
00000000
00000000
00000000
00000000
00030030
00000000
00000000
00000000
,  // measure 32
00000110
00000000
00000100
00000001
00000000
00000020
00000000
00000000
00000130
00000000
00000100
00010000
00000000
00002000
00000000
00000000
,  // measure 33
00103000
01000000
10000000
00010000
00100000
01000000
00010000
00000000
00001000
00000010
00000100
00001000
00000001
00000010
00000100
00000000
,  // measure 34
00002000
00003020
00020030
00230000
00302000
00003200
00020300
02030000
,  // measure 35
13000000
00100000
01000000
00010000
00001000
00000100
00000010
00000000
00000001
00000100
00000010
00001000
00010000
00100000
01000000
00000000
,  // measure 36
10000000
00100000
00010000
00001000
00022000
00000000
00000000
00033000
,  // measure 37
00010000
00000100
00001000
00000000
00000001
00000000
00001000
00000100
00010000
00000000
00001000
00000000
00010000
00000000
00000100
00001000
,  // measure 38
00000001
00000000
00000100
00000001
00001000
00000000
00000100
00000000
00010000
00000000
00001000
00000000
00011000
00000000
00000000
00000000
,  // measure 39
00001000
01000000
00010000
00000000
10000000
00000000
00010000
01000000
00001000
00000000
00010000
00000000
00001000
00000000
01000000
00010000
,  // measure 40
10000000
00000000
01000000
10000000
00010000
00000000
01000000
00000000
00001000
00010000
00000000
00010000
00001000
00000000
00000010
00000000
,  // measure 41
00000001
00000100
00000010
00000000
00001000
00000000
00000010
00000100
00000001
00000000
00000010
00000000
00000001
00000000
00000100
00000010
,  // measure 42
00001000
00000000
00000100
00000010
00001000
00000000
00010000
01000000
00200000
00000000
00300000
00000000
00010000
00100000
01000000
10000000
,  // measure 43
00100000
10100000
00000000
01010000
00000000
00110000
00100000
00101000
,  // measure 44
00001000
00000000
00011000
00000000
00010000
00000000
00010010
00000000
00000010
00000000
00001000
00000000
00001100
00000000
00000100
00000010
,  // measure 45
00000001
00000000
00000100
00000000
00001000
00000000
00010000
00001000
00000000
00010000
00001000
00000000
00200000
00000000
00300000
00000000
,  // measure 46
00010000
00000000
10000000
00000000
01000000
00000000
00010000
00001000
00000000
00010000
00001000
00000000
00000020
00000000
00000030
00000000
,  // measure 47
00000001
00000000
00000100
00000000
00001000
00000000
00010000
00001000
00000000
00010000
00001000
00000000
02000000
00000000
03000000
00000000
,  // measure 48
00010000
00000000
10000000
00000000
00100000
00000000
00010000
00001000
00000000
00010000
00001000
00000000
00000100
00000000
00000001
00000000
,  // measure 49
00001001
00001000
00000010
00020000
00000000
00031000
01000000
00200000
,  // measure 50
00000000
00000000
00000000
00310000
00020000
00230000
20300000
32000000
,  // measure 51
03200000
00320000
02030000
03200000
00320000
00032000
00003200
00000320
,  // measure 52
00001030
00000001
00001000
00000000
00000100
00000000
00000010
00000100
00000000
00000010
00000001
00000000
00000100
00000000
00000010
00000000
,  // measure 53
00001010
00000000
00001000
00000000
00000100
00000000
00010000
00001000
00000000
01000000
00001000
00000000
00010000
00100000
00020000
00000000
,  // measure 54
00031000
00000000
00010000
00000000
00001000
00000010
00002000
00000000
00013000
00000000
00001000
00000000
00010000
00100000
01000000
00100000
,  // measure 55
20000000
32000000
03010000
00020000
00031000
00002000
00003010
00000020
,  // measure 56
00000031
00000000
00000002
00000000
00001003
00000000
00001000
00000010
00000000
00010000
00001000
00000000
00022000
00000000
00033000
00000000
,  // measure 57
00011000
00010000
00100000
00010000
00001000
00000010
00001000
00010000
,  // measure 58
00000100
00001000
00000100
00001000
00000100
00000000
00010000
00001000
00000000
01000000
00010000
00000000
00200000
00000000
00300000
00000000
,  // measure 59
02000000
13000000
10000000
00100000
00020000
00031000
00001000
00000100
,  // measure 60
00000001
00000010
00000001
00000010
00000100
00001000
00000100
00010000
00001000
01000000
00010000
01000000
00100000
10000000
01000000
00100000
,  // measure 61
02000000
00000000
00000000
00000000
,  // measure 62
00000000
00000000
00000000
00000000
,  // measure 63
03020000
00000000
00000000
00000000
00000000
00000000
00000000
00002000
,  // measure 64
00000000
00000000
00000000
00033000
,  // measure 65
00010000
00001000
00000000
01001000
00000000
00110000
00000000
01100000
,  // measure 66
00000000
00202000
00000000
00000000
00303000
00000000
00000000
00000000
,  // measure 67
00001000
00010000
00000000
00010100
00000000
00001010
00000000
00000110
,  // measure 68
00000000
00020020
00000030
00000000
00031000
00000100
00000001
00000010
,  // measure 69
00001000
00010000
00000000
00011000
00000000
00110000
00000000
01001000
,  // measure 70
00000000
00020200
00000000
00000000
00030300
00000000
00000000
00000000
,  // measure 71
00010000
00001000
00000000
00011000
00000000
00001010
00000000
00010100
,  // measure 72
00000000
02002000
00000000
00000000
00000000
00000000
00000000
00000000
,  // measure 73
00000000
00000000
00000000
00000000
,  // measure 74
03003000
00000000
00000000
00000000
;
