#TITLE:灼熱 Lost Summer Dayz;
#SUBTITLE:;
#ARTIST:DJ Mass MAD Izm* feat.すみはね;
#TITLETRANSLIT:Shakunetsu Lost Summer Dayz;
#SUBTITLETRANSLIT:;
#ARTISTTRANSLIT:DJ Mass MAD Izm* feat.Sumihane;
#GENRE:DRUM'N'BASS;
#CREDIT:;
#BANNER:Shakunetsu Lost Summer Dayz.png;
#BACKGROUND:Shakunetsu Lost Summer Dayz-bg.png;
#LYRICSPATH:;
#CDTITLE:;
#MUSIC:Shakunetsu Lost Summer Dayz.ogg;
#OFFSET:-0.345000;
#SAMPLESTART:103.221535;
#SAMPLELENGTH:11.999998;
#SELECTABLE:YES;
#BPMS:0.000000=168.000000
;
#STOPS:
;
#BGCHANGES:-0.600=Shakunetsu Lost Summer Dayz.mp4=1.000=0=0=0=StretchNoLoop====,
99999=-nosongbg-=1.000=0=0=0 // don't automatically add -songbackground-
;
#KEYSOUNDS:;
#ATTACKS:;

//---------------dance-single - ----------------
#NOTES:
     dance-single:
     :
     Hard:
     14:
     0.654107,0.719669,0.387619,0.694484,0.286676,567.000000,519.000000,48.000000,86.000000,0.000000,0.000000,0.654107,0.719669,0.387619,0.694484,0.286676,567.000000,519.000000,48.000000,86.000000,0.000000,0.000000:
0000
0000
0000
0000
,
0000
0000
0000
0000
,
0000
0000
0000
0000
,
0000
0000
0000
0000
,
0001
0010
0100
1000
0020
0000
0130
0000
,
0001
0100
1000
0100
0001
0010
0100
0000
,
1000
0010
0100
0001
0020
0000
0130
0000
,
1000
0100
0001
0100
1000
0010
0100
0000
,
0102
0000
0000
0000
0100
0000
0000
0000
1003
0000
0000
1000
0000
0000
1000
0000
,
0200
0000
0000
0000
0010
0000
0000
0000
1300
0000
1000
0000
0000
0001
0000
0000
,
0200
0000
0000
0000
0010
0000
0000
0000
0301
0000
0000
0001
0000
0000
0001
0000
,
0020
0000
0000
0000
0130
0000
1000
0000
0010
0000
0100
0000
0001
1000
0001
0000
,
2000
0000
3100
0001
0100
0100
0010
0020
,
0000
0000
0031
0000
2000
0000
0000
0000
3010
0000
0010
0000
0100
0010
0100
0000
,
0002
0000
0000
0000
0010
0000
0000
0000
1003
0000
0000
1000
0000
0000
1000
0000
,
0010
0000
0100
0000
0200
0000
0000
0000
0301
0000
0010
0000
0000
0100
0000
0000
,
2100
0000
0000
0001
0000
3010
0000
0102
,
0300
0000
1003
0000
0001
1000
0001
0000
,
0021
0000
0100
0100
0230
0000
1300
0000
,
1020
0000
0100
0100
0230
0000
0301
0000
,
1002
0000
0000
1000
0000
0103
0000
2010
,
0030
0000
3001
0000
1000
0001
1000
0000
,
1200
0000
0010
0010
0320
0000
0031
0000
,
0201
0000
0010
0310
0300
0000
1031
0000
,
1010
0010
0100
0001
0010
1000
0010
0001
,
0200
0000
1300
0100
0002
0000
1003
0000
,
0001
0100
0010
1000
0100
0001
0100
1000
,
0020
0000
0031
0010
2000
0000
3001
0000
,
1000
0100
1000
0100
1000
0000
0001
0000
0100
0000
1000
0000
0100
0000
0010
0000
,
2010
0000
0000
0000
3001
0000
0010
0000
0001
1000
0001
1000
0001
0000
0100
0000
,
0010
0010
0001
0001
0010
0010
1000
1000
,
0001
0010
0100
1000
0000
2002
0000
3003
,
0101
0200
0000
0320
0000
1030
0001
0000
,
1000
0010
1000
0000
0001
0000
0010
0000
0100
1000
0001
0030
0100
0000
0000
0000
,
1010
0020
0000
0230
0000
0301
1000
0000
,
0001
0010
0001
0000
1000
0000
0100
0000
0010
0001
1000
0300
0010
0000
0000
0000
,
1001
2000
0000
3020
0001
0000
0130
0000
,
0001
0100
0001
0000
1000
0000
1000
0000
0001
0010
0100
0000
1000
0000
0000
0000
,
1001
0002
0000
0203
1000
0000
0310
0000
,
1000
0010
1000
0000
0001
0000
0001
0000
1000
0100
0010
0000
0001
1000
0000
0000
,
0101
0000
0000
0000
1000
0100
1000
0100
0010
0000
0020
0000
0000
0000
0031
0000
,
1000
0000
0000
0000
0001
0100
0001
0100
0010
0000
0020
0000
0000
0000
1030
0000
,
0001
0000
0000
0000
1000
0010
1000
0010
0100
0000
0200
0000
0000
0000
0301
0000
,
1000
0000
0000
0000
0001
0010
0001
0010
0100
0000
0100
0000
1000
0001
1300
0000
,
0001
0000
0000
0000
1000
0010
0100
0010
2000
0000
0000
3200
0000
0000
0310
0000
,
0001
0000
0000
0000
0001
0010
0100
0010
0002
0000
0000
0203
0000
0000
0310
0000
,
1000
0000
0000
0000
0001
0100
0010
0100
0002
0000
0000
0023
0000
0000
0130
0000
,
1000
0000
0000
0000
1000
0100
0010
0100
1000
0000
0001
3000
0100
0010
0100
0000
,
0001
0010
1000
0010
0002
0000
1003
0010
,
0001
0010
1000
0100
0010
0000
0011
0000
,
2002
0000
3003
0000
2002
0000
3003
0000
1000
0000
0010
0100
0000
0010
0100
0000
,
0001
0000
0010
0000
0010
0000
0001
0000
1000
0001
1000
0001
0100
0000
0000
0000
,
0202
0000
0303
0000
0202
0000
0303
0000
1001
0000
0000
1001
0000
0000
2002
0000
,
3003
0000
1100
0000
2200
0000
3300
0000
0001
0000
0010
0100
0000
0010
0100
0000
,
1000
0000
0001
1000
0001
0000
0000
0000
0101
0000
0000
0101
0000
0000
0101
0000
,
1303
0000
0100
0000
1000
0001
1000
0000
0020
0000
0000
0230
0000
0000
0301
0000
,
1000
0000
0100
0000
0100
0000
0000
1000
0010
0000
1000
0000
0000
0001
0010
0000
,
0001
0000
0000
1000
0010
0000
0100
0000
0001
0000
0011
0000
0000
0000
1100
0000
,
0002
0000
0000
0000
,
1000
1000
1000
0000
2000
0000
3003
0000
,
0001
0000
0010
0000
0010
0000
0000
0001
0100
0000
0001
0000
0000
1000
0100
0000
,
1000
0000
0000
0001
0100
0000
0000
0000
0000
0000
1010
0000
0000
0000
0001
0000
,
2000
0000
0000
0000
0000
0000
0000
0002
,
0000
0000
0000
3003
,
2000
0100
3002
0010
,
2003
0010
3002
0103
,
2001
0000
0100
0100
3100
0000
1100
0000
,
1002
0000
0100
0100
0103
0000
0101
0000
,
1000
0001
1000
0001
0100
0010
0100
0010
,
1000
0100
1000
0000
0010
0000
0100
0000
0001
0010
0001
0000
1000
0000
0010
0000
,
2000
0000
0100
0100
3100
0000
1100
0000
,
1002
0000
0100
0100
0103
0000
0101
0000
,
2002
0000
0000
0000
0000
3003
0000
0101
,
2000
0000
3001
0020
0000
1030
0010
0001
,
0200
0000
1300
0200
0000
0301
0010
0100
,
1000
0001
1000
0000
0010
0000
0100
0000
0001
0000
0022
0000
0000
0000
0033
0000
,
1000
0100
0010
0002
0000
0103
1000
0100
,
0001
0010
0100
2000
0000
3010
0001
0010
,
1000
0100
0010
0200
0000
0301
0100
1000
,
0010
0000
1000
0001
1000
0000
0010
0000
0100
0010
0100
0000
0001
0000
0000
0000
,
0101
0000
0102
0000
1003
1000
0100
0100
,
0301
0100
0100
0010
0001
1000
0001
0000
,
1010
0000
2010
0000
3001
0001
0010
0010
,
1030
0000
0010
0000
0001
0000
0100
0000
0010
0100
0010
0100
0010
0000
0000
0000
,
1000
0000
0100
0000
0010
0000
0001
0000
1000
0001
1000
0001
1000
0001
0100
0000
;

//---------------dance-single - ----------------
#NOTES:
     dance-single:
     :
     Medium:
     11:
     0.498367,0.548319,0.282639,0.613730,0.036339,432.000000,397.000000,35.000000,76.000000,0.000000,0.000000,0.498367,0.548319,0.282639,0.613730,0.036339,432.000000,397.000000,35.000000,76.000000,0.000000,0.000000:
0000
0000
0000
0000
,
0000
0000
0000
0000
,
0000
0000
0000
0000
,
0000
0000
0000
0000
,
1000
0010
2002
3003
,
0001
0010
0100
0000
1000
0010
0100
0000
,
0001
0010
2002
3003
,
1000
0010
0100
0000
0001
0010
0100
0000
,
2100
0000
0000
0000
3001
0000
0000
0000
1000
0000
0000
1000
0000
0000
1000
0000
,
0020
0000
0000
0000
0130
0000
0000
0000
0001
0000
1000
0000
0000
0001
0000
0000
,
0020
0000
0000
0000
0031
0000
0000
0000
0001
0000
0000
0001
0000
0000
0001
0000
,
0200
0000
0310
0000
1000
0100
0010
0000
,
0002
0000
2003
0000
3010
0100
0010
0200
,
0000
0301
2000
0000
3100
0010
0002
0000
,
2003
0000
0000
0000
3010
0000
0000
0000
1000
0000
0000
1000
0000
0000
1000
0000
,
0200
0000
0310
0000
0001
0100
0010
0000
,
2010
0000
0000
3002
0000
0000
0023
0000
,
0000
0000
0000
0000
0130
0100
1000
0000
,
0002
0000
0103
0010
0100
0000
0002
0000
,
2003
0000
3100
0010
0100
0000
1000
0000
,
0012
0000
0000
2003
0000
0000
3020
0000
,
0000
0000
0000
0000
0130
0100
0001
0000
,
2000
0000
3100
0010
0100
0000
2000
0000
,
3002
0000
0103
0010
0000
0000
0110
0000
,
1001
0000
0001
0010
0100
0000
1000
0010
,
2010
0000
3001
0010
0012
0000
1003
0000
,
0010
0000
1000
0100
0010
0000
0001
0100
,
0102
0000
1003
0100
2100
0000
3001
0000
,
1000
0010
0100
0010
1000
0000
0001
0010
,
0012
0000
1003
0100
2100
0000
3001
0000
,
1000
0010
1000
0010
0100
0001
0100
0001
,
1000
0100
0010
0002
0000
2000
0000
3003
,
0001
0100
0000
0102
0000
0000
1003
0000
,
0001
0010
0100
1000
0010
0100
0001
0000
,
1000
0100
0000
2100
0000
0000
3001
0000
,
1000
0010
0100
0001
0010
0100
1000
0000
,
0001
0001
0000
2200
0000
3300
1000
0000
,
0001
0100
1000
0100
0001
0010
0100
0000
,
1000
1000
0000
0022
0000
0033
0001
0000
,
1000
0010
0001
0010
1000
0100
0010
0000
,
0001
0000
1000
0001
0010
0010
0000
0000
,
0000
0000
0001
1000
0010
0010
0000
0000
,
0000
0000
1000
0001
0100
0100
0000
0000
,
0000
0000
0001
1000
0100
0100
0000
0000
,
0000
0000
1000
0100
0010
0001
0000
0011
,
0000
0000
0001
0100
0010
1000
0000
1010
,
0000
0000
1000
0001
1000
0010
0000
0101
,
0000
0000
0001
1000
0001
0010
0100
0000
,
2100
0000
3001
0100
0002
0000
1003
0010
,
0100
0100
0010
0100
0002
0000
0013
0000
,
0011
0000
0000
0000
0011
0000
0000
0000
1000
0000
0000
1000
0000
0000
1000
0000
,
0000
0010
0020
0000
0130
0000
0110
0000
,
1010
0000
0000
0000
1010
0000
0000
0000
0001
0000
0000
0001
0000
0000
0001
0000
,
0000
0000
0010
0000
0020
0000
0000
0000
0130
0000
0000
0100
0000
0000
0100
0000
,
1000
0000
0001
0000
0200
0000
0000
0000
0310
0000
0000
0010
0000
0000
0010
0000
,
1000
0000
0100
0000
0010
0000
0001
0000
0200
0000
0000
0320
0000
0000
1030
0000
,
0001
0000
0011
0000
1000
0010
0000
0100
,
0001
0000
1000
0100
0000
0010
0001
1000
,
0002
0000
0000
0000
,
0200
0000
0000
0303
,
0002
0000
2003
0000
3010
0100
0010
0200
,
0000
0301
0020
0000
0130
1000
0001
0000
,
2000
0000
0000
0000
,
0200
0000
0000
3300
,
1000
0010
0100
0001
,
0010
0100
1000
0010
,
2001
0000
3010
0100
0010
0000
0100
0000
,
1002
0000
0013
0100
0010
0000
0100
0000
,
1000
0100
1000
0100
0010
0001
0010
0000
,
0001
0100
0001
0100
0010
1000
0010
0000
,
2000
0010
3001
1001
,
0002
0010
1003
1001
,
0000
0000
0000
0000
0000
0000
0000
2002
,
0000
3003
1100
0000
0001
0100
0010
0000
,
1000
0100
0010
0002
0000
0000
0103
0000
,
0001
0100
0010
1000
0000
2020
0000
3030
,
0001
1000
0001
0020
0000
0130
1000
0000
,
0001
0100
0001
2000
0000
3010
0010
0000
,
1000
0001
1000
0020
0000
0130
0001
0000
,
1000
0100
0010
0001
0000
0022
0000
3033
,
2000
0000
0010
0000
3001
0100
0001
0200
,
0000
0010
0320
0000
1030
0100
0010
0000
,
0002
0000
0010
0000
1003
0100
1000
0200
,
0000
0010
0310
0001
0130
0010
1000
0000
,
0001
0100
1000
0100
0001
0010
0100
1000
;

//---------------dance-single - ----------------
#NOTES:
     dance-single:
     :
     Easy:
     7:
     0.290714,0.308430,0.016151,0.306865,0.000000,252.000000,250.000000,2.000000,38.000000,0.000000,0.000000,0.290714,0.308430,0.016151,0.306865,0.000000,252.000000,250.000000,2.000000,38.000000,0.000000,0.000000:
0000
0000
0000
0000
,
0000
0000
0000
0000
,
0000
0000
0000
0000
,
0000
0000
0000
0000
,
1000
0010
0200
0300
,
0001
0010
0100
1000
,
0001
0100
0020
0030
,
1000
0100
0010
0001
,
2000
3000
0010
0100
,
0020
0030
1000
0100
,
0020
0030
0001
1000
,
0002
0003
1000
0001
,
0100
0100
0010
0010
,
1000
0100
0010
0001
,
0200
0300
0010
0010
,
2000
3000
0001
0000
,
2000
0000
3200
0000
,
0320
0000
0000
0030
,
0001
1000
0010
0100
,
0100
0001
1000
0100
,
0020
0000
0032
0000
,
0203
0000
0000
0300
,
0310
1000
0001
0010
,
0010
0100
1000
0000
,
2002
3003
0001
0010
,
0100
0100
0100
0000
,
2000
3000
0001
1000
,
0010
0010
0010
0000
,
2000
3000
0001
0010
,
0100
0100
0100
0000
,
0010
0010
0100
0100
,
1000
0001
0100
0000
,
0000
0001
0000
1000
0000
0000
0000
0000
,
0001
0100
0010
0010
,
0000
1000
0000
0001
0000
0000
0000
0000
,
1000
0100
0010
0010
,
0000
0001
0000
1000
0000
0000
0000
0000
,
0001
0100
0010
0010
,
0000
1000
0000
0001
0000
0000
0000
0000
,
1000
0100
0010
0010
,
0000
0000
0001
0000
0100
0100
0000
0000
,
0000
0000
0010
0000
1000
1000
0000
0000
,
0000
0000
0001
0000
0010
0010
0000
0000
,
0000
0000
0100
0000
1000
1000
0000
0000
,
0000
0000
1000
0000
0010
0010
0000
0000
,
0000
0000
0100
0000
0001
0001
0000
0000
,
0000
0000
1000
0000
0100
0100
0000
0000
,
0000
0000
0010
0000
0001
0001
0000
0000
,
1000
1000
0001
0001
,
1000
0010
0100
0000
,
0002
2003
3010
0010
,
2000
3002
0013
0000
,
0002
2003
3100
0100
,
2000
3002
0103
0000
,
0002
2003
3010
0010
,
2000
3002
0013
0100
,
1000
0000
0010
0000
0000
0010
0000
0000
,
0100
0000
0000
0100
0000
0000
0001
0000
,
2000
0000
0000
0000
,
0002
0000
0000
3003
,
0001
0000
0010
0000
0000
0010
0000
0000
,
0100
0000
0000
0100
0000
0000
1000
0000
,
0002
0000
0000
0000
,
2000
0000
0000
3003
,
0001
0100
0010
0000
,
1000
0100
0010
0000
,
0001
0001
0001
1000
,
0100
0100
0100
0000
,
1000
0001
0100
0010
,
1000
0100
0010
0001
,
0100
0100
0100
0000
,
0010
0010
0010
0000
,
1001
0000
0000
0000
,
1000
0100
0010
0000
,
0001
1000
0010
0100
,
0001
0010
0100
0000
,
1000
0010
0100
0001
,
1000
0100
0010
0000
,
0001
1000
0010
0100
,
0001
0010
0100
0000
,
2000
3200
1300
0010
,
0100
0100
0001
1000
,
0002
0023
0031
1000
,
0001
0001
0100
0000
,
0001
0000
0010
0000
0100
0000
1000
0001
;

//---------------dance-single - ----------------
#NOTES:
     dance-single:
     :
     Beginner:
     4:
     0.146511,0.239536,0.008075,0.080754,0.000000,127.000000,126.000000,1.000000,10.000000,0.000000,0.000000,0.146511,0.239536,0.008075,0.080754,0.000000,127.000000,126.000000,1.000000,10.000000,0.000000,0.000000:
0000
0000
0000
0000
,
0000
0000
0000
0000
,
0000
0000
0000
0000
,
0000
0000
0000
0000
,
0001
0000
0000
0000
,
0010
0000
0000
0000
,
0100
0000
0000
0000
,
1000
0000
0000
0000
,
0001
0000
0001
0000
,
0001
0000
0000
0000
,
0100
0000
0100
0000
,
0100
0000
0000
0000
,
0010
0000
0010
0000
,
0010
0000
0000
0000
,
1000
0000
1000
0000
,
1000
0000
0000
0000
,
0200
0000
0300
0000
,
0020
0000
0030
0000
,
0001
0000
0000
0000
,
1000
0000
0000
0000
,
0002
0000
0003
0000
,
0200
0000
0300
0000
,
0010
0000
0000
0000
,
1000
0000
0000
0000
,
1001
0000
0000
0000
,
1000
1000
1000
0000
,
1000
0000
0000
0000
,
0100
0100
0100
0000
,
0100
0000
0000
0000
,
0010
0010
0010
0000
,
0010
0000
0000
0000
,
0001
0000
0001
0000
,
0001
0000
0000
0000
,
1000
0000
1000
0000
,
1000
0000
0000
0000
,
0010
0010
0010
0000
,
0010
0000
0000
0000
,
0100
0000
0100
0000
,
0100
0000
0000
0000
,
0001
0001
0001
0000
,
1000
0000
0000
0000
,
0100
0000
0000
0000
,
0010
0000
0000
0000
,
0001
0000
0000
0000
,
1000
1000
0000
0000
,
0010
0010
0000
0000
,
0100
0100
0000
0000
,
0001
0001
0000
0000
,
1000
0000
1000
0000
,
1000
0000
0000
0000
,
0100
0100
0100
0000
,
0100
0100
0100
0000
,
0010
0000
0010
0000
,
0010
0000
0000
0000
,
0001
0001
0001
0000
,
0001
0001
0001
0000
,
2000
0000
3000
0000
,
0020
0000
0030
0000
,
0200
0000
0000
0000
,
0000
0000
0000
0300
,
0002
0000
0003
0000
,
0020
0000
0030
0000
,
0200
0000
0000
0000
,
0000
0000
0000
0300
,
1000
0000
1000
0000
,
1000
0000
0000
0000
,
0010
0010
0000
0000
,
0010
0010
0000
0000
,
0100
0000
0100
0000
,
0100
0000
0000
0000
,
0001
0001
0000
0000
,
0001
0001
0000
0000
,
1000
0000
0000
0000
,
0001
0000
0000
0000
,
0010
0000
0000
0000
,
0010
0000
0000
0000
,
0100
0100
0000
0000
,
1000
1000
0000
0000
,
0010
0010
0000
0000
,
0100
0000
0000
0000
,
0001
0001
0001
0000
,
0001
0000
0000
0000
,
0010
0010
0010
0000
,
0010
0000
0000
0000
,
0100
0100
0100
0100
;

//---------------dance-single - ----------------
#NOTES:
     dance-single:
     :
     Challenge:
     17:
     0.857145,0.891019,0.557202,0.500674,0.670258,743.000000,674.000000,69.000000,62.000000,0.000000,0.000000,0.857145,0.891019,0.557202,0.500674,0.670258,743.000000,674.000000,69.000000,62.000000,0.000000,0.000000:
0000
0000
0000
0000
,
0000
0000
0000
0000
,
0000
0000
0000
0000
,
0000
0000
0000
0000
,
0001
0000
0010
0000
0100
0000
1000
0000
0020
0000
0000
0000
1030
0001
1000
0000
,
0100
0000
0010
0000
1000
0000
0010
0000
0100
0000
0010
0100
1000
0001
1000
0001
,
1000
0100
0010
0001
0200
0000
0301
1000
,
0010
0000
0100
0000
1000
0000
0100
0000
0001
1000
0001
1000
0001
0000
0000
0300
,
0012
0000
0000
0000
0103
0000
1000
0000
0100
0000
0000
0110
0000
0000
1000
0000
,
0200
0000
0000
0000
0310
0000
0001
0000
0100
0000
0101
0000
0000
1000
0000
0000
,
2001
0000
0000
0000
3100
0000
0001
0000
0100
0000
0000
0110
0000
0000
0001
0000
,
0200
0000
0000
0000
0310
0000
1000
0000
0100
0000
0100
0000
1000
0001
0100
0010
,
2000
0000
0000
0000
3002
0000
0000
0000
0103
0000
0010
0100
0010
0000
0103
0000
,
0001
0000
1000
0001
1000
0000
0100
0000
1000
0000
0010
0100
0010
0100
0010
0100
,
0002
0000
0000
0000
0013
0000
1000
0000
0010
0000
0000
0110
0000
0000
1000
0000
,
0020
0000
0000
0000
0130
0000
0001
0000
1000
0000
0010
0000
1000
0001
1000
0001
,
0020
0000
0000
0000
2000
0000
0000
0000
3000
0000
0031
0000
0000
0000
0201
0003
,
0000
0000
1000
0000
0301
0001
1000
0000
,
2010
0000
0100
0100
3100
0000
1001
0000
,
0012
0000
0100
0100
0103
0000
2001
0000
,
3200
0000
0000
0000
0002
0000
0000
0000
0003
0000
1300
0000
0000
0000
1020
3000
,
0000
0000
0001
0000
1030
1000
0001
0000
,
0102
0000
0010
0010
0013
0000
1001
0000
,
2100
0000
0010
3010
3000
0000
1001
0000
,
0011
0000
0010
0000
0100
0000
1000
0000
0010
0100
0010
0000
1000
0000
0100
0000
,
2100
0000
3001
0100
0102
0000
1003
0001
,
0100
0000
0010
0000
0010
0000
1000
0000
0001
0000
0010
0100
1000
0000
0010
0000
,
1010
0000
1000
0100
3010
0003
0001
0000
0012
0000
0000
0000
1003
0000
0001
0000
,
0100
0010
0100
0001
0010
0100
1000
0001
1000
0000
0010
0000
0100
0000
0001
0000
,
0102
0000
3000
0000
1003
0000
0100
0000
1000
0001
1000
0001
0100
0010
1000
0000
,
0001
0100
0010
0100
1000
0100
0010
0100
,
0001
0000
0010
0100
1000
0000
0010
0100
0010
0100
0001
0010
0100
1000
0000
0000
,
0010
1001
0000
0102
0000
1003
0100
0100
,
1000
0000
0000
0001
0000
0000
0100
0000
0010
0000
0100
0000
0010
0000
0000
1000
0000
0000
0100
0000
0000
0010
0000
0000
0001
0000
0000
1000
0000
0000
0010
0000
0100
0000
0010
0000
0100
0000
0000
0000
0000
0000
0001
0000
0000
0000
0000
0000
,
0010
0000
1001
0000
0000
0000
2100
0000
0000
0000
3010
0100
0010
0000
1000
0000
,
0001
0000
0000
0010
0000
0000
0100
0000
0000
1000
0000
0000
0001
0000
0000
0100
0000
0000
0001
0000
1000
0000
0001
0000
1000
0000
0000
0000
0000
0000
0001
0000
0000
0010
0000
0000
0100
0000
0000
1000
0000
0000
0010
0000
0000
0000
0000
0000
,
1000
0000
0110
0000
0000
0000
1002
0000
0000
0000
0013
0100
1000
0000
0001
0100
,
0010
0000
0000
0000
0000
0000
0010
0000
0000
0000
0000
0000
1000
0000
0100
0000
0010
0000
0001
0000
0000
0000
0000
0000
1000
0000
0000
0001
0000
0000
1000
0000
0000
0000
0000
0000
0001
0000
0000
0000
0000
0000
0100
0000
0000
0000
0000
0000
,
0001
0000
0110
0000
0000
0000
2001
0000
0000
0000
3100
0010
0001
0000
1000
0000
,
0001
0000
0000
0100
0000
0000
0001
0000
0000
0100
0000
0000
0010
0000
0000
1000
0000
0000
0100
0000
0010
0000
0100
0000
0010
0000
0000
0001
0000
0000
1000
0000
0000
0001
0000
0000
0100
0000
0000
0000
0000
0000
0000
0000
0000
0000
0000
0000
,
1001
0000
0000
0000
0001
0100
0010
0100
0001
0000
1000
0100
0000
0000
1000
0001
,
1000
0000
0000
0000
1000
0010
0100
0010
1000
0000
0001
0010
0000
0000
0001
1000
,
0001
0000
0000
0000
0001
0010
0100
1000
0010
0000
1000
0001
1000
0001
0010
0000
,
0001
0000
0000
0000
1000
0100
0010
0001
0100
0000
0001
1000
0001
1000
0001
0000
,
0010
0000
0000
0000
0001
0100
0010
0100
0001
0000
0000
0101
0000
0000
0001
0010
,
0100
0000
0000
0000
1000
0010
0100
0010
1000
0000
0001
1000
0001
0010
0100
1000
,
0001
0000
0000
0000
1000
0100
0010
0100
1000
0000
0000
1100
0000
0000
1000
0010
,
0100
0000
0000
0000
0001
0010
0100
0010
0001
0000
1000
0001
0100
0010
1000
0001
,
0010
1000
0010
0001
0201
0000
1300
0100
,
0001
0000
0010
0000
0100
0010
0100
0000
1000
0000
0001
0000
0101
0000
0000
0000
,
2010
0000
3010
0000
0120
0000
0130
0000
0102
0000
1003
0100
0000
0010
0001
0000
,
1000
0000
1010
0000
2020
0000
3030
0000
0001
0010
0100
1000
0001
0000
0000
0000
,
0012
0000
0013
0000
0120
0000
0130
0000
2100
0000
3001
0100
0000
0010
1000
0000
,
0001
0000
0011
0000
0022
0000
0033
0000
1000
0000
0001
0010
0000
0100
1000
0000
,
0001
0100
0010
1000
0100
0000
1000
0000
1010
0000
0000
0110
0000
0000
0101
0000
,
1000
0000
0001
1000
0001
0010
0100
1000
0010
0000
1000
0100
0000
0010
0001
0000
,
1000
0000
1000
0000
0100
0000
1000
0010
1000
0010
0100
0000
0001
0010
0001
0010
,
0100
0000
1000
0100
1000
0100
0010
0000
0001
0000
0101
0000
0000
0000
0110
0000
,
2000
0000
0000
0000
,
0001
0001
0001
0000
0002
0000
3003
0000
,
0001
0000
0001
0000
0010
0000
0001
0100
0001
0100
0010
0000
1000
0100
1000
0100
,
0010
0001
0011
0000
0000
1010
0000
1000
,
0002
0000
0000
0000
0000
0000
0000
2000
,
0000
0000
0003
0000
0100
0100
3103
0000
,
2001
0000
3010
0200
1000
0000
0301
0020
,
1000
0100
0032
1033
,
2001
0000
0100
0100
3100
0000
1100
0000
,
1002
0000
0100
0100
0103
0000
0101
0000
,
1000
0100
0010
0001
0100
0010
1000
0001
,
1000
0100
0010
0001
0100
0010
1000
0100
0010
0001
1000
0001
0100
0010
0100
0010
,
2000
0000
0010
0010
3010
0000
1010
0000
,
1002
0000
0000
0000
0013
0000
0001
1000
0001
0100
0010
1000
0001
0000
0000
0000
,
2000
0000
0100
0000
0000
3001
0000
1001
,
0001
0000
0100
0000
0010
0000
1000
0100
0010
0000
0001
0000
1000
0000
0010
0000
,
0100
0000
0001
0000
1000
0000
0001
0010
0100
0000
1000
0000
0001
0000
0100
0000
,
0010
0000
0000
0100
0000
0000
0010
0000
0000
0100
0000
0000
0001
0000
0000
0000
0000
0000
1000
0000
0000
0000
0000
0000
0001
0000
0010
0000
0001
0000
0010
0000
0000
0100
0000
0000
1000
0000
0000
0000
0000
0000
0001
0000
0000
0000
0000
0000
,
1000
0000
0010
0000
0100
0000
0001
0010
0100
0000
1000
0001
1000
0000
0001
0100
,
0010
0000
1000
0000
0100
0000
1000
0010
0100
0000
0001
1000
0001
0000
1000
0100
,
0010
0000
0001
0000
1000
0000
0001
0100
0010
0000
1000
0100
0010
0000
0001
0000
,
1000
0010
1000
0010
0100
0000
0001
0010
0001
0010
0100
0000
1000
0001
1000
0000
,
2010
3001
3012
1003
0023
0100
0100
0130
,
0001
0000
0010
0100
1000
0000
0010
0000
0100
0000
0101
0000
2002
0000
3003
0000
,
2100
3001
0102
1003
3203
0010
0010
0310
,
0001
0000
1000
0010
0100
0000
0001
0000
1000
0100
0010
0001
2003
0000
0000
0000
,
3001
0000
0101
0000
0110
0000
1010
0000
1000
0100
0010
0001
0100
0010
1000
0000
;

//---------------dance-double - ----------------
#NOTES:
     dance-double:
     :
     Challenge:
     17:
     0.847916,0.891019,0.565277,0.516825,0.613730,735.000000,665.000000,70.000000,64.000000,0.000000,0.000000,0.847916,0.891019,0.565277,0.516825,0.613730,735.000000,665.000000,70.000000,64.000000,0.000000,0.000000:
00000000
00000000
00000000
00000000
,
00000000
00000000
00000000
00000000
,
00000000
00000000
00000000
00000000
,
00000000
00000000
00000000
00000000
,
00001000
00000000
00010000
00000000
00100000
00000000
10000000
00000000
02000000
00000000
00000000
00000000
13000000
00010000
10000000
00000000
,
00100000
00000000
01000000
00000000
10000000
00000000
01000000
00000000
00010000
00000000
00100000
01000000
00100000
01000000
00100000
00001000
,
00010000
00001000
00000100
00000001
00000020
00000000
00000031
00001000
,
00000010
00000000
00000010
00000000
00000100
00000000
00000100
00000000
00001000
00010000
00001000
00010000
00001000
00000000
00000000
00000000
,
00201000
00000000
00000000
00000000
00310000
00000000
01000000
00000000
00100000
00000000
00000000
10100000
00000000
00000000
10000000
00000000
,
02000000
00000000
00000000
00000000
03100000
00000000
00010000
00000000
01000000
00000000
01010000
00000000
00000000
01000000
00000000
00000000
,
00012000
00000000
00000000
00000000
00013000
00000000
00000100
00000000
00000010
00000000
00000000
00000011
00000000
00000000
00000001
00000000
,
00000200
00000000
00000030
00000000
00000310
00000000
00001000
00000000
00000100
00000000
00000100
00000000
00010000
00001000
00010000
00001000
,
00020000
00000000
00000000
00000000
00230000
00000000
00000000
00000000
10300000
00000000
00010000
10000000
00010000
00000000
00100000
00000000
,
00100000
00000000
00301000
00000000
00010000
00000000
00000010
00000000
00000100
00000000
00000001
00001000
00000001
00001000
00000001
00001000
,
00000200
00000000
00000000
00000000
00000301
00000000
00000100
00000000
00001000
00000000
00000000
00001100
00000000
00000000
00010000
00000000
,
00002000
00000000
00000000
00000000
01003000
00000000
00100000
00000000
10000000
00000000
00010000
00000000
10000000
01000000
00100000
00010000
,
02000000
00000000
20000000
00000000
30000000
00010000
00000000
03002000
,
00100000
00000000
00000000
00000000
00013000
00010000
00010000
00000000
,
00020010
00000000
00001000
00001000
00031000
00000000
00011000
00000000
,
00102000
00000000
00010000
00010000
00013000
00000000
00011000
00000000
,
00001002
00000000
00000203
00000000
00000000
00010000
00000000
00000310
,
00001000
00000000
00001000
00000000
00000001
00000000
00000001
00000000
00000010
00000000
00000100
00000000
00010000
00001000
00010000
00000000
,
00002000
00000000
00100000
00100000
00103000
00000000
00110000
00000000
,
00021000
00000000
00000010
00030010
00030000
00000000
00011000
00000000
,
01001000
00000000
01000000
00000000
00100000
00000000
10000000
00000000
00010000
00100000
00010000
00000000
10000000
00000000
00100000
00000000
,
02100000
00000000
03001000
00010000
00021000
00000000
00030100
00001000
,
00000010
00000100
00000010
00000000
00001000
00000000
00000100
00000000
00000010
00000000
00000001
00000100
00000010
00000000
00001000
00000000
,
00001100
00000000
00000100
00010000
00001000
00000000
01000000
00000000
01020000
00000000
00000000
00000000
10030000
00000000
01000000
00000000
,
10000000
00010000
10000000
00010000
01000000
00100000
10000000
01000000
00100000
00000000
00010000
00000000
01000000
00000000
00001000
00000000
,
00021000
00000000
00000000
00000000
00030100
00000000
00001000
00000000
00000001
00000100
00000001
00000100
00003010
00001000
00000001
00000000
,
00000010
00000010
00001000
00001000
00010000
00010000
01000000
01000000
,
10000000
00000000
00010000
01000000
00100000
00000000
10000000
01000000
00100000
00010000
10000000
00010000
01000000
00100000
00000000
00000000
,
10000000
00000000
10100000
00000000
00000000
00000000
10020000
00000000
00000000
00000000
00130000
01000000
00100000
00000000
00010000
00000000
,
01000000
00001000
01000000
00001000
00010000
00000100
00000010
00000000
00000001
00000100
00000010
00001000
00000100
00000000
00000010
00000000
,
00000001
00000000
00000011
00000000
00000000
00000000
00002001
00000000
00000000
00000000
00003010
00000100
00000010
00000000
00001000
00000000
,
00000100
00000000
00010000
00001000
00010000
00001000
00010000
00001000
01000000
00000000
00010000
00100000
01000000
10000000
00100000
00000000
,
10000000
00000000
01100000
00000000
00000000
00000000
10020000
00000000
00000000
00000000
10030000
01000000
00100000
00000000
00001000
00010000
,
00000010
00000000
00000010
00000000
00010000
00000100
00000010
00000000
00000001
00000100
00000010
00000000
00001000
00000000
00001000
00000000
,
00000001
00000000
00000110
00000000
00000000
00000000
00002001
00000000
00000000
00000000
00003001
00000010
00000100
00000000
00010000
00000000
,
00001000
00100000
00001000
00100000
00010000
01000000
00100000
10000000
01000000
00100000
00010000
10000000
00100000
00000000
01000000
00000000
,
00010000
00000000
00000000
00000000
10000000
01000000
10000000
01000000
00010000
00000000
00001000
00000000
00000000
00000000
00010000
00001000
,
00000010
00000000
00000000
00000000
00000001
00000100
00000001
00000100
00001000
00000000
00010000
00000000
00000000
00000000
00001000
00010000
,
00100000
00000000
00000000
00000000
10000000
01000000
10000000
00100000
00010000
00000000
00001000
00000000
00000000
00000000
00010000
00001000
,
00000010
00000000
00000000
00000000
00000001
00000010
00000001
00000100
00001000
00000000
00010000
00000000
00000000
00000000
00001000
00010000
,
00100000
00000000
00000000
00000000
10000000
01000000
00100000
00001000
00010000
00000000
00000000
00010010
00000000
00000000
00000010
00001000
,
00000001
00000000
00000000
00000000
00000001
00000010
00000100
00010000
00001000
00000000
00000000
01001000
00000000
00000000
01000000
00010000
,
10000000
00000000
00000000
00000000
00010000
00100000
10000000
00100000
00010000
00000000
00000000
00102000
00000000
00000000
00013000
00000010
,
00001000
00000000
00000000
00000000
00000001
00000100
00001000
00000100
00000001
00000000
00001000
00000100
00000010
00000001
00000100
00000010
,
00010000
00010000
00001000
01000000
01020000
00000000
10030000
00100000
,
10000000
00000000
00010000
10000000
00010000
10000000
01000000
00100000
00010000
00000000
00100000
00000000
00101000
00000000
00000000
00000000
,
00012000
00000000
00013000
00000000
00020010
00000000
00030010
00000000
00002010
00000000
00003001
00000010
00000000
00000100
00001000
00000000
,
00000001
00000000
00000101
00000000
00000102
00000000
00001003
00000000
00000001
00000010
00000100
00001000
00000010
00000000
00010000
00000000
,
00021000
00000000
00031000
00000000
01002000
00000000
01003000
00000000
01020000
00000000
10030000
01000000
00000000
00100000
00010000
00000000
,
10000000
00000000
10100000
00000000
20100000
00000000
30010000
00000000
10000000
00000000
00010000
00100000
00000000
00100000
00001000
00000000
,
00010000
00000010
00010000
00000010
00001000
00000000
00000001
00000000
00000011
00000000
00000000
00001001
00000000
00000000
00001100
00000000
,
00010000
00000000
00001000
00010000
00001000
00010000
00001000
01000000
00100000
00000000
10000000
01000000
00000000
00100000
00010000
00000000
,
10000000
00000000
10000000
00000000
00100000
00000000
10000000
01000000
10000000
01000000
00100000
00000000
00010000
01000000
00010000
01000000
,
00001000
00000000
00010000
00000100
00010000
00000100
00001000
00000000
00000001
00000100
00000001
00000000
00000000
00000000
00001010
00000000
,
00020000
00000000
00000000
00000000
,
00001000
00001000
00032000
00000000
00003020
00000000
00000031
00000000
,
00001000
00000000
00000001
00000000
00000100
00000000
00000001
00000010
00000001
00000010
00000100
00000000
00001000
00000010
00001000
00000010
,
00010000
00000000
00001000
00100000
00001000
00000000
00000000
00000000
00000000
00000000
00110000
00000000
00000000
00000000
01000000
00000000
,
00002000
00000000
00000000
00000000
,
00023000
00000000
00000000
00000000
01030000
10000000
00010000
00000000
,
20010000
00000000
30100000
02300000
10000000
00000000
03010000
00100000
,
00002000
00000000
00000010
00000000
00013000
00000010
00000100
00000000
,
00000102
00000000
00001000
00001000
00001003
00000000
00001001
00000000
,
00002100
00000000
00000001
00000001
00003001
00000000
00001001
00000000
,
00000001
00000010
00000100
00001000
00010000
00100000
01000000
10000000
,
00010000
01000000
00010000
01000000
00100000
10000000
00100000
10000000
00010000
00100000
01000000
10000000
00100000
01000000
00010000
00100000
,
00002000
00000000
00100000
00100000
00103000
00000000
00101000
00000000
,
00021000
00000000
00000000
00000000
00030010
00000000
00010000
00001000
00010000
00000100
00000010
00000001
00001000
00000000
00000000
00000000
,
00000220
00000000
00000000
00000000
00000000
00003333
00000000
00001001
,
00000001
00000000
00000100
00000000
00000010
00000000
00001000
00000001
00001000
00000000
00000100
00000000
00020000
00000000
00000000
00000000
,
00031000
00000000
01000000
00000000
00100000
00000000
10000000
00010000
10000000
00000000
00100000
00000000
01000000
00000000
00010000
00000000
,
00100000
00001000
00100000
00001000
00010000
00000000
00000100
00000000
00001000
00000010
00000200
00000000
00003000
00000000
00000000
00000000
,
00000301
00000000
00000010
00000000
00000100
00000000
00001000
00000010
00000100
00000000
00000010
00010000
00000010
00000000
00010000
00001000
,
00100000
00000000
00010000
00000000
10000000
00000000
00010000
01000000
00100000
00000000
10000000
00010000
10000000
00000000
00010000
00100000
,
00001000
00000000
00010000
00000000
00000010
00000000
00000100
00000001
00001000
00000000
00000001
00000010
00000001
00000000
00000010
00000100
,
00010000
00000000
00001000
00010000
00001000
00000000
00100000
00010000
00100000
00010000
01000000
00000000
00010000
10000000
00010000
00000000
,
01020000
10030000
21000000
30010000
00200000
00001000
00001000
00301000
,
00010000
00010010
00010020
00000130
00000001
00001001
00002002
00003003
,
00002100
00003001
00000102
00001003
00000020
00010000
00010000
00010030
,
00001000
00000000
00101000
00000000
00201000
00000000
01300000
00000000
10000000
00010000
10000000
00010000
20000000
00000000
00030000
00000000
,
30100000
00000000
10100000
00000000
01100000
00000000
01010000
00000000
00010000
00100000
00001000
00010000
00000010
00001000
00000001
00000000
;

//---------------dance-double - ----------------
#NOTES:
     dance-double:
     :
     Hard:
     14:
     0.628727,0.719669,0.411845,0.751011,0.270526,545.000000,494.000000,51.000000,93.000000,0.000000,0.000000,0.628727,0.719669,0.411845,0.751011,0.270526,545.000000,494.000000,51.000000,93.000000,0.000000,0.000000:
00000000
00000000
00000000
00000000
,
00000000
00000000
00000000
00000000
,
00000000
00000000
00000000
00000000
,
00000000
00000000
00000000
00000000
,
00010000
00001000
00010000
00000010
00000200
00000000
00000301
00000000
,
00001000
00000100
00000001
00000100
00001000
00000010
00010000
00000000
,
00001000
00010000
00001000
01000000
00200000
00000000
10300000
00000000
,
00010000
00100000
10000000
00100000
00010000
01000000
00001000
00000000
,
00021000
00000000
00000000
00000000
00000100
00000000
00000000
00000000
00030010
00000000
00000000
00000010
00000000
00000000
00000010
00000000
,
00000200
00000000
00000000
00000000
00000301
00000000
00001000
00000000
00000001
00000000
00000010
00000000
00000000
00000010
00000000
00000000
,
00000200
00003000
00000000
00000000
00000001
00000000
00000000
00000000
00001300
00000300
00000000
00000001
00000000
00000000
00001000
00000000
,
00000020
00000000
00000130
00001000
00010000
00100000
02000000
00000000
,
03020000
00000000
20030000
00000000
31300000
01000000
00010000
00020000
,
00000000
00000000
00031000
00000000
00000200
00000000
00000000
00000000
00000310
00000000
00000010
00000000
00000000
00001000
00000000
00000000
,
00000002
00000030
00000000
00000000
00000010
00000000
00000000
00000000
00001003
00000000
00000000
00001000
00000000
00000000
00001000
00000000
,
00000010
00000000
00010000
00000000
00000100
00000000
00010000
00000000
00001000
00000000
00100000
00300000
00010000
00000000
00000000
00000000
,
20010000
00000000
00000000
30200000
00000000
00000000
00320000
00000000
,
00032000
00000000
00000000
00000000
00100000
00100000
00103000
00000000
,
00102000
00000000
00013300
00001000
00010000
00000000
00011000
00000000
,
00020010
00000000
00031000
00010000
00001000
00000000
00011000
00000000
,
00001002
00000000
00000000
00000023
00000000
00000000
00002030
00000000
,
00023000
00000000
00000000
00000000
00000010
00000010
00030010
00000000
,
00020010
00000000
03031000
00010000
00001000
00000000
00011000
00000000
,
00102000
00000000
00013000
00010000
00000000
00000000
00011000
00000000
,
10020000
00000000
01030000
10000000
01000000
00100000
10000000
01000000
,
00020000
03000000
00331000
00000010
00000002
00000000
00001003
00000001
,
00002000
00000000
00003010
00000001
00000010
00000100
00000001
00000010
,
00002000
00000030
00013300
01000000
20000000
00000000
30010000
10000000
,
00100000
01000000
00100000
00000000
10000000
00000000
01000000
00000000
00100000
00000000
00001000
00000000
00010000
00000000
00000010
00000000
,
00002010
00000000
00003001
00000010
00000012
00000000
00001003
00000000
,
00000001
00000130
00000010
00000100
00001000
00000100
00000010
00000100
,
00000001
00000010
00000100
00010000
00000000
00022000
00000000
00033000
,
00101000
00200000
00000000
00320000
00000000
01030000
00100000
00000000
,
10000000
00010000
10000000
00000000
00100000
00000000
01000000
00000000
00010000
00100000
00001000
00000000
00010000
00000000
00000000
00000000
,
00010000
00000020
00000000
00002030
00000000
00003100
00000010
00000000
,
00000001
00000000
00001000
00000010
00001000
00000000
00000100
00000000
00000200
00003000
00000000
00000000
00010300
00001000
00010000
00000000
,
00001000
00000000
02000000
00000000
00000000
00000000
03200000
03000000
00010000
00000000
00000000
00000000
10300000
00000000
00000000
00000000
,
00010000
00000000
00010000
00000000
10000000
01000000
00100000
00000000
00001000
00100000
00001000
00000000
00010000
00000000
00000000
00000000
,
00010000
00000000
00000020
00000000
00000000
00000000
00000230
00000030
00001000
00000000
00000000
00000000
00000301
00000000
00000000
00000000
,
00001000
00000000
00000001
00000010
00000100
00000000
00001000
00000000
00000010
00000100
00000010
00000000
00010000
00001000
00000000
00000000
,
00020000
00000000
00000000
00000000
00031000
00100000
00001000
00100000
01000000
00000000
02000000
00000000
00000000
00000000
13000000
00000000
,
00010000
00000000
00000000
00000000
01000000
00001000
01000000
00001000
00010000
00000000
00020000
00000000
00000000
00000000
00030100
00000000
,
00001000
00000000
00000000
00000000
00000001
00000100
00000001
00000100
00000010
00000000
00000020
00000000
00000000
00000000
00001030
00000000
,
00000100
00000000
00000000
00000000
00010000
00001000
00010000
00001000
00010000
00000000
00001000
00000000
00100000
00001000
00010000
00000000
,
00001000
00000000
00000000
00000000
01000000
00001000
01000000
00010000
01000000
00000000
00000000
01010000
00000000
00000000
00001000
00000000
,
00010000
00000000
00000000
00000000
00003010
00010000
00000010
00001000
00000010
00000000
00000000
00001010
00000000
00000000
00010000
00000000
,
00001000
00000000
00000000
00000000
00100000
00001000
00100000
00010000
00100000
00000000
00000000
00110000
00000000
00000000
00001000
00000000
,
00010000
00000000
00000000
00000000
00000100
00010000
00000100
00001000
00000100
00000000
00010000
00000000
00001000
00010000
00001000
00000000
,
01000000
01000000
00100000
10000000
02000000
00000000
03010000
01000000
,
10000000
00100000
00010000
00001000
00000200
00000000
00000310
00001000
,
00002020
00000000
00003030
00000000
00002020
00000000
00003030
00000000
00001001
00000000
00003003
00001001
00000000
00003003
00002002
00000000
,
00003003
00000000
00000001
00000000
00000010
00000000
00000100
00000000
00010000
00001000
00010000
00001000
00010000
00000000
00000000
00000000
,
02002000
00000000
03003000
00000000
02002000
00000000
03003000
00000000
00110000
00000000
00000000
00110000
00000000
00000000
00220000
00000000
,
00330000
00000000
10000000
00000000
00100000
00000000
01000000
00000000
01100000
00000000
00000000
01100000
00000000
00000000
01100000
00000000
,
10000000
00000000
00000000
00000000
22000000
00000000
33000000
00000000
10010000
00000000
00000000
10010000
00000000
00000000
20020000
00000000
,
30030000
00000000
10000000
00000000
00100000
00000000
01000000
00000000
00010000
00000000
00100000
00001000
00000000
00001000
00010000
00000000
,
00000100
00000000
00000000
00000000
00010100
00000000
00000000
00010000
00000010
00000000
00010000
00000000
00000000
00001000
00010000
00000000
,
00001000
00000000
00000000
00100000
00010000
00000000
00100000
00000000
00001000
00000000
00011000
00000000
00000000
00000000
00011000
00000000
,
02000000
00000000
00000000
00000000
,
00001000
00001000
00001000
00000000
00002000
00000000
03003000
00000000
,
00001000
00000000
00000000
00000000
00101000
00000000
00000000
00001000
01000000
00000000
00001000
00000000
00000000
00010000
00001000
00000000
,
00010000
00000000
00000000
00000100
00001000
00000000
00000000
00000000
00000000
00000000
00011000
00000000
00000000
00000000
00010000
00000000
,
00000020
00000000
00000000
00000000
,
00000000
00000000
00000000
00000000
00000100
00000100
00000130
00000000
,
00000002
00000203
00002300
00023000
,
00230000
00000000
20300000
00000000
31000000
00100000
03010000
00000000
,
00102000
00000000
00010000
00010000
00013000
00000000
00011000
00000000
,
00020010
00000000
00001000
00001000
00031000
00000000
00011000
00000000
,
00010000
00000010
00010000
00000010
00001000
00000100
00001000
00000100
,
00001000
00000001
00001000
00000000
00000010
00000000
00000100
00000000
00000001
00001000
00000001
00000000
00000010
00000000
00000100
00000000
,
00020000
00000000
00000000
00000000
,
00000000
00000000
00031000
00011000
,
00200000
00000000
00000000
00000000
00000000
00300000
00000000
10010000
,
20000000
00000000
30100000
02300000
00000000
03010000
10000000
00010000
,
00200000
00000000
00301000
00020000
00000000
00030010
00000100
00000010
,
00001000
00000100
00000010
00000001
00000000
00000022
00000000
00000033
,
00001000
00000001
00000100
00002000
00000000
00003100
00000010
00001000
,
00000100
00010000
00001000
00200000
00000000
00310000
10000000
00010000
,
01000000
10000000
01000000
00200000
00000000
10300000
01000000
00100000
,
00010000
00000000
10000000
01000000
10000000
00000000
00010000
01000000
00010000
00000000
10000000
00000000
00010000
00000000
00000000
00000000
,
10020000
00000000
00230000
00000000
10300000
00100000
00001000
00000020
,
00000000
00000031
00001000
00000001
00000100
00000100
00000110
00000000
,
00002001
00030000
00003203
00000000
00000331
00000100
00010000
02000000
,
00000000
00000000
13000000
00000000
00010000
00000000
10000000
00000000
00100000
01000000
00100000
01000000
00100000
00000000
00000000
00000000
,
10000000
00000000
01000000
00000000
00100000
00000000
00001000
00000000
00010000
00000010
00010000
00000010
00010000
00000010
00001000
00000000
;

//---------------dance-double - ----------------
#NOTES:
     dance-double:
     :
     Medium:
     11:
     0.471834,0.548319,0.258413,0.694484,0.028264,409.000000,377.000000,32.000000,86.000000,0.000000,0.000000,0.471834,0.548319,0.258413,0.694484,0.028264,409.000000,377.000000,32.000000,86.000000,0.000000,0.000000:
00000000
00000000
00000000
00000000
,
00000000
00000000
00000000
00000000
,
00000000
00000000
00000000
00000000
,
00000000
00000000
00000000
00000000
,
10000000
01000000
00100000
00000000
20020000
00000000
30030000
00000000
,
00010000
01000000
00001000
00000000
00010000
00000100
00000010
00000000
,
00000001
00000100
00000010
00000000
00002002
00000000
00003003
00000000
,
00001000
00000010
00010000
00000000
00001000
00100000
01000000
00000000
,
21000000
00000000
00000000
00000000
30010000
00000000
00000000
00000000
10000000
00000000
00000000
10000000
00000000
00000000
10000000
00000000
,
00200000
00000000
00000000
00000000
01300000
00000000
00000000
00000000
00010000
00000000
00100000
00000000
00000000
00001000
00000000
00000000
,
00020000
00000000
00000000
00000000
00030010
00000000
00000000
00000000
00010000
00000000
00000000
00010000
00000000
00000000
00010000
00000000
,
00000200
00000000
00000310
00000001
00001000
00000001
00000100
00000000
,
00000102
00000000
00002003
00000000
00003100
00010000
00000100
00020000
,
00000000
00031000
02000000
00000000
00100000
00100000
03100000
00000000
,
20000000
00000000
00000000
00000000
30010000
00000000
00000000
00000000
00010000
00000000
00000000
00010000
00000000
00000000
00010000
00000000
,
00200000
00000000
00301000
00000000
00010000
00001000
00010000
00000000
,
00010020
00000000
00000000
00000230
00000000
00000000
00000302
00000000
,
00000000
00000000
00002000
00003003
,
00001001
00000000
00001000
00000100
00020000
00000000
00031000
00000000
,
00021000
00000000
00031000
01000000
00020000
00000000
10030000
00000000
,
20000000
00000000
00000000
30200000
00000000
00000000
02300000
00300000
,
00000000
00000000
00020000
03030000
,
10010000
00000000
00010000
01000000
00002000
00000000
00013000
00000000
,
00021000
00000000
00001000
00031000
00000000
00000000
00011000
00000000
,
00001002
00000000
00000103
00000010
00000100
00000000
00000010
00001000
,
00000200
00000000
00010300
00001000
02000000
00000000
03100000
00000000
,
20000000
00000000
31000000
00100000
01000000
00000000
00100000
00010000
,
02000000
00000000
03001000
00010000
00000020
00000000
00000130
00000000
,
00000000
00000000
00001000
00000001
00001000
00000000
00000001
00000010
,
00000200
00000000
00010300
00001000
02000000
00000000
03100000
00000000
,
10000000
00010000
10000000
00010000
10000000
00010000
10000000
00000000
,
00010000
00000000
00100000
00001000
00000000
00022000
00000000
00033000
,
00010000
00000020
00000000
00000230
00000000
00000000
00000301
00000000
,
00001000
00000001
00001000
00000001
00000010
00000100
00010000
00000000
,
00001000
02000000
00000000
03200000
03000000
00000000
10300000
00000000
,
00010000
10000000
00010000
00000000
10000000
01000000
00100000
00000000
,
00001000
00020000
00000000
00030020
00000000
00000000
00000130
00000000
,
00000001
00000010
00000100
00001000
00000010
00000100
00000010
00000000
,
00010000
00002000
00000000
00203000
00000000
00000000
00310000
00000000
,
10000000
00010000
10000000
00010000
01000000
00100000
10000000
00000000
,
10100000
00000000
10000000
01000000
00010000
00010000
00000000
00000000
,
00000000
00000000
01000000
00010000
00001000
00001000
00000000
00000000
,
00000000
00000000
00010000
00001000
00000100
00000100
00000000
00000000
,
00000000
00000000
00001000
00000100
00000001
00000001
00000000
00000000
,
00000000
00000000
00000001
00000010
00001000
00001000
00000000
00000000
,
00000000
00000000
00000010
00001000
00010000
00010000
00000000
00000000
,
00000000
00000000
00001000
00010000
00100000
00100000
00000000
00000000
,
00000000
00000000
00010000
00100000
10000000
10000000
00000000
00000000
,
10010000
10010000
01100000
10010000
,
10000000
01000000
00200000
00000000
00302000
00000000
00013000
00000000
,
00011000
00000000
00000000
00000000
00011000
00000000
00000000
00000000
00010000
00000000
00000000
00010000
00000000
00000000
00000020
00000000
,
00000000
00000130
00000100
00000000
00000101
00000000
00001010
00000000
,
00001001
00000000
00000000
00000000
00001001
00000000
00000000
00000000
00001000
00000000
00000000
00001000
00000000
00000000
00000200
00000000
,
00000000
00010300
00010000
00000000
00011000
00000000
01001000
00000000
,
01000000
00000000
00000000
00000000
01100000
00000000
00000000
00000000
10000000
00000000
00000000
10000000
00000000
00000000
20000000
00000000
,
00000000
31000000
01000000
00000000
10000000
01000000
00100000
00000000
,
00010000
10000000
00010000
10000000
00000000
00010000
01000000
00010000
,
00000000
00100000
00001000
00100000
00000000
00001000
00010000
00001000
,
00020000
00000000
00000000
00000000
,
00000020
00000000
00000000
00330030
,
00000010
00001000
00000001
00001000
00000000
00000001
00000010
00000001
,
00000000
00001000
00000100
00001000
00000000
00000010
00000000
00010000
,
00002000
00000000
00000000
00000000
,
00020000
00000000
00000000
00033000
,
00001000
01000000
00100000
10000000
,
01000000
00100000
00010000
01000000
,
00002000
00000000
00013000
00000010
00020000
00000000
00032000
00000000
,
00023000
00000000
00031000
00100000
00002000
00000000
00023000
00000000
,
00030010
00001000
00000010
00001000
00000001
00001000
00000002
00000000
,
00000013
00000001
00000010
00000001
00001000
00000001
00001000
00000000
,
00002200
00000000
00000000
00000000
,
00000000
00003330
00020000
00031000
,
00022000
00000000
00000000
00000000
00000000
00033000
00000000
10020000
,
00000000
00000000
01030000
00000000
00100000
10000000
00100000
00000000
,
20000000
00000000
31000000
00100000
00320000
00000000
01030000
00000000
,
00002000
00000000
00013000
00000100
00000010
00000002
00000000
00000000
,
00000203
00000000
00000310
00001000
00000200
00000000
00010300
00000000
,
00012000
00000000
01003000
00010000
00200000
00000000
00310000
00000000
,
21000000
00000000
30010000
01000000
00200000
00000000
10300000
00000000
,
00010000
10000000
00010000
10000000
01000000
00200000
00000000
00000000
,
00302000
00000000
00023000
00000000
00030010
00000100
00000010
00000200
,
00000000
00000301
00002000
00000000
00003100
00010000
00010100
00000000
,
00020000
00000000
00032000
00000000
01003000
00100000
01000000
00200000
,
00000000
10300000
01000000
00100000
00010000
10000000
00020000
00000000
,
01030000
00001000
01000000
00001000
00010000
00000100
00000010
00000001
;

//---------------dance-double - ----------------
#NOTES:
     dance-double:
     :
     Easy:
     7:
     0.309172,0.411239,0.137282,0.403770,0.000000,268.000000,251.000000,17.000000,50.000000,0.000000,0.000000,0.309172,0.411239,0.137282,0.403770,0.000000,268.000000,251.000000,17.000000,50.000000,0.000000,0.000000:
// measure 0
00000000
00000000
00000000
00000000
,  // measure 1
00000000
00000000
00000000
00000000
,  // measure 2
00000000
00000000
00000000
00000000
,  // measure 3
00000000
00000000
00000000
00000000
,  // measure 4
00000001
00000100
00002002
00003003
,  // measure 5
00001000
00000100
00010000
00001000
,  // measure 6
01000000
00010000
20020000
30030000
,  // measure 7
10000000
01000000
00100000
00001000
,  // measure 8
00020000
00030000
00000010
00001000
,  // measure 9
00000200
00000300
00000010
00000001
,  // measure 10
00000200
00000300
00000010
00001000
,  // measure 11
00000100
00000000
00000100
00000000
00010000
00001000
00010000
00000000
,  // measure 12
00002000
00003000
00100000
00100000
,  // measure 13
00020000
00030000
10000000
00100000
,  // measure 14
02000000
03000000
00010000
00010000
,  // measure 15
00200000
00000000
00300000
00000000
00001000
00010000
00001000
00000000
,  // measure 16
00020000
00000000
00000000
00030020
00000000
00000000
00000230
00000000
,  // measure 17
00000000
00000000
00000302
00000000
,  // measure 18
00001003
00000100
00000001
00000100
,  // measure 19
00001000
00000010
00010000
00001000
,  // measure 20
00200000
00000000
00000000
00320000
00000000
00000000
02030000
00000000
,  // measure 21
00000000
00000000
03200000
00000000
,  // measure 22
10300000
01000000
00010000
01000000
,  // measure 23
10000000
00000000
00000000
10010000
,  // measure 24
10000000
00100000
01000000
00010000
,  // measure 25
00200000
00301000
00200000
00300000
,  // measure 26
00001000
00100000
00001000
00010000
,  // measure 27
00000020
00001030
00000020
00000030
,  // measure 28
00001000
00000001
00000010
00000100
,  // measure 29
00020000
00030100
00020000
00030000
,  // measure 30
00000100
00000100
00010000
00010000
,  // measure 31
00001000
01000000
00100000
00000000
,  // measure 32
00000000
20000000
00000000
30020000
00000000
00000000
00030000
00000000
,  // measure 33
00100000
00100000
00001000
00010000
,  // measure 34
00000000
00000020
00000000
00002030
00000000
00000000
00003000
00000000
,  // measure 35
00000001
00000001
00000010
00000010
,  // measure 36
00000000
00000200
00000000
00020300
00000000
00000000
00030000
00000000
,  // measure 37
00001000
00001000
01000000
01000000
,  // measure 38
00000000
00020000
00000000
20030000
00000000
00000000
30000000
00000000
,  // measure 39
00100000
00100000
10000000
00010000
,  // measure 40
00000000
00000000
10000000
00000000
01000000
01000000
00000000
00000000
,  // measure 41
00000000
00000000
00100000
00000000
00001000
00001000
00000000
00000000
,  // measure 42
00000000
00000000
00010000
00000000
00000010
00000010
00000000
00000000
,  // measure 43
00000000
00000000
00001000
00000000
00000001
00000001
00000000
00000000
,  // measure 44
00000000
00000000
00000001
00000000
00000010
00000010
00000000
00000000
,  // measure 45
00000000
00000000
00000100
00000000
00010000
00010000
00000000
00000000
,  // measure 46
00000000
00000000
00001000
00000000
01000000
01000000
00000000
00000000
,  // measure 47
00000000
00000000
01000000
00000000
00100000
00100000
00000000
00000000
,  // measure 48
10010000
10010000
10000000
01000000
,  // measure 49
00100000
00010000
01000000
00001000
,  // measure 50
00011000
00011000
00022000
00033000
,  // measure 51
00000010
00000010
00000020
00000030
,  // measure 52
00001001
00001001
00002002
00003003
,  // measure 53
00000001
00000010
00000100
00000000
,  // measure 54
00011000
00011000
00022000
00033000
,  // measure 55
00001000
01000000
00100000
00000000
,  // measure 56
10000000
00000000
01000000
00000000
00000000
01000000
00000000
00000000
,  // measure 57
00100000
00000000
00000000
00100000
00000000
00000000
00001000
00000000
,  // measure 58
00020000
00000000
00000000
00030000
,  // measure 59
00000020
00000000
00000000
00000030
,  // measure 60
00001000
00000000
00000001
00000000
00000000
00000001
00000000
00000000
,  // measure 61
00000100
00000000
00000100
00000000
00000000
00000010
00000000
00000000
,  // measure 62
00020000
00000000
00000000
00030000
,  // measure 63
00002000
00000000
00000000
00003000
,  // measure 64
00100000
00010000
10000000
00100000
,  // measure 65
01000000
00010000
00100000
00001000
,  // measure 66
00020000
00031000
00001000
00010000
,  // measure 67
00020000
00031000
00001000
00000000
,  // measure 68
00010000
00000010
00001000
00000100
,  // measure 69
00000010
00000001
00000100
00000010
,  // measure 70
00020000
00031000
00001000
00010000
,  // measure 71
00020000
00031000
00001000
00000000
,  // measure 72
00022000
00000000
00000000
00000000
00033000
00033000
00000000
00000000
,  // measure 73
10010000
00010000
01000000
00000000
,  // measure 74
00010000
10000000
00100000
00000000
,  // measure 75
10000000
01000000
00100000
00000000
,  // measure 76
00001000
00010000
00000010
00000000
,  // measure 77
00001000
00000010
00000100
00000000
,  // measure 78
00000001
00000010
00000100
00000000
,  // measure 79
00001000
00000001
00000100
00000000
,  // measure 80
00000001
00000001
00000100
00000100
,  // measure 81
00001000
00010000
00100000
00000000
,  // measure 82
10000000
10000000
01000000
01000000
,  // measure 83
00010000
00001000
00000010
00000000
,  // measure 84
00000001
00000000
00001000
00000000
00000001
00000000
00000000
00001001
;
