#VERSION:0.83;
#TITLE:Sentimental Masochist;
#SUBTITLE:;
#ARTIST:cosMo@BousouP;
#TITLETRANSLIT:;
#SUBTITLETRANSLIT:;
#ARTISTTRANSLIT:;
#GENRE:;
#CREDIT:;
#MUSIC:Sentimental Masochist.ogg;
#BANNER:Sentimental Masochist-bn.png;
#BACKGROUND:Sentimental Masochist-blankbg.png;
#CDTITLE:;
#SAMPLESTART:58.705;
#SAMPLELENGTH:8.556;
#SELECTABLE:YES;
#OFFSET:-0.128;
#BPMS:0.000=227.907
,220.000=455.814
,221.000=227.907
;
#STOPS:;
#SCROLLS:0.000=1.000,
220.000=0.500,
221.000=1.000
;
#DISPLAYBPM:228.000;
#JACKET:Sentimental Masochist.png;
#LASTSECONDHINT:95.2;
#BGCHANGES:-0.486=Sentimental Masochist.avi=1.000=0=0=0=StretchNoLoop====;
#FGCHANGES:;

//--------------- dance-single - ----------------
#NOTEDATA:;
#STEPSTYPE:dance-single;
#DESCRIPTION:;
#DIFFICULTY:Medium;
#METER:13;
#RADARVALUES:0,0,0,0,0;
#NOTES:
0000
0000
0000
0000
,
0000
0000
0000
0000
,
0000
0000
0000
0000
,
0000
0000
0000
0000
,
0000
0000
0000
0000
,
0000
0000
0000
0000
,
0000
0000
0000
1001
,
0000
1100
0000
1001
0000
0102
0000
0003
,
1000
0000
0100
0000
0100
0010
0100
0000
,
1000
0001
0100
0010
0100
0000
0001
0000
,
1000
0000
0100
0000
0100
0010
0001
0000
,
1000
0000
0001
0000
0100
0001
0001
0000
,
1000
0000
0001
0000
0001
0010
0100
0000
,
0010
0001
1000
0001
1000
0000
0001
0000
,
1000
0000
1000
0000
0010
0100
0001
0100
,
0001
0000
0001
0000
0001
1000
1001
0000
,
0001
0000
0010
0000
0010
0100
0010
0000
,
0001
1000
0010
0100
0010
0000
1000
0000
,
0001
0000
0010
0000
0010
0100
1000
0000
,
0001
0000
1000
0000
0010
1000
1000
0000
,
0001
0000
1000
0000
1000
0100
0010
0000
,
0100
1000
0001
1000
0001
0000
1000
0000
,
0001
0000
0001
0200
0300
1000
0100
0000
,
0002
0000
0000
0000
0000
0000
0000
0003
,
1001
0000
1000
0100
0010
0100
1000
0001
,
0000
0000
1000
0000
0010
0000
0100
0001
,
1000
0100
1000
0001
0000
0000
0100
0000
,
0010
0000
0000
1001
0000
1000
1000
0000
,
1001
0000
1000
0100
0010
0001
0000
1000
,
0001
0000
1000
0001
1000
0010
0100
0001
,
1000
0000
0001
0000
1000
0001
0010
0001
,
1000
0000
0001
0100
0010
1000
0001
0000
,
1001
0000
1000
0100
0010
0100
0000
1000
,
0001
0000
1000
0010
0100
0000
0001
0100
,
0010
0000
1000
0000
0001
0000
0100
0010
,
2000
0000
3000
0002
0003
1000
1000
0000
,
1001
0000
1000
0100
0010
0000
0001
0000
,
0001
0000
1000
0001
1000
0000
0010
0000
,
0101
0000
0000
1100
0000
1000
0001
0000
,
1001
0000
0000
0101
0000
0000
0001
0000
,
2000
0000
3001
0000
,
1000
0000
0100
0010
0100
0000
1000
0000
,
1001
0000
0000
1000
0000
0000
0010
0000
,
0100
0001
0100
0010
,
1020
0000
0000
0031
,
2000
0000
3100
0000
,
0010
0000
0000
0010
0000
0000
0020
0000
,
0000
0000
0030
0000
0000
0000
0000
0000
0002
0000
0000
0000
0000
0003
0000
0000
,
1000
0000
0001
0000
0100
0010
0100
0000
,
0001
0000
1000
0100
0010
0000
0001
0000
,
1000
0000
0010
0100
0010
0000
1000
0000
,
0001
0010
0100
1000
,
1001
0000
1001
0000
,
0001
1001
1000
1001
,
2020
0000
0000
0000
,
0000
0000
3030
1001
,
1000
0000
0100
0010
0002
0000
1003
0001
,
0100
0010
0100
0000
0001
0000
1000
0001
,
1000
0000
0001
0000
1000
0100
1000
0000
,
0001
1000
0010
1000
0001
1000
1000
0000
,
0002
0000
0013
0000
0200
0000
0000
1300
,
0001
1000
0010
0100
0001
0000
1000
0000
,
0100
0010
0001
0010
,
1000
0000
0010
0001
0000
0001
1001
0000
,
1000
0000
0010
0100
0002
0000
1003
0001
,
0010
0100
1000
0000
0001
0000
1000
0010
,
1000
0000
0001
0000
1000
0100
1000
0001
,
1000
0001
0100
0001
1000
0001
0001
1000
,
0001
0000
0000
0010
0100
0000
0000
1000
,
0001
0100
0010
1000
,
0001
0010
0100
1000
0001
0100
0010
1000
,
1001
0000
0000
1001
0000
0000
1001
0000
,
1000
0000
0001
0010
0001
0000
1000
0010
,
1000
0000
0010
0000
0001
0000
0010
0100
,
0001
0000
1000
0100
1000
0000
0001
0100
,
0001
0000
1000
0100
0010
0001
0001
0000
,
1000
0000
0001
0100
0001
0000
1000
0100
,
1000
0001
1000
0001
,
0001
1000
0001
0001
,
1000
0010
0000
0001
0000
0010
0100
0001
,
1000
0000
0100
0000
0100
0010
0100
0000
,
1000
0100
0001
0100
1000
0000
0001
0000
,
1000
0000
0010
0000
0010
0100
0001
0000
,
1000
0001
1000
0000
,
0001
0010
0100
1000
0001
0010
0100
1000
,
0001
0100
0010
1000
0001
0100
0010
1000
,
0001
0010
0100
1000
0010
0100
0001
1000
,
0001
0010
0100
1000
,
1001
0000
0000
0000
;

//--------------- dance-single - Flicks ----------------
#NOTEDATA:;
#STEPSTYPE:dance-single;
#DESCRIPTION:Flicks;
#DIFFICULTY:Hard;
#METER:16;
#RADARVALUES:0,0,0,0,0;
#NOTES:
0000
0000
0000
0000
,
0000
0000
0000
0000
,
0000
0000
0000
0000
,
0000
0000
0000
0000
,
0000
0000
0000
0000
,
0000
0000
0000
0000
,
0000
0000
0000
1001
,
0000
1100
0000
1001
0000
0102
0000
0003
,
1000
0000
0100
0000
0100
0010
0100
0000
,
1000
0000
0001
1000
0001
0000
0100
0000
0010
0000
0100
0000
0001
0000
0000
0000
,
1000
0000
0100
0000
0100
0010
0001
1000
,
0010
0100
0001
1000
0100
0010
0011
0000
,
1000
0000
0001
0000
0001
0100
0010
0000
,
0100
0000
0001
0100
0001
0000
1000
0000
0001
0000
0010
0000
0100
0000
0000
0000
,
1000
0000
1000
0000
0100
0010
0001
0010
,
0011
0000
0011
0000
0001
1000
1001
0000
,
0001
0000
0100
0000
0100
0010
0100
0000
,
0001
0000
1000
0001
1000
0000
0100
0000
0010
0000
0100
0000
1000
0000
0000
0000
,
0001
0000
0100
0000
0100
0010
1000
0001
,
0010
0100
1000
0001
0100
0010
1010
0000
,
1000
0000
0001
0000
0001
0010
0100
0000
,
1000
0000
0001
1000
0010
0000
0100
0000
0010
0000
0100
0000
0001
0000
0000
0000
,
1000
0000
1000
0200
0300
0001
0100
1000
,
0100
1000
0100
1000
0100
1000
0200
0000
0000
0000
0000
0000
0000
0000
0300
0000
,
1001
0000
1000
0010
0100
0010
1000
0010
,
1000
0001
1000
0100
0010
0001
0010
0100
,
1000
0001
1000
0001
0000
1000
0010
0000
,
0200
0000
0301
1000
0000
0100
1100
0000
,
1001
0000
0001
0100
0010
0100
0001
0100
,
0001
1000
0001
0010
0100
1000
0100
0010
,
0001
0010
0001
0010
0000
0001
1000
0001
,
1001
0000
0001
0100
1000
0100
0001
0000
,
1001
0000
1000
0100
0010
0100
1000
0100
,
1000
0001
1000
0010
0100
0001
0100
0010
,
1000
0000
0001
1000
0002
0000
0013
0100
,
2000
0000
3100
0010
0000
0001
0011
0000
,
1001
0000
0001
0100
0010
0100
0001
0000
,
1000
0100
0010
1000
0010
0000
0001
0000
,
0011
0000
1000
1001
0000
1000
0010
0100
,
1000
0100
0010
1000
0000
0000
0001
0000
,
2000
0000
3001
1000
,
0100
0000
0010
0001
1000
0000
0001
0000
,
1001
0000
0000
1000
0000
0000
0010
0000
,
0100
0001
0100
0010
,
1020
0000
0000
0000
0000
0000
1030
0001
,
2000
0000
3001
0000
,
1000
0000
0100
0000
0010
0000
0001
0000
1000
0001
1000
0000
0001
0000
0100
0000
,
0010
1000
0010
1000
0010
1000
0010
1000
0020
0000
0000
0000
0000
0030
0000
0000
,
1001
0000
1000
0000
0100
0010
0100
0000
,
1000
0000
0001
0100
0010
0000
1000
0000
,
0001
0000
0010
0100
0010
0000
0001
0000
,
1000
0001
1000
0001
,
1000
0010
0100
0001
1000
0001
0010
0100
,
1000
0100
1000
0100
1000
0100
1000
0100
1000
0001
1000
0001
1000
0001
1000
0001
,
2000
0000
0000
0000
,
0000
0000
3000
1001
,
1000
0000
0010
0100
0002
0000
1003
0001
,
1000
0100
0001
0100
1000
0100
0010
0001
,
0100
0000
0100
0000
0010
1000
0001
1000
,
0100
0000
0010
0001
1000
0000
0010
0000
0100
0000
0001
0000
1001
0000
0000
0000
,
0001
0000
0010
0000
0001
0010
0000
0100
,
0001
0100
0010
0100
0001
0100
0010
0000
,
0010
0000
0002
0000
1003
0010
1000
0000
,
1010
0000
0001
1001
0000
1000
0100
0010
,
0001
0000
0100
0010
2000
0000
3001
1000
,
0001
0010
1000
0001
0100
1000
0001
1000
,
0010
0000
0010
0000
0100
0001
1000
0001
,
0010
0000
0100
1000
0001
0000
0100
0000
0010
0000
1000
0000
1001
0000
0001
0000
,
0010
0000
0100
1000
0001
0000
0100
0010
,
1000
0010
0100
0000
0100
0000
0001
0000
,
1000
0100
0010
0001
0100
0010
1000
0010
,
1000
0010
1000
0010
1000
0010
1000
0001
1000
0001
1000
0001
2000
0000
3000
0000
,
0001
0010
0100
0010
0001
0010
0100
1000
,
0001
0000
0100
0000
1000
0000
0100
0000
0001
0000
1000
0000
0001
0010
0001
0000
,
0010
0000
0100
0000
1000
0100
1000
0000
0001
0000
1000
0000
0001
0100
0001
0000
,
0100
0000
0010
0000
1000
0010
1000
0000
0010
0000
0100
0000
0101
0000
0000
0000
,
1000
0100
0010
0100
1000
0010
0100
0001
,
1000
0100
0001
0100
1000
0001
1000
0010
,
0001
0000
1000
0100
0001
0000
0001
1000
,
0001
0000
0010
0000
0000
0000
1000
0000
0000
0000
0010
0000
0001
1000
0001
1000
,
0001
0000
1000
0000
0010
0001
0010
0000
,
1000
0000
0001
1000
0100
0000
0010
0000
0100
0000
0010
0000
0001
0000
0000
0000
,
1000
0000
0010
0000
0010
0100
0001
1000
,
0100
0000
0010
0000
0001
0000
1000
0000
0010
0000
0100
0001
0100
0000
0001
0000
,
1000
0100
0010
0100
1000
0100
0010
0001
,
0010
0000
0100
1000
0001
0000
0100
0000
0010
0000
1000
0000
0001
0000
1000
0000
,
0001
0010
0001
0010
0001
0010
0001
1000
0001
1000
0001
1000
0001
1000
0001
1000
,
0001
1000
0010
0100
,
0101
0000
0000
0000
;
