#TITLE:Seduction;
#SUBTITLE:;
#ARTIST:nc ft. Finalforce;
#TITLETRANSLIT:;
#SUBTITLETRANSLIT:;
#ARTISTTRANSLIT:;
#JACKET:jacket.png;
#GENRE:;
#CREDIT:Braeden;
#MUSIC:Seduction.ogg;
#BANNER:ban.png;
#BACKGROUND:bg.png;
#CDTITLE:;
#SAMPLESTART:45.470;
#SAMPLELENGTH:15.000;
#SELECTABLE:YES;
#OFFSET:-0.023;
#BPMS:0.000=95.000
,32.000=190.000
;
#STOPS:222.000=0.316
,237.000=0.316
;
#BGCHANGES:;
#FGCHANGES:;

//--------------- dance-single - ----------------
#NOTES:
     dance-single:
     :
     Beginner:
     5:
     0,0,0,0,0:
0000
0000
0000
0000
,
0000
0000
0000
0000
,
1001
0001
0100
0010
,
1000
0100
0010
0100
,
1000
0001
0100
0001
,
1000
0010
1000
0001
,
1001
0000
1001
0000
,
1001
0000
0001
0000
,
1001
0000
1000
0000
,
0001
0000
0100
0000
,
0010
0000
1000
0000
,
0100
0000
1000
0000
,
0001
0000
0100
0000
,
0010
0000
1000
0000
,
0002
0000
0000
0000
,
1003
0000
0001
0000
,
1001
1000
0000
0001
,
0000
0100
0100
0000
,
0010
0010
0000
1000
,
0000
0001
0001
0000
,
1001
1000
0000
0010
,
0000
1000
1000
0000
,
0001
0001
0000
0100
,
0000
0010
0010
0000
,
1001
0001
0000
0100
,
0000
0001
0001
0000
,
1000
1000
0000
0010
,
0000
0100
0100
0000
,
1001
0001
0000
0100
,
0010
0100
0001
0000
,
1000
0000
0001
0000
,
1000
1000
1000
0000
,
1001
0000
0000
0001
,
0000
0000
1000
0000
,
0001
0000
0000
0100
,
0000
0000
0001
0000
,
1001
0000
0000
0010
,
0000
0000
0100
0000
,
0001
0000
0000
0010
,
0000
0000
0001
0000
,
1001
0000
0000
0000
,
2000
0000
3000
0000
,
1001
0000
0000
0000
,
0002
0000
0003
0000
,
1001
0000
0000
0000
,
1001
0000
0000
0000
,
1001
0000
1001
0000
,
2002
0000
0000
3003
,
1001
0001
0000
0100
,
0000
0010
0010
0000
,
0100
0100
0000
0001
,
0000
1000
1000
0000
,
0010
0010
0000
0100
,
0000
0001
0001
0000
,
1001
0000
1000
0000
,
0001
0001
0001
1001
,
1000
0000
0001
0000
,
0100
0100
0000
1001
,
0000
1001
0000
0001
,
0001
0001
1000
1000
,
0000
0001
0000
0001
,
0000
1000
0001
0000
,
1000
0000
0001
0001
,
0001
0000
1001
0000
;

//--------------- dance-single - ----------------
#NOTES:
     dance-single:
     :
     Easy:
     9:
     0,0,0,0,0:
0000
0000
0000
0000
,
0000
0000
0000
0000
,
1001
0001
0100
0001
1000
0100
0010
0001
,
1000
0010
0100
0001
0010
0100
1000
0001
,
0100
0010
0100
0001
1000
0100
0010
0001
,
1000
0010
1000
0001
0010
0100
1000
0000
,
1001
0001
0202
0303
,
0110
0000
0000
0010
1000
0001
0100
0001
,
10M1
1000
0010
1000
,
0001
0010
0100
1000
,
0010
0100
0001
1000
,
0100
0010
0001
1000
,
0010
1000
0001
0010
,
0001
0100
0010
1000
,
0001
0010
0100
1000
,
0001
0100
0001
1000
,
1002
0000
1003
0100
0000
0010
0000
0001
,
0000
1000
0000
0000
0001
0100
0001
0000
,
0020
0000
0130
0010
0000
0100
0000
1000
,
0000
0001
0000
0000
0100
0001
0100
0000
,
0102
0000
1003
0010
0000
1000
0000
0001
,
0000
0100
0000
0000
0001
0010
0100
0000
,
2000
0000
3001
0100
0000
0001
0000
0010
,
0000
0100
0000
0000
1000
0001
1000
0000
,
1000
0001
0000
0100
0000
0010
0000
1000
,
0000
0001
0000
0000
1000
0010
1000
0000
,
0001
1000
0000
0010
0000
0100
0000
0001
,
0000
1000
0000
0000
0100
0010
0001
0000
,
2001
0000
3010
0100
0000
0001
0000
0100
,
0010
0100
0001
0000
1000
0001
1000
0000
,
1001
0001
0101
0100
,
0110
0000
1010
0000
1000
0001
1000
0001
,
1000
0010
0000
0100
0000
0001
0000
1000
,
0000
0001
0000
0000
1000
0100
1000
0000
,
0001
0100
0000
0001
0000
1000
0000
0010
,
0000
1000
0000
0000
0001
0010
0100
0000
,
0010
0001
0000
1000
0000
0001
0000
1000
,
0000
0001
0000
0000
0010
0001
0010
0000
,
0001
0100
0000
0010
0000
1000
0000
0001
,
0000
0000
0000
0000
1000
0001
1000
0000
,
1001
0000
0000
0001
0000
0010
0000
0001
,
0000
2000
0000
0000
0000
0000
0000
0000
0000
0000
0000
0000
3000
0000
0000
0000
,
1001
0000
0000
0001
0000
0010
0000
0100
,
0000
2000
0000
0000
0000
0000
0000
0000
0000
0000
0000
0000
3000
0000
0000
0000
,
1100
0000
0000
0100
0000
0010
0000
0000
,
0011
0000
0000
0001
0000
1000
0000
0000
,
0001
0010
0000
0100
1000
0100
0000
0010
,
0200
0000
0000
0300
,
1200
0000
1300
0001
0000
0100
0000
1000
,
0000
0100
0000
0000
0001
1000
0001
0000
,
2000
0000
3001
0010
0000
0100
0000
1000
,
0000
0100
0000
0000
0010
0001
0010
0000
,
0002
0000
0103
0010
0000
1000
0000
0010
,
0000
0100
0000
0000
0001
1000
0001
0000
,
1001
0010
1001
0100
,
1010
0101
1000
1002
,
1003
0001
0000
0010
0000
0100
0000
1000
,
0000
0000
0001
0100
0001
0000
1001
0000
,
0010
1001
0100
1010
,
0101
0000
1000
0000
2001
0000
3100
0010
,
0000
0001
0000
1000
0010
1000
0001
0000
,
1000
0100
1000
0000
0001
0000
0010
0000
,
0011
0100
1100
1000
,
0001
1000
2002
0000
,
0000
3003
0000
0000
;

//--------------- dance-single - XMOD XO+ JA- FS- ----------------
#NOTES:
     dance-single:
     XMOD XO+ JA- FS-:
     Medium:
     13:
     0,0,0,0,0:
0000
0000
0000
0000
,
0000
0000
0000
0000
,
1001
0000
0001
0100
0001
0000
1000
0000
0001
0010
0100
1000
0001
0000
0100
0000
,
0010
1000
0010
1000
0001
0000
0010
0000
0100
1000
0100
1000
0001
0000
0100
0000
,
0010
0100
0010
1000
0010
0000
0100
0000
0001
0010
0100
0010
0001
0000
1000
0000
,
0001
0010
0001
0100
0001
0000
1000
0000
0010
1000
0100
1000
0010
0000
0100
0000
,
0102
0000
0000
1003
0000
0001
0201
0000
0000
0310
0000
0000
,
2020
0000
0000
0000
3030
0000
1000
0000
0010
0000
0100
0001
0100
0001
1000
0010
,
1M00
0010
1000
0000
0001
0100
0001
0000
,
1000
0100
0010
0000
0001
0100
0010
0000
,
1000
0001
0010
0000
0100
1000
0001
0000
,
0100
0010
1000
0000
0001
0010
0100
0000
,
1000
0001
1000
0010
0100
0001
0100
0000
,
0001
0010
0100
1000
0010
0100
0001
0000
,
1000
0100
0010
0001
1000
0010
1000
0000
,
0001
0010
0001
0100
0001
0100
0010
0000
,
1020
0000
1000
1030
0100
0001
0100
1000
,
0100
0010
0100
0000
2000
0100
3001
0000
,
0002
0000
0010
0013
0001
0010
1000
0010
,
0001
0010
0100
0000
2000
0001
3100
0000
,
2100
0000
0001
3001
0100
0010
0001
0010
,
0100
0010
1000
0000
0002
0100
1003
0000
,
0002
0000
1000
1003
0010
0100
1000
0100
,
0010
0100
0001
0000
2000
0010
3001
0000
,
2001
0001
0000
0100
0000
0001
0000
3010
,
0100
0001
0100
0000
0002
0100
1003
0000
,
0002
1000
0000
0010
0000
1000
0000
0103
,
0010
1000
0001
0000
2000
0010
3001
0000
,
1001
0001
0100
0001
0100
0010
1000
0100
,
0001
0100
0010
0100
1000
0001
0010
0100
,
0001
0100
0010
0001
1000
0010
0100
0001
,
1001
0000
1000
0000
0001
0100
0001
0100
,
0001
0010
0100
1000
0000
0001
0100
0001
,
0000
1000
0010
0000
1000
0001
1000
0000
,
0001
0100
0010
1000
0000
0001
0010
0100
,
0000
1000
0010
0000
1000
0001
1000
0000
,
1001
0001
0100
0010
0000
1000
0100
0010
,
0000
0001
0010
0000
0100
1000
0001
0000
,
1000
0010
0100
0010
0000
1000
0010
1000
,
0000
0001
0100
0000
0001
0100
0001
0000
,
0101
0200
0300
0020
0030
2000
3000
0020
,
0030
2000
0000
0000
0000
0000
0000
0000
0000
0000
0000
0000
3000
0000
0000
0000
,
1001
0002
0003
0200
0300
0020
0030
2000
,
3000
0200
0000
0000
0000
0000
0000
0000
0000
0000
0000
0000
0300
0000
0000
0000
,
0110
0010
0000
0001
0000
1000
0001
0000
,
1010
0010
1000
0001
0100
0010
1000
0100
,
0001
0100
0010
0100
1000
0010
0100
0001
,
1000
0010
1000
0010
0100
0001
0100
0001
,
1001
0000
1000
0000
0010
0M00
0010
0000
0001
0000
0100
0000
1000
0000
0100
0000
,
0001
0100
0010
0000
2000
0100
3001
0000
,
1000
0000
0001
0000
0010
0M00
0010
0000
1000
0000
0010
0000
0001
0000
0010
0000
,
0100
0010
1000
0000
0002
0010
1003
0000
,
1010
0000
0010
0000
0100
000M
0100
0000
1000
0000
0010
0000
0001
0000
0010
0000
,
0100
0001
1000
0000
0002
0100
1003
0000
,
0101
0100
0000
0010
1010
1000
0000
0001
,
1000
0100
1000
0100
10MM
0000
0001
0100
,
0010
0M00
0010
0000
0001
0000
0010
0000
1000
0000
0010
0000
0100
0000
1000
0000
,
0001
0000
0200
0010
0301
0000
1001
1000
,
0010
0100
0001
0010
0100
1000
1100
0000
,
1001
0000
0000
0000
MM01
0000
0000
0000
1001
0000
0001
0000
0100
00M0
0100
0000
,
1000
0010
0001
0010
1000
0100
0010
0001
,
1000
0010
1000
0000
1100
0100
0001
0100
,
1000
0010
0001
0010
1000
0100
0010
0001
,
1000
0010
1000
0001
0200
0000
0000
0000
,
0000
0000
0300
0000
;

//--------------- dance-single - XMOD FS- DS+ XO SJ ----------------
#NOTES:
     dance-single:
     XMOD FS- DS+ XO SJ:
     Hard:
     17:
     0,0,0,0,0:
0000
0000
0000
0000
,
0000
0000
0000
0000
,
1000
0010
1000
0001
1000
0100
0010
0001
1000
0010
1000
0001
0100
0010
0100
0001
,
1000
0100
0010
0001
1000
0010
0100
0001
1000
0100
1000
0001
0100
0010
1000
0001
,
1000
0100
0010
0001
0010
0100
1000
0001
1000
0010
0100
0001
0100
0010
1000
0001
,
1000
0100
0010
0001
1000
0010
1000
0001
1000
0100
0010
0001
1000
0010
0100
0001
,
2001
0000
0000
0000
0000
0000
0000
0000
0000
0000
0000
0000
3020
0000
0000
0030
0000
0000
0000
0000
1000
0000
0000
0000
1020
0000
0000
0000
0000
0000
0000
0000
0000
0030
0000
0000
0000
0000
0000
2000
0000
0000
3000
0000
0000
0000
0000
0000
,
1001
0000
0001
0000
0000
0000
1000
0000
1000
0000
0001
0001
1000
1000
0001
0100
,
00M1
0100
1000
0100
0010
1000
0001
0010
,
0001
0100
1000
0100
0010
0100
0001
1000
,
0100
0010
1000
0010
0001
0100
0010
1000
,
0001
0100
1000
0100
0010
1000
0001
1000
,
0001
0000
1000
0010
1000
0000
0001
0100
0001
0000
1000
0000
0100
0000
0010
0001
,
1000
0000
0010
0100
0001
0000
1000
0100
0010
0000
0001
0000
1000
0000
0001
0100
,
0010
0000
1000
0010
0100
0000
0001
0010
0002
0000
1000
0000
1003
0000
0010
0000
,
1000
0000
0001
0100
0001
0000
1000
0100
0020
0000
0000
0000
0031
0000
0000
0000
,
2001
0000
0000
0000
0010
0000
3001
0000
1000
0000
0100
00M0
0100
0000
0001
0000
,
0100
0000
0010
0000
1000
0000
0001
1000
0002
0000
0100
0000
1003
0000
0000
0000
,
2000
0000
0000
0000
0100
0000
3001
0000
1000
0000
0100
00M0
0100
0000
0001
0000
,
1000
0010
1000
0000
0002
0010
1003
0000
,
2001
0000
0000
0000
0001
0000
3010
0000
1000
0000
0100
00M0
0100
0000
0001
0000
,
0010
0000
0100
0000
1000
0000
0001
0010
0002
0000
0100
0000
1003
0000
0000
0000
,
0002
0000
0000
0000
0010
0000
1003
0000
0001
0000
0100
00M0
0100
0000
1000
0000
,
0010
0000
0100
0000
0001
0000
0000
0000
1000
0000
0010
0000
1000
0001
1000
0001
,
2000
0010
3001
0100
1000
0100
0010
0100
,
0001
0000
0010
0000
0100
0000
1000
0000
0002
0000
1000
0000
0013
0000
0001
0010
,
0200
1000
0310
0100
1000
0100
0010
0100
,
0001
1000
0010
0000
2000
0100
3001
1000
,
1010
0010
1000
0100
0001
0100
0010
0100
,
1100
0000
1000
0000
0001
0000
0000
0000
2000
0000
0010
0000
3001
0000
1000
0010
,
1000
0100
0010
0001
1000
0010
0100
0001
1000
0010
1000
0010
0100
0001
0010
0001
,
1000
0100
0010
0001
1000
0010
0100
0001
1000
0100
0010
0100
1000
0001
0100
0001
,
2000
0100
3001
0010
0000
1000
0010
0001
,
0000
0000
0100
0000
0010
0000
1000
0001
1000
0000
0100
0000
0010
0000
0001
1000
,
0002
0100
1003
0010
0000
1000
0001
1000
,
0000
0001
0100
0000
0010
1000
0001
0000
,
1002
1000
0103
0010
0000
1000
0100
0010
,
0000
0001
0100
0000
0001
1000
0001
0000
,
0002
0100
1003
0010
0000
0100
0001
0100
,
0000
0010
1000
0000
0100
0010
0001
0000
,
0101
0200
0300
0002
0003
2000
3000
0020
,
0030
0200
0000
0000
0000
0000
0000
0000
0000
0000
0000
0000
0300
0000
0000
0000
,
1001
0002
0003
0200
0300
0020
0030
2000
,
3000
0002
0000
0000
0000
0000
0000
0000
0000
0000
0000
0000
0003
0000
0000
0000
,
1001
2000
3000
0002
0003
0200
0300
0000
,
0001
0100
0001
0100
0010
1000
0100
1000
0001
0010
0100
1000
0001
0100
0010
1000
,
0001
0010
0001
0010
0100
1000
0001
0100
0010
1000
0010
1000
0001
0010
0100
1000
,
0001
0010
0001
1000
0010
1000
0001
0100
0001
1000
0100
0010
0001
0010
0100
1000
,
0002
0100
1003
0100
0001
0100
0010
0100
,
1000
0000
0100
0000
0010
0000
0001
1000
0002
0000
0100
0000
1003
0000
0001
0100
,
0002
0100
1003
0010
0001
0010
1000
0010
,
0100
0010
0001
1000
0002
0100
1003
0010
,
1020
1000
0130
0001
0100
1000
0100
0001
,
0100
0000
1000
0000
0100
0000
0001
1000
0020
0000
0100
0000
1030
0000
0001
0000
,
0101
0100
0010
1000
1001
0001
0010
0100
,
1100
1000
1001
0001
M100
0000
2010
0010
,
3001
0000
0100
0000
0001
1000
0001
0000
0100
0000
0010
0000
1000
0001
1000
0000
,
0001
0010
0002
0100
1003
0001
1001
1000
,
0100
0010
0011
0001
0100
0010
1010
1000
,
1001
0001
M101
0000
2001
0001
3100
1000
,
0100
0001
0100
1000
1010
0010
0100
0001
,
2000
0000
0100
0000
3001
0000
0100
0000
0001
1000
0010
0100
0001
0010
0001
1000
,
0010
0100
0001
0010
0100
0010
0001
1000
0010
0100
0001
1000
0100
0010
0001
1000
,
0010
0100
0001
0010
0001
1000
0010
1000
0200
0000
0000
0000
0000
0000
0000
0000
,
0000
0000
0300
0000
;

//--------------- dance-double - ----------------
#NOTES:
     dance-double:
     :
     Hard:
     16:
     0,0,0,0,0:
00000000
00000000
00000000
00000000
,
00000000
00000000
00000000
00000000
,
00001000
00010000
00001000
00100000
00010000
10000000
01000000
00100000
00010000
00100000
00001000
00010000
00000100
00001000
00000010
00001000
,
00000001
00000010
00000100
00001000
00000100
00010000
00001000
00010000
00001000
01000000
00100000
01000000
00010000
10000000
01000000
00100000
,
00010000
00100000
00001000
00010000
00001000
00100000
00010000
00100000
00001000
00010000
00000100
00001000
00000100
00010000
00001000
00010000
,
00000100
00001000
00000100
00000010
00000001
00000010
00000100
00001000
00000010
00010000
00001000
00010000
00000010
00010000
00001000
00010000
,
00010200
00000300
01000000
00000000
01020000
00000000
10030000
00000000
,
10010000
00000000
00000000
00000000
00000000
00000000
00000000
00000000
00010000
00000000
00000000
00000000
00000000
00000000
00000000
00000000
00000000
00000000
10000000
00000000
00000000
00000000
00000000
00000000
00010000
00000000
00000000
00000000
00000000
00000000
00100000
00000000
00000000
00001000
00000000
00000000
00100000
00000000
00000000
00001000
00000000
00000000
00010000
00000000
00000000
00001000
00000000
00000000
,
0M010000
00000010
00001000
00000100
00010000
00000010
00001000
00000100
,
00010000
00001000
01000000
00010000
00100000
00001000
01000000
00010000
,
10000000
00100000
10000000
00010000
10000000
01000000
00100000
00010000
,
00100000
00001000
00010000
00000100
00010000
00000100
00001000
00000010
,
00001000
00000000
00000000
00000001
00001000
00000000
00000010
00000000
00001000
00000000
00000100
00000000
00000010
00000000
00000000
00000100
,
00001000
00000000
00000100
00000000
00010000
00000000
00000000
00001000
01000000
00000000
00010000
00000000
00100000
00000000
01000000
00000000
,
20000000
00010000
01000000
30100000
,
01000000
00000000
00000000
00001000
00010000
00000000
00001000
00000000
00010000
00000000
00000100
00000000
00010000
00000000
00001000
00000000
,
00021000
00000000
00030100
00001000
00010000
00001000
00000100
00001000
,
00010000
00001000
00000100
00000000
00002000
00000100
00003001
00000000
,
00002001
00000000
00003001
00000100
00001000
00000100
00000010
00000100
,
00000001
00001000
00000100
00000000
00020000
00000100
00031000
00000000
,
00011000
00000000
00001000
01000000
00100000
00010000
00100000
01000000
,
00010000
01000000
00010000
00000000
20000000
01000000
30010000
00000000
,
10010000
00000000
10000000
01000000
00010000
00001000
00000010
00000001
,
00001000
00000000
00000000
00000010
00001000
00000000
00000000
00000000
00000002
00000000
00000100
00000000
00001003
00000001
00001000
00000001
,
00001000
00000001
00000100
00001000
00000100
00000010
00000100
00000001
,
00001000
00000100
00010000
00000000
00000200
00010000
00001300
00000000
,
00000100
00001000
00010000
00001000
00000100
00001000
00010000
00001000
,
00000100
00010000
00001000
00000000
02000000
00001000
03010000
00000000
,
10010000
10000000
00010000
01000000
10000000
01000000
00100000
01000000
,
01010000
00010000
00100000
00001000
00010000
00001000
00010000
00000010
,
00001000
00000100
00000010
00000001
00001000
00000010
00000100
00000001
00001000
00000100
00000010
00000001
00000010
00000100
00001000
00000001
,
00001000
00000010
00001000
00000001
00001000
00001000
00000010
00001000
,
00001010
00000010
00000100
00001000
00000000
00000100
00000010
00001000
,
00000000
00000001
00001000
00000000
00000010
00010000
00001000
00000000
,
10000000
01000000
00100000
10000000
00000000
00100000
00010000
10000000
,
00000000
00001000
00010000
00000000
00000010
00001000
00000001
00000000
,
00001001
00001000
00000001
00000100
00000000
00001000
00000100
00000010
,
00000000
00001000
00000100
00000000
00010000
00001000
00010000
00000000
,
00001000
01000000
00100000
00010000
00000000
00100000
01000000
00010000
,
00000000
10000000
00010000
00000000
01000000
00100000
10000000
00000000
,
10010000
00010000
00000000
10000000
00000000
00001000
00000000
00010000
,
00000000
00000002
00000000
00000000
00000000
00000000
00000000
00000000
00000000
00000000
00000000
00000000
00000003
00000000
00000000
00000000
,
00001001
00000001
00000000
00010000
00000000
00001000
00000000
10000000
,
00000000
02000000
00000000
00000000
00000000
00000000
00000000
00000000
00000000
00000000
00000000
00000000
03000000
00000000
00000000
00000000
,
10010000
00010000
00000000
01000000
00000000
00100000
10000000
00010000
,
00110000
00100000
00001000
00010000
00000010
00000100
00000010
00001000
,
00001010
00000010
00000100
00001000
00000100
00000010
00001000
00000001
,
00001000
00000100
00000010
00000001
00001000
00000010
00000100
00000001
00001000
00000100
00000010
00000001
00001000
00000010
00000100
00000001
,
00001000
00000010
00000001
00000010
00001000
00010000
01000000
10000000
,
01000000
00010000
01000000
00000000
00002000
01000000
00013000
00000000
,
00011000
00010000
00001000
00000100
00001000
00010000
00000100
00001000
,
00010000
00001000
00000100
00010000
00000020
00001000
00000130
00000000
,
00000101
00000001
00000100
00001000
00010000
00001000
01000000
00100000
,
00010000
00100000
01000000
00000000
00002000
00010000
01003000
00000000
,
01010000
00010000
01000000
00100000
10100000
10000000
01000000
00100000
,
00110000
00000000
00011000
00000000
0M001000
00000000
00010000
00001000
,
00000100
00001000
00010000
00100000
01000000
00100000
10000000
01000000
,
00100000
00000000
00002000
10000000
00103000
00000000
00101000
00001000
,
00010000
00001000
00011000
00010000
00000010
00001000
00001001
00000001
,
00000101
00000000
00M00010
00000000
00001100
00000100
00001000
00010000
,
00001000
00000100
00010000
00001000
00000100
00001000
00010000
00001000
,
01000000
00000000
00100000
00000000
10000000
00000000
00010000
00000000
10000000
01000000
00100000
00010000
10000000
00100000
01000000
00010000
,
01000000
00100000
01000000
00010000
00100000
00001000
00010000
00001000
00100000
00000000
00001000
00000000
00010000
00000000
00000010
00000000
,
00001000
00000001
00001000
00000001
00000202
00000000
00000000
00000000
,
00000000
00000000
00000303
00000000
;
