#VERSION:0.83;
#TITLE:Secret Agent;
#SUBTITLE:007 Radio Mix;
#ARTIST:Captain Jack;
#TITLETRANSLIT:;
#SUBTITLETRANSLIT:;
#ARTISTTRANSLIT:;
#GENRE:;
#ORIGIN:;
#CREDIT:;
#BANNER:banner.png;
#BACKGROUND:Secret Agent (007 Radio Mix)-bg.png;
#PREVIEWVID:;
#JACKET:jacket.png;
#CDIMAGE:;
#DISCIMAGE:;
#LYRICSPATH:;
#CDTITLE:;
#MUSIC:Secret Agent (007 Radio Mix).ogg;
#OFFSET:-0.376000;
#SAMPLESTART:86.575256;
#SAMPLELENGTH:12.200005;
#SELECTABLE:YES;
#BPMS:0.000=150.000;
#STOPS:;
#DELAYS:;
#WARPS:;
#TIMESIGNATURES:0.000=4=4;
#TICKCOUNTS:0.000=4;
#COMBOS:0.000=1;
#SPEEDS:0.000=1.000=0.000=0;
#SCROLLS:0.000=1.000;
#FAKES:;
#LABELS:0.000=Song Start;
#BGCHANGES:;
#KEYSOUNDS:;
#ATTACKS:
;

//---------------dance-single - ----------------
#NOTEDATA:;
#CHARTNAME:;
#STEPSTYPE:dance-single;
#DESCRIPTION:;
#CHARTSTYLE:;
#DIFFICULTY:Beginner;
#METER:3;
#RADARVALUES:0.120481,0.151878,0.000000,0.000000,0.000000,118.000000,118.000000,0.000000,0.000000,0.000000,0.000000,0.000000,0.000000,0.000000,0.120481,0.151878,0.000000,0.000000,0.000000,118.000000,118.000000,0.000000,0.000000,0.000000,0.000000,0.000000,0.000000,0.000000;
#CREDIT:Venomothim;
#NOTES:
0000
0000
0000
0000
,
0000
0000
0000
0000
,
0000
0000
0000
0000
,
0000
0000
0000
0000
,
0000
0000
0000
0000
,
0000
0000
0000
0000
,
0000
0000
0000
0000
,
0000
0000
0000
0000
,
0000
0000
0000
0000
,
0000
0000
0000
0000
,
1000
0000
0000
0000
,
0001
0000
0000
0000
,
0100
0000
0000
0000
,
0010
0000
0000
0000
,
1000
0000
1000
0000
,
0001
0000
0000
0000
,
0001
0000
0001
0000
,
1000
0000
0000
0000
,
0010
0000
1000
0000
,
0100
0000
0000
0000
,
0010
0000
0001
0000
,
0100
0000
0000
0000
,
0001
0000
0000
0000
,
1000
0000
0000
0000
,
0100
0000
0100
0000
,
0010
0000
0010
0000
,
0100
0000
0000
0000
,
1000
0000
0000
0000
,
0001
0000
0001
0000
,
0100
0000
0000
0000
,
0010
0000
0010
0000
,
0010
0000
0000
0000
,
1000
0000
1000
0000
,
1000
0000
0000
0000
,
0001
0000
0001
0000
,
0001
0000
0000
0000
,
0100
0000
0100
0000
,
0100
0000
0000
0000
,
0001
0000
0001
0000
,
1000
0000
1000
0000
,
0001
0000
1000
0000
,
0001
0000
0000
0000
,
0100
0000
0100
0000
,
0010
0000
0010
0000
,
0100
0000
0010
0000
,
0100
0000
0000
0000
,
0001
0000
0001
0000
,
1000
0000
1000
0000
,
0100
0000
0010
0000
,
0001
0000
0000
0000
,
1000
0000
1000
0000
,
0001
0000
0001
0000
,
0100
0000
0010
0000
,
1000
0000
0000
0000
,
0001
0000
0001
0000
,
1000
0000
1000
0000
,
0010
0000
0100
0000
,
0010
0000
0100
0000
,
0001
0000
0001
0000
,
1000
0000
1000
0000
,
0100
0000
0100
0000
,
0100
0000
0000
0000
,
1000
0000
0000
0000
,
0010
0000
0000
0000
,
0100
0000
0000
0000
,
0001
0000
0000
0000
,
0010
0000
0000
0000
,
0100
0000
0000
0000
,
1000
0000
1000
0000
,
0001
0000
0000
0000
,
1000
0000
1000
0000
,
0010
0000
0010
0000
,
0100
0000
0100
0000
,
0001
0000
0001
0000
,
1000
0000
1000
0000
,
0100
0000
0100
0000
,
0010
0000
0010
0000
,
0001
0000
0000
0000
,
1000
0000
1000
0000
,
0010
0000
0000
0000
,
0100
0000
0100
0000
,
0001
0000
0000
0000
,
0001
0000
0001
0000
,
0010
0000
0000
0000
,
0100
0000
0100
0000
,
1000
0000
0000
0000
;

//---------------dance-single - ----------------
#NOTEDATA:;
#CHARTNAME:;
#STEPSTYPE:dance-single;
#DESCRIPTION:;
#CHARTSTYLE:;
#DIFFICULTY:Easy;
#METER:6;
#RADARVALUES:0.260362,0.275792,0.021442,0.271593,0.000000,255.000000,252.000000,3.000000,38.000000,0.000000,0.000000,0.000000,0.000000,0.000000,0.260362,0.275792,0.021442,0.271593,0.000000,255.000000,252.000000,3.000000,38.000000,0.000000,0.000000,0.000000,0.000000,0.000000;
#CREDIT:Venomothim;
#NOTES:
0000
0000
0000
0000
,
0000
0000
0000
0000
,
0000
0000
0000
0000
,
0000
0000
0000
0000
,
0000
0000
0000
0000
,
0000
0000
0000
0000
,
0000
0000
0000
0000
,
0000
0000
0000
0000
,
0000
0000
0000
0000
,
0000
0000
0000
0000
,
0000
1000
0000
1000
,
0000
0001
0000
0001
,
0000
0100
0000
0100
,
0000
0010
0000
0010
,
1000
0000
1000
0000
,
0001
0010
0100
0000
,
1000
0001
0100
0010
,
0100
0001
1000
0000
,
0100
0000
0100
0000
,
0010
0001
0100
0000
,
0010
1000
0100
1000
,
0001
0000
0001
0000
,
1000
0100
0010
0001
,
0100
0100
0100
0000
,
0001
0010
0100
1000
,
0010
0010
0010
0000
,
1000
0001
0100
0010
,
0100
0100
0100
0000
,
0002
0010
2003
0100
,
3001
0000
1001
0000
,
0001
1000
0002
0100
,
2003
0100
3001
0000
,
0001
1000
0002
0010
,
2003
0010
3001
0000
,
1000
0001
2000
0100
,
3002
0100
1003
0000
,
1000
0001
2000
0010
,
3002
0010
1003
0000
,
1000
0001
2000
0100
,
3002
0100
2003
0100
,
3001
1000
0002
0010
,
2003
0001
3001
0000
,
1000
0001
2000
0010
,
3002
0010
2003
0010
,
3001
1000
0002
0100
,
2003
0001
3001
0000
,
0001
1000
0002
0100
,
2003
0100
3002
0100
,
1003
0001
2000
0010
,
3002
1000
1003
0000
,
0001
1000
0002
0010
,
2003
0010
3002
0010
,
1003
0001
2000
0010
,
3002
1000
1003
0000
,
1000
0001
0100
0000
,
0001
1000
0100
0000
,
0010
0001
0100
0001
,
0010
0100
1000
0000
,
0010
1000
0100
0000
,
0010
0001
0100
0000
,
0001
0010
0100
1000
,
0001
0000
0001
0000
,
1000
0100
0000
0100
,
0010
0001
0000
0001
,
0100
0010
0000
0010
,
0100
0001
0000
0001
,
1000
0100
1000
0100
,
0010
0001
0010
0001
,
0100
0100
0010
0010
,
0100
0000
1001
0000
,
0001
1000
0001
1000
,
0100
0100
0100
0000
,
1000
0001
1000
0001
,
0100
0100
0100
0000
,
0001
0010
0100
1000
,
0010
0100
0001
0000
,
1000
0100
0010
0001
,
1000
0000
1001
0000
,
0001
0010
0002
0100
,
2003
0100
3001
0000
,
1000
0001
2000
0010
,
3002
0010
1003
0001
,
1000
0100
2000
0010
,
3002
0100
1003
0000
,
0001
0100
0002
0010
,
2003
0000
0000
3001
;

//---------------dance-single - ----------------
#NOTEDATA:;
#CHARTNAME:;
#STEPSTYPE:dance-single;
#DESCRIPTION:;
#CHARTSTYLE:;
#DIFFICULTY:Medium;
#METER:10;
#RADARVALUES:0.372675,0.429010,0.035736,0.300182,0.042883,365.000000,360.000000,5.000000,42.000000,0.000000,0.000000,0.000000,0.000000,0.000000,0.372675,0.429010,0.035736,0.300182,0.042883,365.000000,360.000000,5.000000,42.000000,0.000000,0.000000,0.000000,0.000000,0.000000;
#CREDIT:Venomothim;
#NOTES:
0000
0000
0000
0000
,
0000
0000
0000
0000
,
0000
0000
0000
0000
,
0000
0000
0000
0000
,
0000
0000
0000
0000
,
0000
0000
0000
0000
,
0000
0000
0000
0000
,
0000
0000
0000
0000
,
0000
0000
0000
0000
,
0000
0000
0000
0000
,
0000
1000
0000
1000
0000
0001
0000
0001
,
0000
0100
0000
0100
0000
0010
0000
0010
,
0000
0100
0000
0100
0000
0001
0000
0001
,
0000
1000
0000
1000
0000
0100
0000
0100
,
1000
0001
0100
0010
,
0100
0001
1000
0100
,
0010
0001
0000
1000
0000
1000
0000
0020
,
0000
0100
0000
1030
0000
0001
0010
0100
,
1000
1000
0001
0001
,
0100
0000
0100
0000
0010
0000
0000
0010
,
0200
0302
0023
0230
,
2300
0000
3000
0000
0000
0001
1000
0001
,
1000
0100
0000
0100
0000
1000
0000
1000
,
0000
0010
0000
0010
0000
0100
0001
0100
,
0001
0010
0000
0010
0000
0001
0000
0001
,
0000
1000
0000
1000
0000
0010
0100
0010
,
0100
0001
0000
0001
0000
1000
0000
1000
,
0000
0100
0000
0100
0000
1000
0010
0100
,
0002
0010
2003
0100
,
3002
1003
1000
0001
,
1000
0000
0000
0000
0001
0000
0000
0000
2000
0000
0000
0100
0000
0000
3001
0000
,
2000
0000
0000
3001
0000
0000
0000
0000
0100
0000
0000
0000
0100
0000
0000
0000
,
0001
0000
0000
0000
1000
0000
0000
0000
0002
0000
0000
0100
0000
0000
1003
0000
,
0010
0100
0010
1001
,
1000
0000
0000
0000
0001
0000
0000
0000
2000
0000
0000
0010
0000
0000
3001
0000
,
2000
0000
0000
3001
0000
0000
0000
0000
0010
0000
0000
0000
0010
0000
0000
0000
,
0001
0000
0000
0000
1000
0000
0000
0000
0002
0000
0000
0010
0000
0000
1003
0000
,
0100
0010
0100
1001
,
1000
0000
0100
0000
0010
0001
0100
0000
,
0010
1000
0100
0000
0010
0001
0100
0000
,
0010
0000
0100
0000
0001
0010
0100
0000
,
2000
0001
3001
0000
,
1000
0000
0010
0000
0100
0001
0010
0000
,
0100
1000
0010
0000
0100
0001
0010
0000
,
0100
0000
0010
0000
0001
0100
0010
0000
,
2000
0001
3001
0000
,
1000
0000
0100
0000
2000
0100
3001
0000
,
2000
0100
3001
0000
2000
0100
3001
0000
,
0001
0000
0100
0000
0002
0100
1003
0000
,
0002
1000
1003
0000
,
1000
0000
0010
0000
2000
0010
3001
0000
,
2000
0010
3001
0000
2000
0010
3001
0000
,
0001
0000
0010
0000
0002
0010
1003
0000
,
0002
1000
1003
0000
,
0001
0010
0001
0000
1000
0100
1000
0000
,
0001
0100
0001
0000
1000
0010
1000
0000
,
0100
0010
0000
0001
0000
0001
0000
1000
,
0000
1000
0000
0010
0000
1000
0010
0100
,
0001
0010
0100
0000
1000
0010
0100
0000
,
0001
1000
0001
1000
0100
0000
0010
0001
,
2000
0010
3002
0100
,
2003
0000
3001
0000
0000
0001
0010
0100
,
1000
0001
0000
0001
0000
1000
0000
1000
,
0000
0010
0000
0010
0000
0100
0000
0100
,
0000
0010
0000
0010
0000
1000
0000
1000
,
0000
0001
0000
0001
0000
1000
0100
1000
,
0100
0010
0000
0010
0000
0001
0000
0001
,
0000
1000
0000
1000
0000
0010
0100
0010
,
2000
0100
3002
0100
,
1003
0000
0001
0000
1000
0100
0010
0001
,
1000
0000
1000
0000
0001
0100
0010
1000
,
0001
0000
0001
0000
1000
0000
0100
0010
,
0100
0000
1000
0000
0001
0000
0100
0010
,
0100
0000
0001
0000
1000
0000
0001
0010
,
0001
0000
1000
0000
1000
0010
0100
0010
,
1000
0000
0100
0000
0010
0000
0001
1000
,
0002
0100
2003
0010
,
3002
1003
0110
1001
,
1000
0000
0001
0000
1000
0000
0000
0000
2000
0000
0000
0100
0000
0000
3001
0000
,
2000
0000
0000
3001
0000
0000
0000
0000
1000
0000
0000
0000
1000
0000
0000
0000
,
0001
0000
1000
0000
0001
0000
0000
0000
0002
0000
0000
0100
0000
0000
1003
0000
,
0010
0100
0010
1001
,
1000
0000
0001
0000
1000
0000
0000
0000
2000
0000
0000
0010
0000
0000
3001
0000
,
2000
0000
0000
3001
0000
0000
0000
0000
0100
0000
0000
0000
0100
0000
0000
0000
,
0001
0000
1000
0000
0001
0000
0000
0000
0002
0000
0000
0010
0000
0000
1003
0000
,
0002
0000
0000
1003
;

//---------------dance-single - ----------------
#NOTEDATA:;
#CHARTNAME:;
#STEPSTYPE:dance-single;
#DESCRIPTION:;
#CHARTSTYLE:;
#DIFFICULTY:Hard;
#METER:13;
#RADARVALUES:0.540124,0.582229,0.100061,0.250152,0.182254,529.000000,515.000000,14.000000,35.000000,0.000000,0.000000,0.000000,0.000000,0.000000,0.540124,0.582229,0.100061,0.250152,0.182254,529.000000,515.000000,14.000000,35.000000,0.000000,0.000000,0.000000,0.000000,0.000000;
#CREDIT:Venomothim;
#NOTES:
// measure 0
0000
0000
0000
0000
,  // measure 1
0000
0000
0000
0000
,  // measure 2
0000
0000
0000
0000
,  // measure 3
0000
0000
0000
0000
,  // measure 4
0000
0000
0000
0000
,  // measure 5
0000
0000
0000
0000
,  // measure 6
0000
0000
0000
0000
,  // measure 7
0000
0000
0000
0000
,  // measure 8
0000
0000
0000
0000
,  // measure 9
0000
0000
0000
0000
,  // measure 10
1000
0100
0000
0100
0000
0010
0000
0010
,  // measure 11
0000
0001
0000
0001
0000
1000
0000
1000
,  // measure 12
0000
0010
0000
0010
0000
0100
0000
0100
,  // measure 13
0000
0001
0000
0001
0000
1000
0000
1000
,  // measure 14
0001
0010
0001
0010
0100
1000
0100
1000
,  // measure 15
0001
1000
0001
1000
0010
0100
0010
0100
,  // measure 16
0001
0010
0001
0010
0100
1000
0100
1000
,  // measure 17
0001
1000
0001
1000
0010
0100
0010
0010
,  // measure 18
0010
1000
0010
1000
0100
0010
0100
0010
,  // measure 19
0001
1000
0001
1000
0010
0100
0010
0100
,  // measure 20
0002
0010
1000
0100
,  // measure 21
2003
0000
3000
0000
0000
0100
0010
0001
,  // measure 22
1000
0010
0000
0010
0000
1000
0100
0010
,  // measure 23
0001
0100
0000
0100
0000
0001
0010
0100
,  // measure 24
1000
0001
0000
0001
0000
1000
0010
0100
,  // measure 25
0001
1000
0000
1000
0000
0001
0010
0100
,  // measure 26
1000
0010
1000
0010
0100
0001
0100
0001
,  // measure 27
0010
0100
0010
0100
1000
0001
1000
0001
,  // measure 28
1000
0000
0000
1000
0010
0000
0000
0010
0100
0000
0000
0100
0001
0000
0000
0001
,  // measure 29
1000
0001
1010
0101
,  // measure 30
0001
0100
0001
0100
0001
0000
1000
0000
0001
0000
2000
0010
0000
0000
3001
0000
,  // measure 31
1000
0000
0001
0010
0000
0000
0100
0000
1000
0000
0001
0000
1000
0000
0001
0000
,  // measure 32
1000
0010
1000
0010
1000
0000
0001
0000
1000
0000
0002
0100
0000
0000
1003
0000
,  // measure 33
0100
0010
0011
1100
,  // measure 34
0001
0100
0001
0100
0001
0000
1000
0000
0001
0000
2000
0100
0000
0000
3001
0000
,  // measure 35
1000
0000
0001
0100
0000
0000
0010
0000
1000
0000
0001
0000
1000
0000
0001
0000
,  // measure 36
1000
0010
1000
0010
1000
0000
0001
0000
1000
0000
0002
0100
0000
0000
1003
0000
,  // measure 37
0020
0100
0100
0130
,  // measure 38
0001
0010
0100
1000
0002
0100
1003
0000
,  // measure 39
0002
0100
1003
0000
0002
0100
1003
0000
,  // measure 40
0001
0010
1000
1000
0001
0100
1000
0000
,  // measure 41
0011
0000
0000
0001
0100
0000
0000
0100
0010
0000
0000
0010
1000
0000
0000
0000
,  // measure 42
1000
0010
0100
0001
2000
0100
3001
0000
,  // measure 43
2000
0100
3001
0000
2000
0100
3001
0000
,  // measure 44
1000
0010
0001
0001
1000
0100
0001
0000
,  // measure 45
1010
0000
0000
1000
0100
0000
0000
0100
0010
0000
0000
0010
0001
0000
0000
0000
,  // measure 46
0001
0100
0010
1000
0002
0010
0103
0000
,  // measure 47
0002
0010
0103
0000
0002
0010
0103
0000
,  // measure 48
0001
0010
1000
1000
0001
0100
1000
0000
,  // measure 49
0011
0000
0000
0001
0100
0000
0000
0100
0010
0000
0000
0010
1000
0000
0000
0000
,  // measure 50
1000
0100
0010
0001
2000
0100
3010
0000
,  // measure 51
2000
0100
3010
0000
2000
0100
3010
0000
,  // measure 52
1000
0010
0001
0001
1000
0100
0001
0000
,  // measure 53
0110
0000
0110
0000
1001
0000
0000
0001
,  // measure 54
1000
0100
1000
0100
0010
0001
0010
0001
,  // measure 55
0100
0010
0100
0010
1000
0010
1000
0010
,  // measure 56
0100
0001
0100
0001
0010
0100
0010
0200
,  // measure 57
0000
0001
0000
1300
0000
0001
1000
0010
,  // measure 58
1000
0010
0001
0000
1000
0100
0001
0000
,  // measure 59
0010
0100
0010
0100
1000
0000
0001
0100
,  // measure 60
0020
0001
1000
0100
,  // measure 61
1030
0000
0001
0000
0000
1000
0100
0010
,  // measure 62
0002
1000
0000
1003
0000
0001
0010
0100
,  // measure 63
2000
0001
0000
3001
0000
1000
0010
0100
,  // measure 64
0002
0010
0000
1003
0000
0001
0100
0010
,  // measure 65
2000
0100
0000
3001
0000
0001
0010
0100
,  // measure 66
1000
0100
1000
0100
0001
0100
0001
0100
,  // measure 67
1000
0010
1000
0010
0001
0010
0001
0010
,  // measure 68
1000
0000
0000
1000
0100
0000
0000
0100
0001
0000
0000
0001
0100
0000
0000
0100
,  // measure 69
1000
0000
1001
0000
0001
1000
0001
1000
,  // measure 70
0001
0010
0001
0010
0100
1000
0100
1000
,  // measure 71
0002
0000
0000
0100
0000
0000
1003
0000
0000
0000
0001
0000
0010
0000
0100
0000
,  // measure 72
1000
0010
1000
0010
0100
0001
0100
0001
,  // measure 73
2000
0000
0001
3001
0000
1000
0001
0010
,  // measure 74
0100
1000
0100
1000
0010
0100
0010
0100
,  // measure 75
0002
0000
0000
0010
0000
0000
1003
0000
0000
0000
0001
0000
0010
0000
0100
0000
,  // measure 76
1000
0000
0000
1000
0010
0000
0000
0010
0001
0000
0000
0001
0010
0000
0000
0010
,  // measure 77
1000
0001
0110
1001
,  // measure 78
1000
0010
1000
0010
1000
0000
0001
0000
1000
0000
0002
0100
0000
0000
1003
0000
,  // measure 79
0001
0000
2000
0100
0000
0000
3001
0000
0100
0000
0010
0000
0100
0000
0010
0000
,  // measure 80
1000
0100
1000
0100
1000
0000
0001
0000
1000
0000
0002
0010
0000
0000
1003
0000
,  // measure 81
0001
0100
0010
1001
,  // measure 82
0001
0010
0001
0010
0001
0000
1000
0000
0001
0000
2000
0100
0000
0000
3001
0000
,  // measure 83
1000
0000
0002
0100
0000
0000
1003
0000
0010
0000
0100
0000
0010
0000
0100
0000
,  // measure 84
0001
0100
0001
0100
0001
0000
1000
0000
0001
0000
2000
0010
0000
0000
3001
0000
,  // measure 85
0002
0000
0000
1003
;
