#VERSION:0.83;
#TITLE:SUPER REACTOR;
#SUBTITLE:;
#ARTIST:Kobaryo feat. HiTNEX-X;
#TITLETRANSLIT:;
#SUBTITLETRANSLIT:;
#ARTISTTRANSLIT:;
#GENRE:;
#CREDIT:chronon;
#MUSIC:SUPER REACTOR.ogg;
#BANNER:SUPER REACTOR.png;
#BACKGROUND:SUPER REACTOR-bg.png;
#CDTITLE:;
#SAMPLESTART:97.157;
#SAMPLELENGTH:12.632;
#SELECTABLE:YES;
#OFFSET:0.738;
#BPMS:0.000=152.000;
#STOPS:;
#BGCHANGES:;
#FGCHANGES:;

//--------------- dance-single - chronon ----------------
#NOTEDATA:;
#STEPSTYPE:dance-single;
#DESCRIPTION:chronon;
#DIFFICULTY:Beginner;
#METER:4;
#RADARVALUES:0,0,0,0,0;
#NOTES:
0000
0000
0000
0000
,
0000
0000
0000
0000
,
0000
0000
0000
0000
,
0000
0000
0000
0000
,
0000
0000
0000
0000
,
0000
0000
0000
0000
,
1000
0000
0100
0000
,
0010
0000
0001
0000
,
1000
0000
0010
0000
,
0100
0000
0001
0000
,
2000
0000
0000
0000
,
0002
0000
0000
3003
,
1000
0000
0010
0000
,
0002
0000
0013
0000
,
1000
0000
0100
0000
,
0020
0000
0030
0000
,
0001
0001
0001
0000
,
1000
1000
1000
0000
,
0000
0001
0000
0000
1000
0000
0000
0001
,
0000
0000
0000
0000
,
1000
0000
1000
0000
,
0010
0000
0010
0000
,
1000
0000
1000
0000
,
0100
0000
0100
0000
,
1000
0000
0100
0000
,
0010
0000
0001
0000
,
0000
1000
0000
0000
0001
0000
0000
1000
,
0000
0000
0000
0000
,
1001
0000
0000
0000
,
0000
0000
0000
0000
,
0000
0000
0000
0000
,
0000
0000
0000
0000
,
1000
0000
1000
0000
,
0001
0000
0001
0000
,
1000
0001
1000
0000
,
2002
0000
0000
3003
,
0000
0000
0000
0000
,
0000
0000
0000
0000
,
0001
0000
0010
0000
,
0001
0000
1000
0000
,
1000
1000
0001
0001
,
1000
0000
0000
0000
,
1000
0000
0010
0000
,
1000
0000
0001
0000
,
0001
0001
1000
1000
,
0000
0000
0000
0000
,
1001
0000
0000
0000
,
0000
0000
0000
0000
,
0000
0000
0000
0000
,
0000
0000
0000
0000
,
1000
0000
1000
0000
,
0001
0000
0001
0000
,
0100
0000
0100
0000
,
0010
0000
0010
0000
,
1000
0000
0010
0000
,
0100
0000
0010
0000
,
1000
0000
0001
0000
,
1000
0000
0001
0000
,
0001
0000
0010
0000
,
0100
0000
0010
0000
,
0001
0000
1000
0000
,
0000
0000
0000
0000
,
0001
0100
0001
0000
,
1000
0100
1000
0000
,
0002
0000
0000
0000
,
0003
0000
0000
0000
,
1000
0100
1000
0000
,
0001
0100
0001
0000
,
2000
0000
0000
0000
,
3000
0000
0000
0000
,
0000
0010
0000
0000
1000
0000
0000
0000
,
0001
0001
0001
0000
,
0000
0010
0000
0000
0001
0000
0000
0000
,
1000
1000
1000
0000
,
0001
0000
0100
0000
,
0010
0000
1000
0000
,
0001
1000
0001
0000
,
0000
0000
0000
0000
,
1000
0000
0100
0000
,
0010
0000
0100
0000
,
1000
0100
0010
0001
,
1000
0001
1000
0000
,
0000
2002
0000
0000
,
0000
3003
0000
0000
;

//--------------- dance-single - chronon ----------------
#NOTEDATA:;
#STEPSTYPE:dance-single;
#DESCRIPTION:chronon;
#DIFFICULTY:Easy;
#METER:9;
#RADARVALUES:0,0,0,0,0;
#NOTES:
0000
0000
0000
0000
,
0000
0000
0000
0000
,
0000
0000
0000
0000
,
0000
0000
0000
0000
,
0000
0000
0000
0000
,
0000
0000
0000
0000
,
0001
0010
0100
0100
,
0010
0100
1000
0002
,
1003
0010
0100
0200
,
0310
0100
0001
1000
,
0002
0000
0000
0000
,
2000
0000
0000
3003
,
1000
0000
0010
0100
,
2000
0000
3100
0000
,
0001
0000
0010
0100
,
2000
0000
3001
0000
,
1000
0000
0100
0000
0010
0000
0001
1000
,
0001
0000
0100
0000
0010
0000
1000
0001
,
1000
0000
0010
0000
0000
0010
0000
0000
0100
0000
0000
0100
0000
0000
2002
0000
,
0000
0000
0000
3003
,
0001
0010
0001
1000
,
0001
0100
0020
0000
,
1030
0010
1000
0001
,
1000
0100
0020
0000
,
0031
0010
0001
0000
0001
1000
0001
0000
,
0001
0100
0001
0000
1000
0000
0001
1000
,
0001
0000
0010
0000
0000
0010
0000
0000
0100
0000
0000
0100
0000
0000
2002
0000
,
0000
0000
0000
3003
,
1000
0000
0020
0000
,
0130
0000
0002
0000
,
1003
0000
0200
0000
,
0310
0000
0002
0000
,
1003
0010
0200
0010
,
0301
0010
0200
0010
,
1300
0001
1000
0001
,
2002
0000
0000
3003
,
0000
0000
0000
0000
,
0000
0000
0000
0000
,
0001
0001
0200
0000
0301
0000
1000
0000
,
0100
1000
1000
0000
2200
0000
3300
0000
,
1000
0100
0010
0001
,
1000
0000
0000
1000
0000
0000
0001
0000
0000
0001
0000
0000
0000
0000
0000
0000
,
1000
1000
0020
0000
1030
0000
0001
0000
,
0010
0001
0001
0000
0022
0000
0033
0000
,
0001
0010
0100
1000
,
0020
0100
0130
0000
,
1001
0000
0000
0000
,
0000
0000
0000
0000
,
0000
0000
0000
0000
,
0000
0000
0000
0000
,
0002
0000
0100
0000
,
2003
0000
0100
0000
,
3002
0000
0010
0000
,
2003
0000
3010
0100
,
0001
0100
0010
0010
,
1000
0100
0010
0010
,
0001
0010
0100
0100
,
1000
0010
0100
0100
,
0001
0000
0100
0000
0001
1000
0001
0000
,
1000
0000
0100
0000
1000
0001
1000
0000
,
0001
0100
0001
0000
1000
0100
1000
0000
,
2000
3000
0000
0000
0200
0300
0000
0000
0020
0030
0000
0000
0001
0000
0000
0000
,
1000
0000
0100
0000
0010
0100
0010
0000
,
0001
0000
0100
0000
0010
0100
0010
0000
,
1000
0010
0100
0010
,
0001
0010
0100
0010
,
1000
0000
0010
0000
0100
0010
0100
0000
,
0001
0000
0010
0000
0100
0010
0100
0000
,
1000
0100
0010
0100
,
0001
0100
0010
0100
,
1000
0000
0100
0000
0000
0010
0000
0000
0001
0000
0000
1000
0000
0000
0000
0000
,
0001
0000
0000
0200
0000
0301
0000
0000
1000
0000
0000
0000
0200
0000
1300
0000
,
0001
0000
0010
0000
0000
0100
0000
0000
1000
0000
0000
0001
0000
0000
0000
0000
,
1000
0000
0000
1000
0000
0000
0020
0000
1030
0000
0000
0000
0002
0000
0000
0000
,
1003
0100
0010
0001
,
1000
0010
0100
0001
,
1000
0000
0001
0000
1000
0001
1000
0000
,
0000
0000
0000
0000
,
0001
0100
0010
1000
,
0010
0100
0001
1000
,
0001
1000
0001
0000
1000
0100
1000
0000
,
0001
1000
0001
0000
0100
0001
0100
0000
,
0010
2002
0000
0000
,
0000
3003
0000
0000
;

//--------------- dance-single - chronon ----------------
#NOTEDATA:;
#STEPSTYPE:dance-single;
#DESCRIPTION:chronon;
#DIFFICULTY:Medium;
#METER:13;
#RADARVALUES:0,0,0,0,0;
#NOTES:
0000
0000
0000
0000
,
0000
0000
0000
0000
,
0000
0000
0000
0000
,
0000
0000
0000
0000
,
0000
0000
0000
0000
,
0000
0000
0000
0000
,
1000
0010
0100
0000
0010
0100
0001
0000
,
1000
0100
0010
0000
0100
0010
0002
0000
,
1003
0000
0010
0000
1000
0000
0010
0000
0100
0000
0001
0000
0200
0000
0000
0301
,
1000
0100
0010
0000
0010
0100
1000
0000
,
0002
0000
0000
0000
,
2000
0000
0000
3003
,
0101
0000
0000
0000
0001
0000
0100
0000
0010
0000
0000
1000
0000
0000
0100
0000
,
0002
0000
0000
0000
0103
1000
0010
0000
,
1010
0000
0000
0000
1000
0000
0010
0000
0100
0000
0000
0001
1000
0000
0001
0000
,
0020
0000
0000
0000
0130
1000
0001
1000
,
0010
0000
0000
0010
0200
0000
0001
0000
0310
0000
0000
0010
1000
0000
0100
0000
,
0010
0000
0000
0010
0200
0000
1000
0000
0310
0000
0010
0000
0001
0000
1000
0000
,
0000
0000
1001
0000
0000
1100
0000
0000
1001
0000
0000
0101
0000
0000
2002
0000
,
0000
0000
0000
3003
,
1000
0000
0010
0100
0000
0000
0001
0000
1000
0000
0100
0010
0000
0000
0001
0000
,
1000
0000
0010
0100
0000
0000
0001
0000
0010
0000
0010
0000
0100
0000
1000
0000
,
0001
0000
0010
0100
0000
0000
1000
0000
0001
0000
0100
0010
0000
0000
1000
0000
,
0001
0000
0010
0100
0000
0000
1000
0000
0001
0000
1000
0000
0010
0000
0100
0000
,
0001
0000
0000
0001
0100
0000
0000
0100
0010
0000
0000
0010
1000
0000
0000
0001
,
1000
0000
0000
1000
0100
0000
0000
0100
0010
0000
0010
0000
0001
0000
1000
0000
,
0000
0000
1001
0000
0000
0011
0000
0000
1001
0000
0000
1010
0000
0000
2002
0000
,
0000
0000
0000
3003
,
1000
0001
0100
0100
,
0001
1000
0100
0100
,
1000
0001
0010
0010
,
0001
0000
0000
1000
0000
0000
0010
0100
0001
1000
0000
0000
,
1001
0000
0000
0100
0010
0100
0010
0000
0000
0100
0000
0000
,
1001
0000
0000
0100
0010
0100
0010
0000
0000
0100
0000
0000
,
1001
0110
1001
0110
,
2002
0000
0000
3003
,
0000
0000
0000
0000
,
0000
0000
0000
0000
0000
0000
0000
0001
0000
0000
1000
0000
0000
0001
0000
0000
,
0100
0001
0020
0000
0130
0010
0001
0000
,
0200
0310
1000
0000
2002
0000
0000
3003
,
1000
0010
1000
0010
0000
1000
0001
0010
0001
0010
0000
0001
,
2000
0000
0000
3002
0000
0000
2003
0000
0000
3002
0000
0000
0103
0000
0000
0000
,
0010
1000
0200
0000
0310
0100
1000
0000
,
0020
0130
0001
0000
2002
0000
0000
3003
,
0001
0100
0001
0100
0000
0001
1000
0100
1000
0100
0000
1000
,
0002
0000
1000
1000
2000
0000
3003
0000
,
2000
0001
0000
0001
,
3200
1000
0000
1000
,
0320
0001
0000
0031
,
0020
0100
0000
0100
,
0032
1000
0000
1000
,
0203
0001
0000
0001
,
0320
1000
0000
1030
,
0020
0000
0100
0000
1030
0001
1000
0000
,
0001
0000
0100
0000
0010
0000
0000
1000
0000
0000
0001
0000
1000
0000
0000
0000
,
1000
0000
0100
0000
0010
0000
0000
0001
0000
0000
1000
0000
0001
0000
0000
0000
,
0100
0000
0001
0000
0100
0000
0001
0000
1000
0000
0000
0100
0000
0000
2000
0000
,
0000
0000
3001
0000
0100
0000
0000
0002
0000
0000
1003
0000
0100
0000
0000
0000
,
1000
0100
0010
0000
0010
0001
1000
0000
,
0001
0100
0010
0000
0010
1000
0001
0000
,
1000
0010
1000
0010
0100
0001
0100
0001
,
2000
3000
0000
0000
0200
0300
0000
0000
0020
0030
0001
0000
0100
0000
0000
0000
,
0001
0000
0100
0000
0010
0000
0000
1000
0000
0000
0100
0000
0010
0000
0001
0000
,
1000
0000
0100
0000
0010
0000
0000
0001
0000
0000
0100
0000
0010
0000
1000
0000
,
0001
0000
0100
0000
0001
0000
0100
0000
0010
0000
0000
1000
0000
0000
0200
0000
,
0000
0000
0310
0000
0001
0000
0000
0200
0000
0000
0000
0000
0310
0000
0000
0000
,
1000
0000
0010
0000
0100
0000
0000
0001
0000
0000
0010
0000
0100
0000
1000
0000
,
0001
0000
0010
0000
0100
0000
0000
1000
0000
0000
0010
0000
0100
0000
0001
0000
,
1000
0000
0010
0000
1000
0000
0010
0000
0100
0000
0000
0001
0000
0000
0020
0000
,
0000
0000
0130
0000
1000
0000
0000
0020
0000
0000
0000
0000
0130
0000
0000
0000
,
0001
0000
0101
0000
0000
1100
0000
0000
1010
0000
0000
0011
0000
0000
0001
0000
,
1000
0200
0010
1300
0001
0200
0010
0301
,
1000
0000
1010
0000
0000
0011
0000
0000
0101
0000
0000
1100
0000
0000
1000
0000
,
0001
0020
0100
0031
1000
0020
0100
1030
,
0001
0100
0001
0100
0010
1000
0001
0000
,
1000
0100
1000
0100
0010
0001
1000
0000
,
0001
0100
0001
0100
0010
1000
0010
1000
,
0001
0000
0000
0000
0010
0000
0000
0100
0000
0100
0000
0000
1000
0000
0000
0000
,
0001
0000
0010
0000
0001
0000
1000
0000
0001
0000
0000
0100
0000
0000
0010
0000
,
1000
0000
0000
0100
0000
0000
0010
0000
0001
0000
1000
0000
0001
0000
0000
0000
,
1000
0010
0010
0100
0100
0001
0001
1000
,
0001
0100
0001
1000
0100
1000
0020
0000
,
0130
2002
0000
0000
,
0000
3003
0000
0000
;

//--------------- dance-single - chronon ----------------
#NOTEDATA:;
#STEPSTYPE:dance-single;
#DESCRIPTION:chronon;
#DIFFICULTY:Hard;
#METER:16;
#RADARVALUES:0,0,0,0,0;
#NOTES:
0000
0000
0000
0000
,
0000
0000
0000
0000
,
0000
0000
0000
0000
,
0000
0000
0000
0000
,
0000
0000
0000
0000
,
0000
0000
0000
0000
,
0001
0100
0010
0100
0001
1000
0001
0000
,
1000
0100
0010
0100
1000
0002
1000
0013
,
0001
0010
0001
1000
0010
0100
0010
1000
0001
0100
0001
1000
0200
0000
0000
0310
,
0100
1000
0020
0000
0130
0001
0010
0001
,
2000
0000
0000
0000
,
0002
0000
0000
0000
3003
0000
1000
0001
,
0201
0000
0000
0000
0310
0100
0001
0020
0001
0000
0000
0100
0000
0000
2030
0000
,
3002
2000
0000
0000
3003
1000
0010
0001
,
0021
0000
0000
0000
0130
0000
1000
0000
0001
1000
0000
0010
1000
0001
0100
0001
,
0000
0000
0000
0000
1000
0000
0000
0000
0001
0000
0000
0000
0010
0000
0000
0001
0000
0000
0000
0000
1000
0000
0000
0000
0000
0100
0000
0000
0000
0000
0000
0000
0010
0000
0000
0000
0001
0000
0000
0000
0010
0000
0000
0000
0001
0000
0000
0000
0100
0000
0000
0000
0010
0000
0000
0000
1000
0000
0000
0000
0000
0000
0000
0000
,
2010
0000
0000
3001
1000
0000
0100
0000
2100
0000
0000
3001
0100
0010
0100
0000
,
0102
0000
0000
1003
0001
0000
0010
0000
0011
0000
0110
0000
0100
1000
0010
0000
,
1000
0000
1010
0000
0000
0101
0000
0000
0011
0000
0000
1100
0000
0000
2001
0000
,
0000
0000
3001
0100
0010
0100
0001
1000
0001
0010
0100
1000
0020
0000
0000
0000
,
1030
0000
0001
0100
0000
0100
0010
0000
1000
0000
0001
0010
0000
0010
0100
1000
,
0001
0000
1000
0010
0000
0010
0100
0000
0001
0000
1000
0001
0010
0100
1000
0000
,
1100
0000
0100
0010
0000
0010
0001
0000
1000
0010
0100
0010
0000
0010
0100
0001
,
1000
0001
0010
0100
0000
0100
1000
0000
0010
0000
0100
0000
0001
0000
1000
0000
,
0001
0000
0001
0010
0001
0000
0001
1000
0001
0000
0001
0100
0001
0000
0100
0010
,
1000
0000
1000
0010
1000
0000
1000
0001
0010
0000
0100
0000
0010
0001
0100
0000
,
0001
0000
0101
0000
0000
1010
0000
0000
1100
0000
0000
0011
0000
0000
1002
0000
,
0100
0000
0103
0000
0001
0100
0010
1000
0001
0000
1000
0000
1100
0000
0000
0000
,
1000
0200
0320
0032
,
2003
3020
0230
1000
,
0302
0203
0320
0001
,
1030
0010
1000
0001
0100
0001
1000
0001
1000
0100
0000
0000
,
1100
0000
0000
1000
0100
1000
0010
0100
0001
0100
0000
0000
,
0101
0000
0000
0001
0100
0001
0010
0100
1000
0100
0000
0000
,
2100
3001
0102
1003
2010
3001
0012
1003
,
2002
0000
0000
0000
3003
0001
1000
0000
,
0001
0000
0001
0000
0200
0000
0000
0310
0000
1000
0100
0000
0010
0000
0001
0000
,
1000
0000
1000
0000
0200
0000
0300
1100
0000
0000
0011
0000
0000
1001
0000
0000
,
0001
0000
0100
0000
2000
0000
0000
3100
0010
0100
0001
0010
0100
1000
0100
0000
,
0002
0103
1000
0001
1002
0000
0203
0000
,
1300
0100
0010
1000
0100
0010
1000
0010
0100
0010
0001
1000
,
0001
0000
0000
0000
0000
0000
1000
0000
0000
0001
0000
0000
0000
0000
0000
0100
0000
0000
0001
0000
0000
0000
0000
0000
0100
0000
0001
0000
0100
0000
0001
0000
0000
0000
0000
0000
0100
0000
0000
0000
0000
0000
0010
0000
0000
0000
0000
0000
,
1000
0000
0010
0000
0002
0000
0000
0013
0100
0010
1000
0100
0010
0001
0010
0000
,
2000
3010
0001
1000
2001
0000
3020
0000
,
0031
0010
0100
0001
0010
0100
0001
0100
0010
0100
1000
0010
,
0200
0000
0010
0010
0310
0000
1001
0000
,
1000
0000
0001
0000
0100
0000
0000
0001
0000
0000
0010
0000
0100
0000
1000
0000
,
0001
0000
1000
0000
0100
0000
0000
1000
0000
0000
0010
0000
0100
0000
0001
0000
,
1000
0000
0010
0000
1000
0000
0010
0000
0100
0000
0000
0001
0000
0000
0020
0000
,
0000
0000
0130
0000
1000
0000
0000
0020
0000
0000
0000
0000
0130
0000
0000
0000
,
0001
0000
1000
0000
0010
0000
0000
1000
0000
0000
0100
0000
0010
0000
0001
0000
,
1000
0000
0001
0000
0010
0000
0000
0001
0000
0000
0100
0000
0010
0000
1000
0000
,
0001
0000
0100
0000
0001
0000
0100
0000
0010
0000
0000
0100
0000
0000
2000
0000
,
0000
0000
3100
0000
0001
0000
0000
0020
0000
0000
0031
0000
0011
0000
0000
0000
,
0001
0000
1000
0000
0100
0000
1000
0001
0000
1000
0010
0000
0100
0000
0001
0000
,
1000
0000
0001
0000
0100
0000
0001
1000
0000
0001
0010
0000
0100
0000
1000
0000
,
0001
0000
0010
0000
0001
0000
0010
0000
0100
0000
0000
1000
0000
0000
0020
0000
,
0100
0000
0130
0000
0001
0100
0010
1000
0001
0000
1000
0000
1100
0000
0000
0000
,
1000
0000
0100
0000
0010
0000
0100
0000
1000
0000
0001
0000
1000
0000
0001
1000
,
0001
0100
0010
0100
0001
1000
0001
1000
,
0010
1000
0010
0100
0001
1000
0001
0010
0100
1000
0100
0010
0001
1000
0001
0000
,
2000
3000
0000
0000
0200
0300
0000
0000
0020
0030
0001
0000
0100
0000
0000
0000
,
0001
0100
0010
0000
1000
0000
0001
0010
0100
0010
0001
0000
1000
0000
0010
0000
,
1000
0010
0100
0000
0001
0000
1000
0100
0010
0100
1000
0000
0001
0000
0100
0000
,
0001
0000
0100
0000
0010
0000
0100
0000
0001
0000
1000
0010
0000
1000
0200
0000
,
1300
0000
0001
0000
0010
0001
0000
0200
0000
0000
0301
0000
1000
0000
0100
0000
,
1000
0100
0010
0000
0001
0000
1000
0010
0100
0010
1000
0000
0001
0000
0010
0000
,
0001
0010
0100
0000
1000
0000
0001
0100
0010
0100
0001
0000
1000
0000
0100
0000
,
1000
0000
0100
0000
0010
0000
0100
0000
1000
0000
0001
0010
0000
0100
0002
0000
,
0103
0000
0100
0000
1000
0100
0010
0001
1000
0000
0001
0000
0101
0000
0000
0000
,
0001
0000
1000
0010
1000
0001
0010
0001
1000
0100
1000
0001
0100
0001
1000
0100
,
0010
0000
0002
0100
0000
1003
0000
0001
0100
0000
0010
2000
0100
0000
3001
0000
,
1000
0000
0001
0100
0001
1000
0100
1000
0001
0010
0001
1000
0010
1000
0001
0100
,
0010
0000
0100
0010
0000
2000
0100
0000
3001
0000
0010
0002
0100
0000
1003
0000
,
0100
0000
0010
0000
0001
0000
1000
0000
0001
0000
0100
0000
0010
0000
1000
0001
,
0100
0010
1000
0001
1000
0100
0010
0100
,
1000
0100
0010
0001
1000
0001
0100
0010
1000
0010
0100
0001
1000
0001
0010
0100
,
1000
0000
0100
0000
0010
0000
0000
0001
0000
1000
0001
0000
0100
0000
0010
0000
,
1000
0010
0100
0000
0001
0010
0100
0000
1000
0000
0100
0010
0000
0100
0010
0001
,
1000
0000
0010
0100
0000
0010
0100
0001
1000
0100
0010
0001
1000
0010
0100
0001
,
0100
0101
0110
1010
1001
0011
0110
1100
,
1000
0100
0010
0001
1000
0100
0010
0001
1000
0001
0100
0040
0400
0000
0000
0000
,
0330
2002
0000
0000
,
0000
3003
0000
0000
;

//--------------- dance-double - chronon ----------------
#NOTEDATA:;
#STEPSTYPE:dance-double;
#DESCRIPTION:chronon;
#DIFFICULTY:Hard;
#METER:16;
#RADARVALUES:0,0,0,0,0;
#NOTES:
00000000
00000000
00000000
00000000
,
00000000
00000000
00000000
00000000
,
00000000
00000000
00000000
00000000
,
00000000
00000000
00000000
00000000
,
00000000
00000000
00000000
00000000
,
00000000
00000000
00000000
00000000
,
00010000
00001000
00010000
01000000
00010000
00001000
00010000
00000000
,
00001000
00010000
00001000
00000100
00001000
00010000
00000200
00000320
,
00000031
00001000
00000100
00001000
00000100
00010000
00001000
00010000
00001000
01000000
00010000
01000000
00020000
00000000
00000000
01030000
,
00100000
10000000
02000000
00000000
03100000
00001000
00010000
00000010
,
00002000
00000000
00000000
00000000
,
00000002
00000000
00000000
00003003
,
00001001
00000000
00000000
00000000
00001000
00000010
00000100
00000010
00001000
00000000
00000000
00000100
00000000
00000000
00010000
00000000
,
00000002
20000000
00000000
00000000
00000003
30000100
01000000
00010000
,
10000000
00000000
00000000
00000000
00100000
00000000
01000000
00000000
00100000
10000000
00000000
00010000
01000000
00001000
00010000
00001000
,
00000000
00000000
00000000
00000000
00010000
00000000
00000000
00000000
00001000
00000000
00000000
00000000
00010000
00000000
00000000
00000100
00000000
00000000
00000000
00000000
00000010
00000000
00000000
00000000
00000000
00000001
00000000
00000000
00000000
00000000
00000000
00000000
00001000
00000000
00000000
00000000
00000001
00000000
00000000
00000000
00001000
00000000
00000000
00000000
00000001
00000000
00000000
00000000
00000100
00000000
00000000
00000000
00000010
00000000
00000000
00000000
00001000
00000000
00000000
00000000
00000000
00000000
00000000
00000000
,
00001020
00000000
00000000
00010030
00001000
00000000
00100000
00000000
00210000
00000000
00000000
00301000
00010000
00000000
00000100
00000000
,
00001200
00000000
00000000
00010300
00001000
00000000
01000000
00000000
01010000
00000000
10010000
00000000
10000000
00010000
10000000
00000000
,
01000000
00000000
11000000
00000000
00000000
00101000
00000000
00000000
00011000
00000000
00000000
00010010
00000000
00000000
00000101
00000000
,
00000000
00000000
00000001
00000100
00000010
00001000
00000001
00001000
00000100
00000010
00000001
00001000
00000001
00000000
00000000
00000000
,
00001000
00000000
00000001
00000100
00000000
00000010
00001000
00000000
00000001
00000000
00001000
00000100
00000000
00010000
00001000
00000000
,
00010000
00000000
00001000
01000000
00000000
00010000
01000000
00000000
00010000
00000000
00001000
00000000
00000001
00001000
00000001
00000000
,
00001000
00000000
00000001
00000010
00000000
00000100
00001000
00000000
00000001
00000000
00001000
00000010
00000000
00010000
00001000
00000000
,
00010000
00000000
00001000
00100000
00000000
00010000
00100000
00000000
01000000
00000000
10000000
00000000
00010000
00000000
00000000
00000000
,
10000000
00000000
10000000
00100000
10000000
00000000
10000000
00010000
10000000
00000000
10000000
01000000
10000000
00000000
01000000
00100000
,
00010000
00000000
00010000
10000000
00010000
00000000
00010000
01000000
00010000
00000000
00001000
00000000
00000001
00000000
00001000
00000000
,
00000001
00000000
00000101
00000000
00000000
00010010
00000000
00000000
00011000
00000000
00000000
00101000
00000000
00000000
11000000
00000000
,
01000000
00000000
01000000
00000000
10000000
01000000
00100000
00010000
00100000
00000000
00001000
00000000
00011000
00000000
00000000
00000000
,
00020000
00000100
00000001
00000010
,
00032000
01000000
10000000
00100000
,
00023000
00000100
00000001
00000010
,
00031000
00010000
00001000
01000000
00010000
01000000
00100000
10000000
00010000
10000000
00000000
00000000
,
10010000
00000000
00000000
10000000
01000000
00100000
00001000
00010000
00001000
00010000
00000000
00000000
,
00011000
00000000
00000000
00010000
00000100
00000010
00000001
00001000
00000001
00001000
00000000
00000000
,
00000101
00001010
00001100
00000011
,
00002002
00000000
00000000
00000000
00003003
00000001
00001000
00000000
,
00000010
00000000
00001000
00000000
00020000
00000000
00000000
01030000
00000000
00000000
00010000
00000000
10000000
00000000
01000000
00000000
,
00100000
00000000
00010000
00000000
00002000
00000000
00000000
00003100
00000000
00000000
00000110
00000000
00000000
00001100
00000000
00000000
,
00000100
00000000
00001000
00000000
00020000
00000000
00000000
00130000
01000000
10000000
00010000
10000000
00100000
01000000
00010000
00000000
,
00002000
00003010
00000100
00000001
00000020
00000000
00000000
00000000
,
00000031
00000010
00000100
00001000
00010000
00100000
01000000
10000000
01000000
00100000
00010000
10000000
,
00010000
00000000
00000000
00000000
00000000
00000000
01000000
00000000
00000000
00010000
00000000
00000000
00000000
00000000
00000000
01000000
00000000
00000000
00010000
00000000
00000000
00000000
00000000
00000000
10000000
00000000
00010000
00000000
10000000
00000000
00010000
00000000
00000000
00000000
00000000
00000000
10000000
00000000
00000000
00000000
00000000
00000000
00100000
00000000
00000000
00000000
00000000
00000000
,
01000000
00000000
00010000
00000000
00002000
00000000
00000000
00003010
00000100
00000001
00001000
00000001
00000010
00000100
00001000
00000000
,
00020000
00130000
01000000
10000000
00200000
00000000
00000000
00000000
,
10300000
00100000
01000000
00010000
00001000
00000010
00000100
00000001
00000100
00000010
00001000
00000001
,
00002000
00000000
00000001
00000001
00003001
00000000
00001001
00000000
,
00000001
00000000
00000010
00000000
00000100
00000000
00000000
00001000
00000000
00000000
00000001
00000000
00001000
00000000
00000010
00000000
,
00010000
00000000
00001000
00000000
00010000
00000000
00000000
01000000
00000000
00000000
10000000
00000000
00010000
00000000
10000000
00000000
,
00010000
00000000
01000000
00000000
00010000
00000000
01000000
00000000
00001000
00000000
00000000
00010000
00000000
00000000
00000200
00000000
,
00000000
00000000
00010300
00000000
00001000
00000000
00000000
02000000
00000000
00000000
00000000
00000000
03010000
00000000
00000000
00000000
,
10000000
00000000
01000000
00000000
00100000
00000000
00000000
00010000
00000000
00000000
10000000
00000000
00010000
00000000
01000000
00000000
,
00001000
00000000
00010000
00000000
00001000
00000000
00000000
00000010
00000000
00000000
00000001
00000000
00001000
00000000
00000001
00000000
,
00001000
00000000
00000010
00000000
00001000
00000000
00000010
00000000
00010000
00000000
00000000
00001000
00000000
00000000
00200000
00000000
,
00000000
00000000
00301000
00000000
00010000
00000000
00000000
00000020
00000000
00000000
00000000
00000000
00001030
00000000
00000000
00000000
,
00000001
00000000
00000100
00000000
00000010
00000000
00001000
00000001
00000000
00001000
00000100
00000000
00001000
00000000
00000100
00000000
,
00010000
00000000
00001000
00000000
00010000
00000000
00001000
01000000
00000000
00010000
10000000
00000000
00010000
00000000
10000000
00000000
,
00010000
00000000
01000000
00000000
00010000
00000000
01000000
00000000
00001000
00000000
00000000
00010000
00000000
00000000
00000200
00000000
,
00010000
00000000
00010300
00000000
00001000
01000000
00010000
10000000
01000000
00000000
10000000
00000000
11000000
00000000
00000000
00000000
,
10000000
01000000
00100000
00010000
10000000
00010000
01000000
00001000
,
00010000
00000100
00001000
00000001
00000100
00000010
00001000
00000001
,
00001000
00000100
00000010
00000001
00001000
00000100
00000010
00000001
00001000
00000010
00000100
00000001
00001000
00000010
00000100
00000001
,
00002000
00003000
00000000
00000000
00000200
00000300
00000000
00000000
00000020
00000030
00000001
00000000
00000100
00000000
00000000
00000000
,
00000001
00000100
00000010
00000000
00001000
00000000
00010000
01000000
00100000
01000000
00010000
00000000
10000000
00000000
00010000
00000000
,
10000000
01000000
00100000
00000000
00010000
00000000
00001000
00000100
00000010
00000100
00001000
00000000
00000001
00000000
00001000
00000000
,
00000001
00000000
00000100
00000000
00000010
00000000
00010000
00000000
00001000
00000000
00010000
00001000
00000000
00000000
00000020
00000000
,
00001030
00000000
00010000
00000000
00001000
00010000
00000000
00200000
00000000
00000000
00310000
00000000
00001000
00000000
00000100
00000000
,
00000001
00000010
00000100
00000000
00001000
00000000
00010000
00100000
01000000
00100000
00010000
00000000
10000000
00000000
00010000
00000000
,
10000000
00100000
01000000
00000000
00010000
00000000
00001000
00000010
00000100
00000010
00001000
00000000
00000001
00000000
00001000
00000000
,
00000001
00000000
00000010
00000000
00000100
00000000
00010000
00000000
00001000
00000000
00010000
00001000
00000000
00000000
00000200
00000000
,
00001300
00000000
00001000
00000000
00010000
00000100
00001000
00000001
00000100
00000000
00000001
00000000
00000101
00000000
00000000
00000000
,
00000100
00000000
00000001
00000100
00000001
00001000
00000010
00001000
00000010
00010000
00001000
01000000
00001000
01000000
00100000
10000000
,
00100000
00000000
20000000
01000000
00000000
30010000
00000000
10000000
00100000
00000000
01000000
00020000
00100000
00000000
10030000
00000000
,
01000000
00000000
10000000
01000000
10000000
00010000
00100000
00010000
00100000
00001000
00010000
00000100
00010000
00000100
00000010
00000001
,
00000010
00000000
00000100
00000010
00000000
00000002
00000100
00000000
00001003
00000000
00000100
00002000
00000010
00000000
00003001
00000000
,
00000100
00000000
00000001
00000000
00001000
00000000
00000010
00000000
00010000
00000000
00001000
00000000
01000000
00000000
00010000
10000000
,
01000000
10000000
00010000
00100000
00001000
00010000
00000100
00001000
,
00000001
00000100
00000010
00001000
00000010
00010000
00000100
00010000
00001000
00100000
00010000
10000000
00010000
10000000
01000000
00100000
,
01000000
00000000
10000000
00000000
00010000
00000000
00000000
10000000
00000000
00010000
01000000
00000000
00100000
00000000
00000000
00000000
,
10000000
00100000
01000000
00000000
00010000
00100000
01000000
00000000
00100000
00000000
01000000
00100000
00000000
00001000
00010000
00000000
,
00000010
00000000
00000100
00000010
00000000
00010000
00001000
00000000
01000000
00010000
10000000
00010000
00100000
01000000
10000000
00000000
,
01000000
11000000
01100000
00110000
00101000
00011000
00010010
00001010
,
00001000
00000010
00000100
00000001
00001000
00000010
00000100
00000001
00001000
00000100
00010000
00004000
00040000
00000000
00000000
00000000
,
00033000
00022000
00000000
00000000
,
00000000
00033000
00000000
00000000
;
