#TITLE:Red Planet Redux;
#SUBTITLE:From "Bucky O'Hare";
#ARTIST:Shroomer;
#TITLETRANSLIT:;
#SUBTITLETRANSLIT:;
#ARTISTTRANSLIT:;
#GENRE:;
#CREDIT:Braeden;
#MUSIC:Red Planet Redux.ogg;
#BANNER:ban.png;
#BACKGROUND:bg.png;
#CDTITLE:;
#SAMPLESTART:34.940;
#SAMPLELENGTH:12.000;
#SELECTABLE:YES;
#OFFSET:-0.020;
#BPMS:0.000=220.000;
#STOPS:;
#JACKET:jacket.png;
#BGCHANGES:;
#FGCHANGES:;

//--------------- dance-single - ----------------
#NOTES:
     dance-single:
     :
     Beginner:
     4:
     0.128,0.216,0.044,0.142,0:
0000
0000
0000
0000
,
0000
0000
0000
0000
,
0000
0000
0000
0000
,
0000
0000
0000
0000
,
0001
0000
0000
0000
,
2000
0000
0000
3000
,
0001
0000
0000
0000
,
0100
0000
0000
0000
,
0010
0000
0000
0000
,
2000
0000
0000
3000
,
0001
0000
0000
0000
,
1000
0000
0000
0000
,
0010
0000
0000
0000
,
2000
0000
0000
3000
,
0001
0000
0000
0000
,
0010
0000
0000
0000
,
1001
0001
0000
1000
,
0000
0010
0000
1000
,
0000
0100
0000
0010
,
0000
0001
0000
1000
,
0000
0010
0000
1000
,
0000
0100
0000
0010
,
0000
0001
0000
1000
,
0000
0010
0000
0000
,
2000
0000
3000
0002
,
0000
0003
0200
0000
,
0300
0020
0000
0030
,
1000
0000
0001
0000
,
2000
0000
3000
0200
,
0000
0300
0020
0000
,
0030
0002
0000
0003
,
1000
0000
0001
0000
,
1001
0000
2000
3000
,
0000
0000
0002
0003
,
0100
0000
0020
0030
,
1000
0000
0200
0300
,
0010
0000
0002
0003
,
1000
0000
0002
0003
,
1000
0000
0001
0000
,
0100
0000
0001
0000
,
1000
0000
0002
0003
,
0100
0000
0020
0030
,
1000
0000
0200
0300
,
0010
0000
0002
0003
,
1000
0000
0020
0030
,
0100
0000
0002
0003
,
1000
0000
0002
0003
,
0100
0000
0010
0000
,
2000
0000
0000
0000
,
3002
0000
0000
0003
,
1000
0000
0001
0000
,
0200
0000
0320
0000
,
2030
0000
3000
0002
,
0000
0000
0000
0000
,
0000
0003
1000
0000
,
0002
0000
0000
0000
,
2003
0000
0000
0000
,
0000
0000
3010
0000
,
2000
0000
0000
0000
,
3000
0000
0000
0000
,
0002
0000
0000
0000
,
2003
0000
0000
0000
,
3020
0000
0000
0030
,
0200
0000
0000
0300
,
1001
0001
0000
1000
,
0000
0100
0000
0010
,
0000
0001
0000
1000
,
0000
0010
0000
1000
,
0000
0001
0000
0010
,
0000
0100
0000
1000
,
0000
0001
0000
1000
,
0000
0010
0000
0100
,
0000
0001
0000
1000
,
0000
0100
0000
0010
,
0000
0001
0000
1000
,
0000
0010
0000
0100
,
0000
0001
0000
1000
,
0000
0100
0000
0010
,
0000
0001
0000
1000
,
0000
0001
0000
0100
,
0200
0000
0300
0000
,
0002
0000
0003
0000
,
2000
0000
0000
0000
,
3000
0000
0001
0000
,
2000
0000
3000
0000
,
0020
0000
0030
0000
,
0100
0000
0001
0000
,
1000
0000
0001
0000
,
2000
0000
3000
0000
,
0002
0000
0003
0000
,
0200
0000
0000
0000
,
0300
0000
0001
0000
,
2000
0000
3000
0000
,
0002
0000
0003
0000
,
1000
0000
0001
0000
,
0100
0000
0010
0000
,
1001
0000
0000
0000
,
1000
0000
0000
0000
,
0100
0000
0000
0000
;

//--------------- dance-single - ----------------
#NOTES:
     dance-single:
     :
     Easy:
     8:
     0.286,0.325,0,0.302,0:
0000
0000
0000
0000
,
0000
0000
0000
0000
,
0000
0000
0000
0000
,
0000
0000
0000
0000
,
0001
1000
0010
1000
,
0002
0000
0000
0203
0000
0000
0310
0000
,
1000
0100
0010
0001
,
1000
0000
0000
0020
0000
0000
1030
0000
,
0001
0100
0001
0100
,
0002
0000
0000
2003
0000
0000
3001
0000
,
0010
0100
1000
0001
,
0200
0000
0000
0320
0000
0000
2030
0000
,
3001
0100
0001
0100
,
0020
0000
0000
2030
0000
0000
3100
0000
,
0010
0001
0010
0001
,
2000
0000
0000
3002
0000
0000
0103
0000
,
0001
1001
1000
0010
,
2000
0000
0000
3002
0000
0000
0013
0000
,
0100
1000
0100
0010
,
0002
0000
0000
2003
0000
0000
3010
0000
,
1000
0100
0010
0100
,
2000
0000
0000
3020
0000
0000
1030
0000
,
0100
0010
0001
1000
,
0020
0000
0000
0230
0000
0000
0301
0000
,
1001
2000
0000
3001
,
0200
0000
0310
2000
,
0000
3100
0020
0000
,
0031
1000
0010
1000
,
0001
0020
0000
0031
,
0002
0000
1003
2000
,
0000
3010
2000
0000
,
3001
0010
0100
1000
,
1001
0000
0001
0000
0100
0000
0000
0001
,
0000
0100
0000
0000
0010
0000
1000
0000
,
0001
0000
1000
0000
0010
0000
0000
2000
,
0000
3001
0010
0100
,
1000
0000
0010
0000
1000
0000
0000
1000
,
0000
0010
0000
0000
0010
0000
1000
0000
,
0100
0000
0010
0000
,
0001
0000
1000
0000
,
1001
0000
0001
0000
1000
0000
0000
0001
,
0000
1000
0000
0000
0001
0000
0010
0000
,
0100
0000
1000
0000
0001
0000
0000
0200
,
0000
0301
1000
0100
,
1000
0000
0001
0000
0010
0000
0000
0002
,
0000
1003
0000
0000
0020
0000
1030
0000
,
0001
0010
0100
1000
,
0001
0100
0010
1000
,
0002
0000
0000
0203
0000
0000
0320
0000
,
1000
0000
0000
1000
0000
0000
1030
0000
,
0002
0000
0203
0000
,
0320
0000
0230
0000
,
0302
0000
0000
2003
0000
0000
3020
0000
,
0000
0000
0000
0000
,
0000
0000
0230
0302
,
0023
0000
0000
0230
0000
0000
1300
0000
,
0002
0000
0000
2003
0000
0000
3002
0000
,
0000
0000
0023
0032
,
2003
0000
0000
3002
0000
0000
0023
0000
,
0000
0000
0032
2003
,
3200
0000
0000
0320
0000
0000
0032
0000
,
2003
0000
0000
3020
0000
0000
0230
0000
,
0302
0000
0000
0203
,
0302
0000
2003
3000
,
1001
0001
0100
0010
,
1000
0100
0010
0001
,
0100
0010
1000
0001
,
0010
0001
1000
0010
,
0100
0001
0010
0100
,
1000
0001
0010
0001
,
1000
0100
0010
0100
,
1000
0001
0100
0001
,
1000
0010
0100
0001
,
0010
0100
1000
0001
,
0010
0001
0100
0010
,
1000
0100
0010
0001
,
1000
0010
1000
0001
,
0010
0001
0100
0010
,
1000
0001
1000
0010
,
1000
0001
0100
0001
,
1001
0000
1000
0000
0001
0000
0000
0010
,
0000
0100
0000
0000
1000
0000
0100
0000
,
0010
0000
0001
0000
1000
0000
0000
2000
,
0000
3001
1000
0001
,
1000
0000
0100
0000
0010
0000
0000
0001
,
0000
0100
0000
0000
0010
0000
1000
0000
,
0001
0000
1000
0000
,
0001
0000
0100
0000
,
1001
0000
0001
0000
1000
0000
0000
0010
,
0000
1000
0000
0000
0010
0000
0100
0000
,
0001
0000
0010
0000
0100
0000
0000
2000
,
0000
3001
0010
0001
,
1000
0000
0010
0000
1000
0000
0000
0001
,
0000
0100
0000
0000
0010
0000
1000
0000
,
0100
0010
0001
1000
,
0010
0100
0001
1000
,
1001
0001
1000
0010
,
1000
0000
0000
0000
,
1001
0000
0000
0000
;

//--------------- dance-single - XO FS ----------------
#NOTES:
     dance-single:
     XO FS:
     Medium:
     13:
     0.368,0.506,0,0.213,0:
0000
0000
0000
0000
,
0000
0000
0000
0000
,
0000
0000
0000
0000
,
0000
0000
0000
0000
,
0001
1000
0100
0010
,
0002
0000
0103
0020
0000
1030
0001
0000
,
1000
0100
1000
0001
,
0010
0100
1000
0100
0000
0010
0001
1000
,
0001
0100
0010
1000
,
0002
0000
1003
0200
0000
0310
0001
0000
,
0100
0010
1000
0001
,
0010
0100
1000
0100
0000
0010
0001
0000
,
1000
0100
0010
0001
,
2000
0000
3001
0200
0000
0310
0100
0000
,
0001
1000
0100
1000
,
0001
0100
0010
1000
0000
0001
0010
0000
,
0011
0000
0001
0020
0000
0031
0100
0000
,
2000
0000
3100
0002
0000
1003
0100
0000
,
1000
0010
1000
0000
0001
0010
0001
0000
,
1000
0100
0010
2000
0000
3010
0100
0000
,
1000
0001
1000
0000
0001
1000
0010
0000
,
0002
0000
0013
2000
0000
3001
0010
0000
,
0001
1000
0001
0000
1000
0100
1000
0000
,
0001
0100
0010
0002
0000
0013
1000
0000
,
0001
0100
1000
0200
0000
0000
0301
0010
,
1000
0020
0000
0000
0031
0100
1000
0200
,
0000
0000
0301
0010
0100
1000
0002
0000
,
2003
3100
0010
0001
,
1000
0100
0001
0200
0000
0000
1300
0010
,
0001
0020
0000
0000
1030
0100
0001
0200
,
0000
0000
1300
0001
0010
0100
2000
0000
,
3002
0103
0010
1000
,
2001
0000
0010
0000
3100
0000
1000
0200
,
0000
0302
0000
0103
2000
0000
3001
0000
,
2000
0000
0100
0000
3001
2000
0000
3020
,
0000
0000
0130
0000
0001
1000
0200
0000
,
2300
0000
0001
0000
3020
0000
1030
0200
,
0000
0302
0000
0103
0010
0000
0001
0000
,
1000
0100
00M0
0100
0001
0010
0M00
0010
,
1000
0100
00M0
0100
0001
1000
0001
0000
,
1002
0000
1000
0000
0023
0000
0031
2000
,
0000
3020
0000
0031
0020
0000
1030
0000
,
0002
0000
1000
0000
0013
0002
0000
2003
,
0000
0000
3100
0000
0010
0001
0010
0001
,
2000
0000
0100
0000
3002
0000
1003
0100
,
0000
0001
0000
0100
0020
0000
0031
0000
,
1000
0100
1000
0100
0010
0001
0010
0001
,
1000
0010
0100
0001
1000
0100
0010
0000
,
0012
0000
0000
1000
0000
0000
0023
0000
,
0001
0000
0000
0100
0000
0000
0031
0000
,
2000
3001
0200
0310
,
1000
0010
0100
0001
1000
0010
0100
0000
,
0002
0000
0000
1000
0000
0000
0100
0000
,
2003
0000
3001
0200
0000
0301
2000
0000
,
3001
1000
0002
0010
,
1003
0100
0010
0001
0000
1000
0010
0100
,
0020
0000
0000
2030
0000
3001
0020
0000
,
0031
0000
1000
0100
0000
0010
0002
0000
,
2003
0000
0000
3002
0000
0103
0002
0000
,
1003
0010
0100
0001
0000
1000
0100
0010
,
0002
0000
0000
1000
0000
0000
0100
0000
,
2003
0000
3001
0010
0000
0001
0020
0000
,
0230
0000
1000
0000
0010
0000
0310
0100
,
1000
0001
0010
0100
1000
0010
0100
0000
,
0201
0000
0301
1000
0001
0000
1000
0100
,
1000
0000
0000
0001
0000
0000
1000
0000
0100
0000
0010
0000
0001
0000
1000
0000
,
0001
0100
0010
0100
0001
1000
0001
0010
,
0001
0000
1000
0001
0000
1000
0001
0000
,
1000
0100
1000
0000
0100
0000
0010
0000
,
0001
1000
0001
0000
0010
0000
0100
0000
,
1000
0100
1000
0000
0100
0000
0010
0000
,
0100
1000
0010
0000
1000
0000
0010
0000
,
1000
0100
1000
0100
0010
0001
0010
0001
,
1000
0001
1000
0001
0100
0010
0100
0010
,
1000
0100
0010
0001
1000
0010
0100
0001
,
1000
0100
0010
0001
1000
0010
0100
0001
,
1000
0100
1000
0100
0010
0001
0010
0001
,
1000
0001
1000
0001
0100
0010
0100
0010
,
1000
0100
0010
0001
1000
0010
0100
0001
,
1000
0100
0010
0001
1000
0010
1000
0100
,
2000
0000
0001
0000
3020
0000
1030
0200
,
0000
0302
0000
0103
2000
0000
0001
0000
,
3010
0000
1000
0000
0100
0010
0001
2000
,
0000
0000
3001
0000
1000
0010
0200
0000
,
0302
0000
0010
0000
1003
0000
0001
0200
,
0000
0320
0000
0031
0020
0000
2030
0000
,
3001
0010
0M00
0010
1000
0100
00M0
0100
,
0001
0010
0M00
0010
1000
0001
1000
0000
,
2001
0000
0001
0000
3020
0000
1030
0200
,
0000
0302
0000
0103
0020
0000
0032
0000
,
2003
0000
0001
0000
3010
1000
0001
0200
,
0000
0000
0301
0000
0010
0100
1000
0001
,
2000
0000
0100
0000
3002
0000
0013
0200
,
0000
0302
0000
0103
0020
0000
0031
0000
,
1000
0010
0100
0001
1000
0100
0010
0001
,
1000
0010
1000
0010
0100
0001
0100
0000
,
0101
0001
1000
0010
,
1000
0000
0000
0001
0000
0000
1000
0000
,
1001
0000
0000
0000
;

//--------------- dance-single - FS XO JA+ ROFS ----------------
#NOTES:
     dance-single:
     FS XO JA+ ROFS:
     Hard:
     17:
     0.878,1,0.32,0.827,0.365:
0000
0000
0000
0000
,
0000
0000
0000
0000
,
0000
0000
0000
0000
,
0000
0000
0000
0000
,
0001
1000
0010
0010
0100
0100
0001
0010
,
2000
0000
3010
0002
0000
1003
0010
0100
,
0001
0010
0100
0100
1000
1000
0001
0100
,
0001
0100
0010
0002
0000
0013
0100
0001
,
1000
0100
0010
0010
0001
0001
1000
0100
,
0002
0000
0103
2000
0000
3001
0100
0001
,
1000
0100
0010
0010
0001
1000
0001
0001
,
1000
0010
0100
2000
0000
3100
0010
0000
,
1000
0100
0010
0010
0001
1000
0100
0010
,
2000
0000
3010
0002
0000
1003
1000
0010
,
0100
0001
0010
0010
0100
1000
0001
0001
,
0100
0100
0010
0020
0000
1030
0001
1000
,
0100
0010
0001
4000
0100
0000
0001
3000
,
0020
0000
0000
0000
1030
0000
0400
00M0
0000
0000
0301
0000
0001
0000
1000
0000
,
0001
0001
1000
0004
0100
0000
1000
0003
,
0100
0000
0010
0000
1000
0000
0040
0M00
0000
0000
0031
0000
1000
0000
0100
0000
,
1000
0001
0100
0040
1000
0000
0100
0030
,
2000
0000
0000
0000
3001
0000
0400
00M0
0000
0000
1300
0000
0001
0000
1000
0000
,
0001
1000
0100
0040
0001
0000
0001
0030
,
0100
0000
1000
0000
0001
0000
0040
0M00
0000
0000
1030
0000
0001
0000
1000
0000
,
1010
1000
0010
0002
0000
0000
0013
1000
,
0100
0001
0100
1000
0001
0100
0010
0002
,
0000
0000
0013
0100
0001
1000
1002
0000
,
2003
0000
3001
0400
0010
0000
0001
0300
,
0001
0100
0010
0002
0000
0000
0013
1000
,
0001
0010
2000
0000
3010
0001
1000
0100
,
1000
0000
1001
0001
0100
1000
0200
0000
,
0302
0000
1003
0040
0100
0000
1000
0030
,
2000
0000
0000
0000
3001
0000
0400
00M0
0000
0000
1300
0000
0001
0000
0010
0000
,
1000
0000
0010
0000
0001
0000
0040
0M00
0000
0000
1030
0000
0002
0000
0000
0000
,
1003
0000
1002
0000
1003
0001
0010
2000
,
0000
0000
3020
0000
0031
1000
0100
0000
,
2000
0000
0000
0000
3001
0000
0040
0M00
0000
0000
1030
0000
0100
0000
0010
0000
,
0100
0000
1000
0000
0010
0000
0400
00M0
0000
0000
1300
0000
1002
0000
0000
0000
,
1003
0000
0010
0M00
0010
0000
0001
0000
1000
0000
0100
00M0
0100
0000
0001
0000
,
0010
0100
0200
0000
1300
0010
0100
0001
,
1002
0000
0000
0000
1003
0000
0400
00M0
0000
0000
0301
0000
1000
0000
0010
0000
,
0100
0000
0001
0000
1000
0000
0040
0M00
0000
0000
0031
0000
2000
0000
0000
0000
,
3002
0000
0000
0000
1003
0000
0040
0M00
0000
0000
0031
0000
0010
0000
0100
0000
,
2000
0000
3001
0100
1000
0100
0010
0100
,
0002
0000
0000
0000
1003
0000
0400
00M0
0000
0000
0301
0000
0010
0000
0200
0000
,
0000
0000
1300
0000
0001
0000
0040
0M00
0000
0000
1030
0000
0002
0000
0000
0000
,
1003
0100
0001
1000
0010
0001
1000
0001
,
1000
0000
0100
0000
0001
0000
0100
0000
1000
0001
1000
0001
1000
0000
0001
0000
,
1000
0100
0000
1000
0100
0000
0001
0001
,
0200
0000
1300
2000
0000
3001
0100
0010
,
1000
0100
0010
0001
2000
0000
3001
0100
,
0001
0001
1000
1000
0020
1000
1030
0001
,
2000
0001
3001
0100
0010
1000
0001
0001
,
2000
0000
3100
0002
0000
0103
1000
1000
,
0002
0100
0103
0010
1000
0100
1000
1000
,
0100
0010
0100
0002
0000
0103
1000
0001
,
1000
0010
0100
0100
0001
1000
0100
0100
,
0002
0000
0103
1000
0000
0001
0100
0100
,
0001
1000
0010
0100
0100
0001
1000
0100
,
0010
0010
0001
0002
0000
1003
0010
0100
,
0001
0010
0001
0001
1000
0010
0100
0100
,
2000
0000
3100
0020
0000
1030
0100
0010
,
0001
0100
0010
0010
1000
0001
1000
1000
,
0001
0010
0100
2000
0000
3100
0010
0001
,
1000
0000
0001
0000
1000
0100
1000
0100
1000
0100
0000
0010
0001
1000
0001
0010
,
0000
0001
1000
0001
0000
1000
0100
0010
0001
0000
0100
0001
0100
0000
0010
0000
,
1000
0000
0001
0100
0001
0000
0100
0000
0010
0000
1000
0001
1000
0000
0100
0000
,
0010
0001
0010
0001
1000
0010
0100
0001
0000
0100
0010
1000
0001
0000
0010
0000
,
0001
1000
0001
0000
1000
0000
0010
0000
1000
0100
0010
0000
0001
0000
1000
0000
,
0001
0010
0100
0000
1000
0000
0010
0000
1000
0100
1000
0000
0001
0000
0100
0000
,
0010
1000
0010
0000
0100
0000
0001
0000
1000
0001
0100
0000
0010
0000
1000
0000
,
0100
0010
0001
0000
1000
0000
0010
0000
1000
0001
0010
0000
0100
0000
1000
0000
,
0001
0100
0010
0000
0100
0000
0001
0000
0100
0010
0100
0000
0010
0000
1000
0000
,
0100
0010
0001
0000
0100
0000
0010
0000
1000
0001
1000
0000
0001
0000
1000
0000
,
0001
0010
0100
1000
0100
0010
0001
0000
0100
0010
0100
0001
1000
0010
1000
0000
,
0001
0010
0100
1000
0100
0010
0001
0000
1000
0010
0100
0001
0100
0010
1000
0000
,
0001
0010
0001
0000
1000
0100
1000
0000
0001
0100
0001
0000
1000
0010
1000
0000
,
0001
0010
0100
0000
1000
0100
0010
0000
0001
1000
0001
0000
0100
0010
0100
0000
,
0001
1000
0100
0000
0010
0001
1000
0000
0001
0100
0010
0000
1000
0010
1000
0000
,
0001
0010
0001
0000
1000
0100
1000
0000
0001
0100
0010
0000
1000
0001
1000
0000
,
0002
0000
0000
0000
1003
0000
0400
00M0
0000
0000
0301
0000
0010
0000
0100
0000
,
1000
0000
0001
0000
1000
0000
0040
0M00
0000
0000
0031
0000
2000
0000
0000
0000
,
3002
0000
0000
0000
1003
0000
0040
0M00
0000
0000
0031
0000
1000
0000
0100
0000
,
0020
0000
0031
0100
0010
0100
1000
0100
,
0001
0000
0000
0000
1010
0000
0040
0M00
0000
0000
0031
0000
1000
0000
0200
0000
,
0000
0000
1300
0000
1100
0000
0400
00M0
0000
0000
0301
0000
2000
0000
0000
0000
,
3100
0000
0010
0000
0001
0000
1000
0000
0001
0000
0100
00M0
0100
0000
1000
0000
,
0001
0000
0010
0M00
0010
0000
1000
0000
0100
0000
0010
0000
0001
0000
0000
0000
,
1002
0000
0000
0000
1003
0000
0040
0M00
0000
0000
0031
0000
1000
0000
0100
0000
,
0010
0000
0001
0000
1000
0000
0040
0M00
0000
0000
0031
0000
1000
0000
0010
0000
,
0100
0000
0000
0000
0101
0000
0400
00M0
0000
0000
1300
0000
0001
0000
0100
0000
,
0010
0000
1010
0010
0100
0001
1000
0010
,
1000
0000
0000
0000
1010
0000
0040
0M00
0000
0000
0031
0000
0100
0000
0010
0000
,
1000
0000
0001
0000
0101
0000
0400
00M0
0000
0000
1300
0000
0020
0000
0000
0000
,
1030
0100
0001
1000
0001
0100
1000
0001
,
0100
0010
0001
0010
0100
0001
2000
3000
,
1001
0001
0100
0001
0010
0001
1000
0010
,
0200
0000
0301
0020
0000
0130
1000
0001
,
1001
0000
0000
0000
;

//--------------- dance-double - ----------------
#NOTES:
     dance-double:
     :
     Hard:
     15:
     0,0,0,0,0:
00000000
00000000
00000000
00000000
,
00000000
00000000
00000000
00000000
,
00000000
00000000
00000000
00000000
,
00000000
00000000
00000000
00000000
,
00010000
00001000
01000000
01000000
00100000
00100000
10000000
01000000
,
00020000
00000000
01030000
00200000
00000000
00310000
00100000
00001000
,
00010000
00000100
00001000
00001000
00000001
00000001
00001000
00000001
,
00001000
00000100
00000010
00002000
00000000
00003010
00000001
00000100
,
00000010
00010000
00001000
00001000
00010000
00010000
00001000
00020000
,
00100000
00030000
00010000
00002000
00000000
01003000
00100000
01000000
,
00010000
10000000
01000000
01000000
00100000
00100000
00010000
00100000
,
00010000
01000000
00100000
00020000
00000000
00130000
02000000
00000000
,
03001000
00010000
00000010
00000010
00000100
00000100
00000001
00000010
,
00002000
00000000
00003010
00000100
00000000
00001000
00000100
00010000
,
00001000
01000000
00100000
00100000
01000000
01000000
00010000
10000000
,
00010000
01000000
00100000
00020000
00000000
00130000
01000000
00010000
,
00110000
00000000
00100000
00000000
00001000
00000000
00010000
0000M000
00010000
00000000
00100000
00000000
00001000
00000000
00010000
00000000
,
00000200
00000000
01000300
00000200
00000000
00001300
00000001
00000100
,
00000010
00000000
00001000
00000000
00000100
00000000
00000010
0000000M
00000010
00000000
00001000
00000000
00000100
00000000
00010000
00000000
,
00001000
00010000
00100000
00020000
00000000
00031000
02000000
00000000
,
03010000
00000000
01000000
00000000
00010000
00000000
01000000
00M00000
01000000
00000000
10000000
00000000
00010000
00000000
00100000
00000000
,
20000000
00000000
30100000
00020000
00000000
00130000
00001000
00010000
,
00001000
00000100
00001000
00010000
00000100
00001000
00000001
00000010
,
00000100
00001000
00010000
00200000
00000000
00310000
10000000
00010000
,
10010000
10000000
01000000
00020000
00000000
00000000
00031000
00000100
,
00000001
00002000
00000000
00000000
00003001
00000100
00001000
00020000
,
00000000
00030000
00100000
10000000
00100000
00010000
00200000
00000000
,
02300000
00000000
03001000
00100000
00010000
00100000
00001000
00010000
,
00000010
00000100
00001000
00020000
00000000
00000000
00031000
00010000
,
00100000
02000000
00000000
00000000
03010000
01000000
10000000
02000000
,
00000000
00000000
03010000
00100000
00001000
00020000
00000000
00000000
,
00030020
00000000
00100030
00001000
00100000
00000100
00001000
00000001
,
00002001
00000000
00000000
00000000
00003001
00000000
00000100
000000M0
00000200
00000000
00000000
00000000
00001300
00000000
00000100
00000000
,
00010000
00000000
00001000
00000000
01000000
00000000
00100000
M0000000
00100000
00000000
00010000
00000000
00200000
00000000
00000000
00000000
,
00300020
00000000
00000000
00000000
00001030
00000000
00000100
000000M0
00000100
00000000
00000001
00000000
00001000
00000000
00000010
00000000
,
00010000
00000000
00012000
00000000
00103000
00100000
00010000
10000000
,
00020000
00000000
00000000
00000000
10030000
00000000
01000000
00M00000
02000000
00000000
00000000
00000000
03010000
00000000
00100000
00000000
,
00001000
00000000
00010000
00000000
00000010
00000000
00000100
000M0000
00000100
00000000
00001000
00000000
00000002
00000000
00000000
00000000
,
00000103
00001000
00000100
00000010
00001000
00010000
01000000
10000000
,
01000000
00100000
01000000
00001000
00010000
00000100
00010000
00000010
,
00002010
00000000
00000000
00000000
00003001
00000000
00000010
00000M00
00000020
00000000
00000000
00000000
00001030
00000000
00000100
00000000
,
00010000
00000000
00001000
00000000
00010000
00000000
00001000
00M00000
00001000
00000000
00000100
00000000
00020000
00000000
00000000
00000000
,
00032000
00000000
00000000
00000000
01003000
00000000
00100000
0M000000
00100000
00000000
00010000
00000000
01000000
00000000
00100000
00000000
,
20000000
00000000
30010000
00000000
10000000
01000000
00010000
00000100
,
00000002
00000000
00000000
00000000
00001003
00000000
00000100
000M0000
00000100
00000000
00000010
00000000
00001000
00000000
00000100
00000000
,
00000000
02000000
00000000
03010000
00100000
00000000
00101000
00000000
,
00001000
00010000
00100000
00010000
00001000
00000100
00000010
00000100
,
00001000
00000000
00010000
00000000
00001000
00000000
01000000
00000000
00100000
10000000
00000000
00010000
10000000
00000000
00000000
00000000
,
10002000
00000000
00000000
00010000
00000000
00000000
01003000
00000100
,
02000000
00000000
03001000
00020000
00000000
00030010
00000100
00000010
,
00010000
00001000
00010000
00001000
00020000
00000000
00000000
00000000
,
00000002
00000003
00000200
00000300
,
00030002
00000000
00000000
00010000
00000000
00000000
00000103
00000010
,
00020000
00000000
00031000
00010000
00000000
00001000
01000000
00100000
,
10000000
00100000
10000000
00100000
20000000
00000000
30002000
00000000
,
00023000
00000000
00000000
00000010
00000000
00000000
00030100
00000000
,
00002000
00000000
00000000
00000001
00000000
00000100
00003100
00010000
,
00002000
00000000
01003000
00200000
00000000
10300000
00010000
10000000
,
00002000
00000000
00000000
10000000
00000000
00100000
00103000
00010000
,
00100000
00001000
00010000
00000100
00001000
00000001
00000010
00000100
,
00020000
00000000
00000000
00000010
00000000
00000000
00030200
00000000
,
01000000
00000000
00000000
00010000
00000000
00000000
00001300
00000000
,
00000100
01000000
00000100
01000000
00001000
10000000
00001000
10000000
,
02000000
00000000
00200000
03300000
,
11000000
00000000
10000000
00000000
00010000
00000000
00100000
00000000
00001000
00010000
00000000
00001000
00010000
00000000
00000010
00000000
,
00001000
00000100
00000010
00000001
00000010
00000100
00001000
00000010
,
00010000
00001000
00010000
00001000
00100000
00010000
10000000
01000000
,
00100000
00010000
00000000
10000000
00000000
00001000
00000000
00010000
,
00000010
00000100
00000010
00001000
00000010
00000100
00000010
00001000
,
00000001
00000010
00000100
00001000
00010000
00100000
01000000
10000000
,
00010000
01000000
00010000
00100000
00001000
00010000
00001000
00100000
,
00001000
00010000
00000010
00001000
00000001
00000100
00000010
00001000
,
00000100
00000010
00001000
00010000
00001000
00100000
00010000
00100000
,
00010000
00001000
00010000
00100000
00010000
10000000
00100000
10000000
,
00010000
01000000
10000000
00010000
00100000
10000000
00010000
01000000
,
00100000
00010000
00100000
01000000
00010000
00100000
00001000
00010000
,
00100000
00010000
00001000
00000100
00001000
00010000
00000010
00000100
,
00001000
00000100
00000010
00001000
00000001
00000010
00000100
00001000
,
00000100
00010000
00001000
00000100
00001000
00010000
00001000
00100000
,
00010000
10000000
00010000
10000000
01000000
00010000
00001000
00000010
,
00000001
00000000
00000000
00000000
00010000
00000000
00001000
00000M00
00002000
00000000
00000000
00000000
00003100
00000000
00010000
00000000
,
00001000
00000000
00100000
00000000
00010000
00000000
00100000
0M000000
00100000
00000000
00000000
00000000
10100000
00000000
00000000
00000000
,
10020000
00000000
00000000
00000000
10030000
00000000
00100000
0M000000
00100000
00000000
00010000
00000000
01000000
00000000
00002000
00000000
,
00000000
00000000
00013000
00000100
00001000
00000010
00001000
00000000
,
00000001
00000000
00000000
00000000
00000001
00000000
00001000
00000M00
00001000
00000000
00010000
00000000
00001000
00000000
00100000
00000000
,
00010000
00000000
10000000
00000000
01000000
00000000
00100000
000M0000
00100000
00000000
10000000
00000000
00010000
00000000
00000000
00000000
,
10000000
01000000
00010000
00001000
00010000
00001000
00000100
00001000
,
00010000
00001000
00010000
01000000
00100000
00010000
00100000
00000000
,
00102000
00000000
00000000
00000000
00013000
00000000
00001000
00000M00
00002000
00000000
00000000
00000000
00003100
00000000
00001000
00000000
,
00000001
00000000
00000010
00000000
00000001
00000000
00000100
000000M0
00000100
00000000
00001000
00000000
00000010
00000000
00000000
00000000
,
00010010
00000000
00010000
00001000
00010000
00001000
01000000
00100000
,
20000000
00000000
30010000
00100000
01000000
10000000
01000000
10000000
,
10010000
00000000
00000000
00000000
10000000
00000000
01000000
00M00000
01000000
00000000
00001000
00000000
00010000
00000000
00001000
00000000
,
00010000
00000000
00000100
00000000
00010000
00000000
00001000
000000M0
00001000
00000000
00000100
00000000
00020000
00000000
00000000
00000000
,
00030100
00001000
00010000
00001000
00000100
00001000
00000100
00000001
,
00000100
00001000
00010000
00100000
10000000
00100000
00010000
00000000
,
10010000
00100000
00001000
00010000
00001000
00010000
00000100
00010000
,
00000200
00000000
00001300
00000200
00000000
00010300
00001000
00010000
,
00000010
00000000
00000000
00000000
;
