#TITLE:Reality;
#SUBTITLE:Pump It Up Fiesta EX (2011);
#ARTIST:SHK;
#TITLETRANSLIT:;
#SUBTITLETRANSLIT:;
#ARTISTTRANSLIT:;
#GENRE:;
#CREDIT:Kommisar;
#BANNER:reality-bn.jpg;
#BACKGROUND:reality-bg.jpg;
#LYRICSPATH:;
#CDTITLE:!cdtitle.png;
#MUSIC:reality.ogg;
#OFFSET:0.861000;
#SAMPLESTART:48.945087;
#SAMPLELENGTH:12.000000;
#SELECTABLE:YES;
#BPMS:0.000000=135.000000
,80.000000=67.500000
,88.000000=135.000000
;
#STOPS:
;
#BGCHANGES:2.500=reality.mp4=1.000=0=0=0=StretchNoLoop====,
99999=-nosongbg-=1.000=0=0=0 // don't automatically add -songbackground-
;
#KEYSOUNDS:;
#ATTACKS:;

//---------------dance-single - FS+ KS DS----------------
#NOTES:
     dance-single:
     :
     Challenge:
     14:
     0.616831,0.613314,0.235890,0.512805,0.507677,421.000000,398.000000,23.000000,50.000000,32.000000,0.000000,0.616831,0.613314,0.235890,0.512805,0.507677,421.000000,398.000000,23.000000,50.000000,32.000000,0.000000:
0000
0000
0000
0000
,
0000
0000
0000
0000
,
0000
0000
0000
0000
,
0000
0000
0000
0000
,
1002
0000
0000
0003
0010
0000
0210
0000
0000
0000
0000
0000
0300
0000
1000
0000
,
1020
0000
0000
0000
0130
0000
0102
0000
0000
0000
0000
0000
0000
0000
0013
0100
,
0010
0110
0000
1100
0000
1000
0000
0001
,
0101
0000
0100
0000
0010
0000
1000
0000
0001
0010
0001
0000
1000
0100
1000
0100
,
0020
0031
0100
0020
1030
0001
0100
0001
,
1000
0000
0100
0000
0010
0000
0002
0000
0103
0000
0010
0000
0100
0000
0001
1000
,
0100
0000
0100
0000
1000
0000
0020
0000
0000
0030
0100
0000
0001
0000
0010
0000
,
0110
0000
0110
0000
0110
0000
0000
0000
1000
0000
0000
0010
0000
0000
1000
0000
,
1001
0000
0001
0100
00M0
0100
1000
0000
0001
0010
0M00
0010
1000
0000
0001
0000
,
0200
0000
0000
0001
03M0
0100
1000
0000
0001
0010
0M00
0010
1000
0000
0100
0000
,
0020
0000
0000
0001
0M30
0010
1000
0000
0001
0100
00M0
0100
1000
0000
0010
0000
,
0200
0000
0000
0001
03M0
0100
1000
0000
0001
0010
0M00
0010
1000
0000
0001
0000
,
0200
0000
0000
0010
030M
0100
1000
0000
0001
0100
00M0
0100
1000
0000
0001
0000
,
0020
0000
0000
0001
0M30
0010
1000
0000
0001
0100
00M0
0100
1000
0000
0001
0000
,
0200
0000
0000
0010
030M
0100
1000
0000
0100
0010
000M
0010
1000
0000
0001
0000
,
0020
0000
0000
0001
0M30
0010
1000
0000
0001
0100
00M0
0100
1000
0010
1000
0010
,
0200
0000
0000
0000
0000
0000
0300
0000
0102
0000
0000
0000
0013
0000
0100
0000
2000
0000
0000
0000
0000
0000
3010
0100
0020
0000
0000
0000
0000
0030
1000
0000
,
2000
0000
0000
3000
0200
0000
0000
0300
0020
0000
0000
0030
0200
0000
0000
0300
2000
0000
0000
0000
0000
0000
0000
0000
3001
0000
0000
0000
1000
0010
1000
0010
,
1000
0000
0010
0000
0100
0000
0010
0000
1000
0100
00M0
0100
0001
0000
0010
0000
,
0100
0000
1000
0000
0100
0000
1000
0000
0001
0010
0M00
0010
1000
0000
0100
0000
,
0010
0000
0001
0000
0010
0000
0001
0000
1000
0100
00M0
0100
0001
0000
1000
0000
,
0010
0000
0100
0000
0100
0000
0001
0010
0001
0000
1000
0000
0001
0010
0100
1000
,
0002
0000
0010
0000
1003
000M
0020
0000
0100
0000
0030
0000
1000
0000
0100
0000
,
0020
0000
0001
0000
0130
00M0
2000
0000
0010
0000
0000
3000
0001
0000
0100
0010
,
0100
0000
0100
0000
0001
0000
0020
0000
0100
0030
2000
0000
3001
0000
0100
0010
,
1000
0000
0200
0000
1300
0000
0020
0000
0130
0001
1000
0001
0010
0000
0100
0000
,
2100
0000
0010
0000
3001
M000
0200
0000
0010
0000
0000
0000
0301
0000
1000
0000
,
0100
0000
0010
0000
0001
0000
0200
0000
0010
0000
0000
0000
0301
0000
1000
0100
,
1000
0000
1000
0000
0010
0000
0200
0000
0001
0300
1000
0000
0001
0000
0010
0000
,
0110
0000
0110
0000
0110
0000
0000
0000
1000
0000
0000
0001
0010
0000
0001
0000
,
1001
0000
1000
0010
0100
0000
0001
0000
1000
0100
00M0
0100
0001
0000
0010
0000
,
0100
0000
1000
0010
0100
0000
0001
0000
1000
0010
0M00
0010
0001
0000
1000
0000
,
0100
0000
1000
0001
0010
0000
0001
0000
1000
0100
00M0
0100
0001
0000
1000
0000
,
0010
0000
0100
0001
0100
0000
0001
0000
1000
0100
00M0
0100
0001
0000
1000
0000
,
1001
0000
0001
0010
0100
0000
1000
0000
0001
0010
0M00
0010
1000
0000
0001
0000
,
0100
0000
0010
1000
0100
0000
0010
0000
0001
0100
00M0
0100
1000
0000
0010
0000
,
0100
0000
0001
1000
0100
0000
1000
0000
0001
0010
0M00
0010
1000
0000
0010
0000
,
0100
0000
0001
0000
0001
0000
1000
0100
1000
0010
0100
0000
0010
1000
0010
1000
,
0002
0000
0010
0000
1003
000M
0020
0000
0100
0000
0030
0000
1000
0000
0100
0000
,
0020
0000
0001
0000
0130
00M0
2000
0000
0010
0000
0000
3000
0001
0000
0100
0010
,
0100
0000
0100
0000
0001
0000
0020
0000
0100
0030
2000
0000
3001
0000
0100
0010
,
1000
0000
0200
0000
1300
0000
0020
0000
0130
0001
1000
0001
0010
0000
0100
0000
,
2100
0000
0010
0000
3001
M000
0200
0000
0010
0000
0000
0000
0301
0000
1000
0000
,
0100
0000
0010
0000
0001
0000
0200
0000
0010
0000
0000
0000
0301
0000
1000
0100
,
1000
0000
1000
0000
0010
0000
0200
0000
0001
0300
1000
0000
0001
0000
0010
0000
,
0110
0110
0110
0000
1000
1010
0000
0002
,
0100
0000
0000
0000
0000
2000
0000
0000
0000
0000
0000
0000
0000
0000
0000
0000
,
0000
3000
0000
0000
0000
0000
0000
0000
0000
0000
0000
0000
0000
0000
0000
0000
,
0003
0000
0000
0000
;

//---------------dance-single - no tech----------------
#NOTES:
     dance-single:
     :
     Hard:
     13:
     0.606575,0.613314,0.246146,0.451268,0.476908,414.000000,390.000000,24.000000,44.000000,0.000000,0.000000,0.606575,0.613314,0.246146,0.451268,0.476908,414.000000,390.000000,24.000000,44.000000,0.000000,0.000000:
// measure 0
0000
0000
0000
0000
,  // measure 1
0000
0000
0000
0000
,  // measure 2
0000
0000
0000
0000
,  // measure 3
0000
0000
0000
0000
,  // measure 4
1002
0000
0000
0003
0010
0000
0210
0000
0000
0000
0000
0000
0300
0000
1000
0000
,  // measure 5
1020
0000
0000
0000
0130
0000
0102
0000
0000
0000
0000
0000
0000
0000
0013
0100
,  // measure 6
0010
0110
0000
1100
0000
1000
0000
0001
,  // measure 7
0101
0000
0100
0000
0010
0000
1000
0000
0001
0010
0001
0000
1000
0100
1000
0100
,  // measure 8
0020
0031
0100
0020
1030
0001
0100
0001
,  // measure 9
1000
0000
0100
0000
0010
0000
0002
0000
0103
0000
0010
0000
0100
0000
0001
1000
,  // measure 10
0100
0000
0100
0000
1000
0000
0020
0000
0000
0030
0100
0000
0001
0000
0010
0000
,  // measure 11
0110
0000
0110
0000
0110
0000
0000
0000
1000
0000
0000
0010
0000
0000
1000
0000
,  // measure 12
1001
0000
0001
0100
0000
0100
0001
0000
1000
0010
0000
0010
1000
0000
0001
0000
,  // measure 13
0010
0000
0010
0100
0000
0100
1000
0000
0001
0100
0000
0100
0001
0000
1000
0000
,  // measure 14
0100
0000
0100
0010
0000
0010
0001
0000
1000
0010
0000
0010
1000
0000
0010
0000
,  // measure 15
0100
0000
0100
0001
0000
0001
0010
0000
0001
1000
0000
1000
0100
0000
1000
0000
,  // measure 16
1020
0000
0030
0100
0000
0001
1000
0000
0100
0010
0000
0010
0100
0000
1000
0000
,  // measure 17
0010
0000
0010
0100
0000
0100
0001
0000
1000
0100
0000
0100
1000
0000
0010
0000
,  // measure 18
0100
0000
0100
0001
0000
0001
0010
0000
0100
1000
0000
1000
0010
0000
0100
0000
,  // measure 19
0001
0000
0001
0100
0000
0100
0001
0000
1000
0010
0000
0010
1000
0001
1000
0001
,  // measure 20
0200
0000
0000
0000
0000
0000
0300
0000
0102
0000
0000
0000
0013
0000
0100
0000
2000
0000
0000
0000
0000
0000
3010
0100
0020
0000
0000
0000
0000
0030
1000
0000
,  // measure 21
2000
0000
0000
3000
0200
0000
0000
0300
0020
0000
0000
0030
0200
0000
0000
0300
2000
0000
0000
0000
0000
0000
0000
0000
3001
0000
0000
0000
1000
0010
1000
0010
,  // measure 22
1000
0000
0010
0000
0100
0000
0010
0000
1000
0100
0000
0100
1000
0000
0010
0000
,  // measure 23
0100
0000
0001
0000
0100
0000
0001
0000
1000
0010
0000
0010
1000
0000
0100
0000
,  // measure 24
0010
0000
0001
0000
0010
0000
0001
0000
0100
0010
0000
0010
0100
0000
0001
0000
,  // measure 25
1000
0000
0100
0000
1000
0000
0001
0010
0001
0000
1000
0000
0001
0010
0100
1000
,  // measure 26
0002
0000
1003
0020
0000
0030
0100
0001
,  // measure 27
0020
0000
0000
0030
0100
0000
2000
0000
0000
0000
0000
3000
0001
0000
0100
0010
,  // measure 28
0100
0000
0100
0000
0001
0000
0020
0000
0100
0030
2000
0000
3001
0000
0100
0010
,  // measure 29
1000
0000
0200
0000
1300
0000
0020
0000
0130
0001
1000
0001
0010
0000
0100
0000
,  // measure 30
2100
0000
3001
0200
0000
0000
0301
1000
,  // measure 31
0100
0000
0010
0000
0001
0000
0200
0000
0000
0000
0000
0000
0301
0000
1000
0100
,  // measure 32
1000
0000
1000
0000
0010
0000
0200
0000
0001
0300
1000
0000
0001
0000
0010
0000
,  // measure 33
0110
0000
0110
0000
0110
0000
0000
0000
1000
0000
0000
0001
0010
0000
0001
0000
,  // measure 34
1001
0000
1000
0010
0100
0000
0001
0000
1000
0100
0000
0100
1000
0000
0010
0000
,  // measure 35
0100
0000
0001
0010
0001
0000
1000
0000
0100
0010
0000
0010
0100
0000
1000
0000
,  // measure 36
0010
0000
0100
0001
0100
0000
0001
0000
0010
0100
0000
0100
0010
0000
0001
0000
,  // measure 37
1000
0000
0010
0100
0010
0000
1000
0000
0001
0100
0000
0100
0001
0000
1000
0000
,  // measure 38
1001
0000
0001
0010
0100
0000
1000
0000
0001
0010
0000
0010
0100
0000
1000
0000
,  // measure 39
0010
0000
0100
0001
0100
0000
0010
0000
1000
0100
0000
0100
0010
0000
0001
0000
,  // measure 40
1000
0000
0010
0100
0010
0000
1000
0000
0001
0100
0000
0100
0010
0000
1000
0000
,  // measure 41
0001
0000
0010
0000
0001
0000
1000
0100
1000
0010
0100
0000
0010
1000
0010
1000
,  // measure 42
0002
0000
0000
0000
1003
0000
0020
0000
0000
0000
0000
0030
1000
0000
0100
0000
,  // measure 43
0020
0000
0000
0000
0130
0000
2000
0000
0000
0000
0000
3000
0001
0000
0100
0010
,  // measure 44
0100
0000
0100
0000
0001
0000
0020
0000
0100
0030
2000
0000
3001
0000
0100
0010
,  // measure 45
1000
0000
0200
0000
1300
0000
0020
0000
0130
0001
1000
0001
0010
0000
0100
0000
,  // measure 46
2100
0000
3001
0200
0000
0000
0301
1000
,  // measure 47
0100
0000
0010
0000
0001
0000
0200
0000
0000
0000
0000
0000
0301
0000
1000
0100
,  // measure 48
1000
0000
1000
0000
0010
0000
0200
0000
0001
0300
1000
0000
0001
0000
0010
0000
,  // measure 49
0110
0110
0110
0000
1000
1010
0000
0002
,  // measure 50
0100
0000
0000
0000
0000
2000
0000
0000
0000
0000
0000
0000
0000
0000
0000
0000
,  // measure 51
0000
3000
0000
0000
0000
0000
0000
0000
0000
0000
0000
0000
0000
0000
0000
0000
,  // measure 52
0003
0000
0000
0000
;
