#VERSION:0.83;
#TITLE:Rampage;
#SUBTITLE:;
#ARTIST:USAO;
#TITLETRANSLIT:;
#SUBTITLETRANSLIT:;
#ARTISTTRANSLIT:;
#GENRE:HARDCORE;
#CREDIT:;
#MUSIC:Rampage.ogg;
#BANNER:Rampage.png;
#BACKGROUND:Rampage-bg.png;
#CDTITLE:./CDTitles/bm IIDX 25 CANNON BALLERS.png;
#SAMPLESTART:22.629;
#SAMPLELENGTH:15.000;
#SELECTABLE:YES;
#OFFSET:0.742;
#BPMS:0.000=195.000
,156.000=97.500
,179.500=195.000
,404.000=24.375
;
#STOPS:179.500=0.154;
#TIMESIGNATURES:0.000=4=4;
#DISPLAYBPM:98.000:195.000;
#BGCHANGES:0.000=Rampage.mp4=1.000=0=0=0=StretchNoLoop====,
99999.000=-nosongbg-=1.000=0=0=0=StretchNoLoop====
;
#FGCHANGES:;

//--------------- dance-single - forcednature ----------------
#NOTEDATA:;
#STEPSTYPE:dance-single;
#DESCRIPTION:forcednature;
#DIFFICULTY:Beginner;
#METER:7;
#RADARVALUES:0,0,0,0,0;
#CREDIT:forcednature;
#NOTES:
0000
0000
0000
0000
,
0000
0000
0000
0000
,
0000
0000
0000
0000
,
0000
0000
0000
0000
,
0000
0000
0000
0000
,
0000
0000
0000
0000
,
0000
0000
0000
0000
,
1000
0000
1000
0000
,
0001
0000
0001
0000
,
0100
0010
0100
0010
,
0000
0000
0000
0000
,
1001
0000
0001
0000
,
0010
0000
0010
0000
,
0001
0000
0100
0000
,
0001
0000
0000
0000
,
1001
0000
1000
0000
,
0010
0000
0010
0000
,
1000
0000
0100
0000
,
1000
0000
0000
0000
,
0010
0010
0010
0010
,
0010
0010
0010
0010
,
1000
0001
1000
0001
,
0200
0000
0300
0000
,
0110
0000
0010
0000
,
1000
0000
0000
0000
,
0100
0000
1000
0000
,
0010
0000
0100
0000
,
0110
0000
0001
0000
,
0100
0000
0000
0000
,
0001
0000
0010
0000
,
0100
0000
0010
0000
,
1001
0000
1000
0000
,
0100
0000
1000
0000
,
0010
0000
1000
0000
,
0001
0000
0100
0000
,
0010
0100
0000
0100
,
0000
0100
0000
0100
,
0001
1000
0001
0000
,
2000
0000
3000
0000
,
0020
0000
0000
0000
,
0000
0000
0030
0000
,
0100
0000
0001
0000
,
0010
0010
0001
0000
,
0100
0000
0010
0000
,
1000
1000
0100
0000
,
2002
0000
0000
0000
,
3003
0000
0000
0000
,
0001
0000
0001
0000
,
0010
0000
0000
0000
,
0200
0000
0000
0000
,
0300
0000
0000
0000
,
1000
0000
1000
0000
,
0010
0000
0000
0000
,
0110
0000
0000
0000
,
0001
0000
0010
0000
,
0100
0000
0000
0000
,
1000
0000
0001
0000
,
1001
0000
0000
0000
,
1000
0000
0010
0000
,
0100
0000
0000
0000
,
0002
0000
0003
0000
,
1000
0001
1000
0001
,
1000
0001
1000
0001
,
0100
0010
0100
0010
,
0100
0010
0100
0010
,
1000
1000
1000
1000
,
0100
0100
0100
0100
,
0010
0010
0010
0010
,
0002
0000
0003
0000
,
1001
0000
1000
0000
,
1000
1000
1000
0000
,
0010
0000
0100
0000
,
0010
0000
0000
0000
,
1001
0000
0001
0000
,
0001
0001
0001
0000
,
0010
0000
0100
0000
,
0010
0000
0001
0000
,
1001
0000
1000
0000
,
0100
0000
1000
0000
,
0010
0000
0100
0000
,
0001
0000
0000
0000
,
0010
0010
0010
0010
,
0010
0010
0010
0010
,
0001
1000
0001
1000
,
0200
0000
0300
0000
,
1001
0000
0000
0000
,
1000
0000
0010
0000
,
0100
0000
0001
0000
,
0020
0000
0030
0000
,
1001
0000
0000
0000
,
0001
0000
0100
0000
,
0010
0000
1000
0000
,
0200
0000
0300
0000
,
1000
0000
0001
0001
,
1000
0000
0001
0000
,
0100
0000
0010
0010
,
0100
0000
0010
0000
,
1000
0000
0100
0100
,
1000
0000
0001
0000
,
0010
0010
0010
0010
,
0200
0000
0300
0000
,
2002
0000
3003
0000
;

//--------------- dance-single - forcednature ----------------
#NOTEDATA:;
#STEPSTYPE:dance-single;
#DESCRIPTION:forcednature;
#DIFFICULTY:Easy;
#METER:10;
#RADARVALUES:0,0,0,0,0;
#CREDIT:forcednature;
#NOTES:
0000
0000
0000
0000
,
0000
0000
0000
0000
,
0000
0000
0000
0000
,
0000
0000
0000
0000
,
0000
0000
0000
0000
,
0000
0000
0000
0000
,
0000
0000
0000
0000
,
1001
0000
0110
0000
,
1001
0000
0110
0000
,
1000
0100
0010
0001
,
0200
0000
0000
0300
,
0010
1000
0010
1000
,
0100
1000
0100
1000
,
0001
0010
0001
0010
,
0100
1000
0020
0030
,
0100
0001
0100
0001
,
0010
0001
0010
0001
,
1000
0001
1000
0000
0001
1000
0001
0000
,
0200
0020
0330
0000
,
1001
1001
1001
1001
,
1001
1001
1001
1001
,
1000
0100
0010
0001
,
0100
0010
0100
0010
0200
0000
0300
0000
,
1001
0000
0001
0010
,
1000
0010
0001
0000
,
1000
0000
0100
0000
1000
0001
1000
0000
,
0001
0010
0100
0000
,
1001
0000
1000
0010
,
0001
0010
1000
0000
,
0001
0000
0100
0000
0001
1000
0001
0000
,
1000
0010
0100
0000
,
0220
0000
0330
0000
0001
1000
0001
0000
,
0010
0100
1000
0010
,
1000
0000
0100
0000
1000
0001
1000
0000
,
0001
0010
0100
0000
,
0110
1000
0010
0100
,
0001
0010
0100
1000
,
0001
0100
0001
0000
1000
0100
1000
0000
,
0020
0200
0330
0000
,
2002
0000
0000
0000
,
0000
0000
0000
3003
,
1000
0001
0001
0100
,
0001
0001
0001
0000
0010
0000
0100
0000
,
1000
1000
1000
0000
0001
0001
0001
0000
,
0100
0000
0000
0000
0010
0000
0000
0000
1000
0000
0001
0000
1000
0001
1000
0000
,
0020
0000
0000
0000
,
0000
0000
0000
0000
,
0030
0000
0100
0010
,
0100
0001
0000
0000
,
1000
1000
0010
0100
,
0002
0000
0003
0000
,
0010
0001
0010
0000
,
0100
1000
0100
0000
,
1001
0000
1000
0100
,
0010
0000
0100
1000
,
0010
0000
0100
0001
,
0010
0000
0100
0000
,
1001
0000
0001
0010
,
0100
0000
0010
0001
,
0100
0000
0010
1000
,
0100
0010
0002
0003
,
0100
0010
0100
0010
,
1000
0001
1000
0001
,
0010
0100
0010
0100
,
1000
0001
1000
0001
,
1001
1001
1001
1001
,
1001
1001
1001
1001
,
0001
0100
0010
1000
,
0200
0010
0020
0330
,
1000
0000
0001
0000
0100
0001
0100
0000
,
0010
1000
0010
0000
0100
0001
0100
0000
,
0020
1000
0000
1000
,
0000
1030
0220
0330
,
0001
0000
1000
0000
0100
1000
0100
0000
,
0010
0001
0010
0000
0100
1000
0100
0000
,
0010
0001
0100
0001
,
0010
0000
0001
1000
0001
0000
1000
0000
,
2002
0000
3003
0000
1000
0100
1000
0000
,
0000
1000
0010
1000
,
0001
0000
1000
0000
0001
0100
0001
0000
,
0000
0010
0002
0003
,
1001
1001
1001
1001
,
1001
1001
1001
1001
,
1000
0100
0010
0001
,
0100
0010
0100
0010
0200
0000
0300
0000
,
1001
0000
0001
0000
0010
0100
1000
0000
,
0001
0100
0010
1000
,
0100
0000
0010
0000
0001
1000
0010
0000
,
0220
0000
0330
0000
,
1001
0000
0001
0000
1000
0010
0100
0000
,
0001
0000
0010
0000
0100
1000
0001
0000
,
0100
0000
0010
0000
1000
0001
0010
0000
,
0100
1000
0002
0003
,
1001
0000
1000
0000
0100
1000
0100
0000
,
0010
0001
1000
0010
,
0100
0000
0001
0000
0010
0001
0010
0000
,
0100
1000
0001
0000
,
0100
0000
0010
0000
1000
0010
1000
0000
,
0100
0000
0010
0000
0001
0010
0001
0000
,
0100
0000
0010
0000
0100
0010
0100
0000
,
0220
0000
0330
0000
,
2002
0000
3003
0000
;

//--------------- dance-single - forcednature ----------------
#NOTEDATA:;
#STEPSTYPE:dance-single;
#DESCRIPTION:forcednature;
#DIFFICULTY:Medium;
#METER:13;
#RADARVALUES:0,0,0,0,0;
#CREDIT:forcednature;
#NOTES:
0000
0000
0000
0000
,
0000
0000
0000
0000
,
0000
0000
0000
0000
,
0000
0000
0000
0000
,
0000
0000
0000
0000
,
0000
0000
0000
0000
,
0000
0000
0000
0000
,
1001
0000
0000
1000
0100
0000
0010
0000
,
1001
0000
0000
0001
0100
0000
0010
0000
,
0110
0000
1000
0001
1000
1000
1000
0000
,
0000
0020
0000
0000
0100
0000
0130
0000
,
1001
1000
0100
0001
,
0100
1000
0100
0000
1000
0000
1001
0000
,
0001
0010
1000
0010
,
0001
0010
0001
0000
0200
0000
0310
0000
,
1001
0001
0100
1000
,
0100
0001
0100
0000
0001
0000
1001
0000
,
1000
1000
1000
0000
0001
1000
0001
0000
,
0200
0001
0020
0330
,
1001
1001
0110
0110
,
1001
1001
0110
0110
,
1000
0001
1000
0001
0010
0100
0010
0100
,
1000
0001
1000
0001
0200
0000
0310
0000
,
1001
0000
1000
0010
0100
0000
0001
0000
,
0010
0000
1000
0000
0010
0001
1000
0000
,
0020
2030
3200
2300
,
3020
0000
2030
0000
3010
0100
0010
0000
,
1001
0000
0001
0010
0100
0000
1000
0000
,
0010
0000
0001
0000
0010
1000
0001
0000
,
0020
0032
0203
0302
,
0023
0000
0032
0000
0103
0010
0100
0000
,
0220
0000
0330
0000
0010
0010
1000
0000
,
0100
0000
0001
0000
0100
1000
0100
1000
,
0001
0000
0010
0000
0001
0001
0100
0000
,
0010
1000
0220
0330
,
1001
0000
1000
0100
1000
0000
1000
0001
,
1000
0000
1000
0010
1000
0000
0100
0000
,
0010
0001
0010
0001
1000
0100
1000
0100
,
0010
0001
0100
0010
1000
0001
1000
0000
,
2002
0000
0000
0000
,
0000
0000
0000
3003
,
1001
0000
0000
0001
0000
0010
0000
0100
0000
0000
0000
1000
0100
0000
1000
0000
,
0010
0000
0010
0000
0100
0010
0100
0000
0001
0000
0001
0000
0010
0001
0010
0000
,
0100
0000
1000
0000
0010
0000
0100
0000
0000
0000
0001
0010
0100
0000
1000
0000
,
0001
0000
0100
0000
0010
0000
1000
0001
1000
0000
0100
0000
0010
0000
0110
0000
,
2002
0000
0000
0000
,
0000
0000
0000
0000
,
0000
3003
0000
1000
0001
1000
0000
0010
,
0000
0100
0000
0000
0001
0000
0010
0000
,
0100
0000
0100
1000
0000
0010
0000
0220
,
0000
0000
0000
0000
,
0000
0330
0000
0001
1000
0001
0000
0010
,
0000
0100
0000
1000
0001
0000
0100
0000
,
0110
0000
0010
1000
0000
0100
0000
0020
,
0000
0030
0000
0001
0010
0000
0001
0100
,
0001
0000
0100
0010
0100
0000
0001
1000
,
0001
0000
0010
0100
1000
0000
0010
0000
,
0110
0000
0100
0000
0001
0000
1000
0002
,
0000
0003
0010
0002
0000
0003
0100
0020
,
0000
0030
1000
0000
0100
0000
1000
0000
,
0001
0010
0100
0000
2000
0000
3000
0000
,
1001
0100
1001
0100
,
1001
0010
1001
0010
,
0110
1000
0110
1000
,
0110
0001
0110
0001
,
1000
0010
1000
0010
0100
0001
0100
0001
,
1000
0100
1000
0100
0010
0001
0010
0001
,
0100
0010
0100
0010
1000
0100
0010
0001
,
0200
0000
0020
0330
,
0101
0000
1000
0000
0010
0100
0010
0100
,
0001
1000
0001
1000
0010
0100
0010
0100
,
0001
0011
1000
1010
,
0001
0011
2002
3003
,
1100
0000
0001
0000
0010
0100
0010
0100
,
1000
0001
1000
0001
0010
0100
0010
0100
,
1000
0000
0001
0000
0100
0001
0100
0000
,
0010
1000
0010
0000
0100
0000
0001
0000
,
2002
0000
3003
0000
1000
0010
1000
0000
,
0001
0000
0010
0000
1000
0000
0010
0001
,
0010
0000
0100
0000
0010
0001
1000
0000
,
0010
0000
0100
0001
1000
0010
0100
0000
,
0110
0110
1001
1001
,
0110
0110
1001
1001
,
1000
0100
1000
0100
0010
0001
0010
0001
,
0100
0010
1000
0001
0200
0000
0310
0000
,
1001
0000
0001
0100
0000
0010
0000
2000
,
0000
3000
0100
1000
0100
1000
0010
0100
,
0001
0010
0001
1000
0001
0100
0010
1000
,
0002
0100
0020
0033
,
1001
0000
0001
0010
0001
1000
0100
1000
,
0000
0010
0100
0001
0010
0001
0001
0010
,
0000
0100
1000
0010
0100
0010
1000
0001
,
0010
0100
1000
0001
0200
0000
0310
0000
,
0110
0000
1010
0000
1000
0100
0010
0000
,
0001
0100
1000
0100
,
0110
0000
0101
0000
0001
0010
0100
0000
,
1000
0010
0001
0010
,
1000
0010
1000
0010
0100
0001
0010
0100
,
1000
0001
1000
0001
0100
0010
1000
0100
,
0010
0001
0010
0001
1000
0010
0100
0001
,
0020
0100
0002
0033
,
2002
0000
3003
0000
;

//--------------- dance-single - forcednature ----------------
#NOTEDATA:;
#STEPSTYPE:dance-single;
#DESCRIPTION:forcednature;
#DIFFICULTY:Hard;
#METER:17;
#RADARVALUES:0,0,0,0,0;
#CREDIT:forcednature;
#NOTES:
0000
0000
0000
0000
,
0000
0000
0000
0000
,
0000
0000
0000
0000
,
0000
0000
0000
0000
,
0000
0000
0000
0000
,
0000
0000
0000
0000
,
0000
0000
0000
0000
,
1001
0000
1000
0100
0110
0000
0001
0000
,
1001
0000
0001
0100
0110
0000
1000
0000
,
0001
0010
0001
0010
0100
1000
0100
1000
0001
0100
0010
1000
0001
0010
0100
1000
,
0000
0010
0100
0010
0100
0000
0110
0000
,
1001
0000
0001
0010
0100
0010
0001
1000
,
0100
0001
0100
1000
0001
0010
0100
1000
,
0001
0000
1000
0010
0100
0010
0001
0010
,
2000
0000
3100
0010
0002
0000
0103
0000
,
1001
0000
0000
0000
0001
0000
0010
0000
0100
0000
0010
0000
0001
0000
0100
0010
,
1000
0100
1000
0001
0010
0100
1000
0001
,
0100
0000
0010
0100
0010
0000
0000
0000
1000
0000
0001
0100
0001
0000
1000
0100
,
2000
0000
0000
0000
3010
0000
0100
0000
0001
1000
0010
0100
0001
0000
0000
0000
,
1001
1001
0110
0110
,
1001
1001
0110
0110
,
1000
0100
0010
0001
1000
0010
0100
0001
,
1000
0010
0100
0001
0010
0100
1000
0001
0200
0000
0000
0000
0310
0000
0000
0000
,
1002
0000
0013
1000
0010
0001
1000
0000
,
0100
0010
0001
0000
0100
0010
1000
0000
,
0001
1000
1100
0000
1000
0001
0101
0000
,
0010
0100
0000
0000
0010
0100
0000
0000
0001
0000
1000
0000
1001
0000
0000
0000
,
2100
0000
3010
0001
0010
1000
0001
0000
,
0100
0010
1000
0000
0100
0010
0001
0000
,
1000
0000
0001
0000
0100
0001
0100
0000
0001
0000
1000
0000
0100
1000
0100
0000
,
0010
0001
0100
0010
1000
0100
0001
0000
,
0201
0000
1300
0000
0100
0010
0110
0000
,
0001
0000
0010
0000
0100
1000
0100
0000
1000
0000
0010
0000
0100
0001
0100
0000
,
0010
0000
0000
0000
0110
0000
0000
0000
1000
0000
0010
0000
0100
0010
0100
0000
,
0001
0000
1000
0000
0001
1000
0010
0000
0200
0000
0000
0000
0301
0000
0000
0000
,
1001
0000
0000
1000
0100
0000
1000
0000
0010
0000
0000
0100
0010
0000
0100
0000
,
0001
0000
0000
0010
0001
0000
0010
0000
0100
0000
0000
1000
0001
0000
0000
0000
,
0010
0001
0010
0100
1000
0000
0000
0000
0010
1000
0010
0100
0001
0000
0000
0000
,
0010
0001
0010
0000
0100
1000
0100
0000
0010
0001
0100
0000
0010
0000
0000
0000
,
2002
0000
0000
0000
,
0000
0000
0000
3003
,
1100
0000
0001
0010
0000
0100
0000
1000
0000
0000
0000
0001
0100
0010
1000
0100
,
0100
1000
1000
0001
0001
0100
0100
0010
1000
0001
0100
0010
1000
0001
0010
0100
,
1000
0000
0000
0000
0010
0000
0100
0000
0000
0000
0001
0000
1000
0000
0010
0000
0000
0000
0000
0000
1000
0100
0010
0001
1000
0000
0010
0000
0100
0000
0001
0000
,
0001
0000
0010
0000
0010
0000
0100
0000
0100
0000
1000
0000
0001
0000
0100
0001
0100
0000
0010
0000
1000
0000
0001
0000
0010
0000
0100
0000
0110
0000
0000
0000
,
2002
0000
0000
0000
,
0000
0000
0000
0000
,
0000
0000
3003
0000
0000
0000
1000
0001
1000
0000
0200
0000
0300
0000
0020
0000
,
0030
0002
0003
0100
0001
1000
0010
0100
,
0002
0000
0013
0200
0300
2000
3000
0002
,
0000
0000
0000
0000
,
0000
0000
0003
0000
0000
0000
0001
0010
0001
0000
0200
0000
0300
0000
0020
0000
,
0030
0000
2000
0000
3000
0000
0001
0100
0001
0000
0010
0000
0100
0000
1000
0000
,
1001
0000
0001
0100
0000
0010
0000
2000
,
0000
0000
3000
0000
0000
0000
0100
1000
0100
0000
0010
0000
0001
0000
0100
0000
,
0100
0010
0010
1000
1000
0001
0001
0010
,
0100
0000
1000
0000
0010
0000
0100
0001
0100
0000
0001
0010
0100
0000
1000
0000
,
1002
0000
0013
0001
0100
0010
1000
0002
,
0000
0013
0100
2000
0000
3001
0100
2000
,
0000
0000
3100
0000
0100
0000
0001
0000
0001
0000
0010
0000
0100
0000
1000
0001
,
0100
0000
0010
0000
1000
0000
0200
0000
0000
0000
0310
0001
1000
0000
0000
0000
,
1001
1001
0110
0110
,
1001
0000
1001
0000
0001
1000
0100
1000
,
1100
1100
0101
0101
,
1010
1010
0011
0011
,
0001
0100
0001
0100
1000
0100
1000
0100
,
0001
0010
1000
0010
0001
0100
0010
1000
,
0100
1000
0100
1000
0001
0010
0001
0010
0100
1000
0010
0100
0001
1000
0001
0010
,
0200
0000
0000
0000
0010
0010
0310
0000
,
1001
0000
0000
0000
1000
0000
0001
0000
1000
0100
0010
0000
0001
0000
0010
0000
,
0001
0100
0010
0000
1000
0000
0010
0000
1000
0100
0010
0000
0001
0000
0010
0000
,
0200
0000
0000
0000
1300
0000
0010
0000
0100
0001
0000
0000
0011
0000
0000
0000
,
0100
1000
0000
0000
1010
0000
0000
0000
0001
0100
0010
1000
0001
0000
0000
0000
,
1001
0000
0000
0000
0001
0000
0010
0000
0100
1000
0010
0000
0100
0000
0010
0000
,
0100
0001
0010
0000
0100
1000
0100
0010
0100
1000
0010
0000
0100
0000
0010
0000
,
0000
0000
0100
0001
0100
0000
0001
0000
1000
0000
0100
0000
1000
0000
0001
0000
,
0010
0000
0001
1000
0001
0000
0100
0000
0001
0000
0010
0000
1000
0000
0000
0000
,
1020
0000
0000
0000
0031
0000
0000
0000
0010
0000
0100
1000
0001
0000
0010
0000
,
0001
0000
0100
0010
0100
0000
0001
0000
1000
0000
0010
0100
0001
0000
0010
0100
,
2000
0000
0000
0000
3001
0000
0100
0000
0010
1000
0010
0100
0001
0000
0010
0000
,
0100
0000
1000
0100
1000
0000
0010
0000
0100
0001
0010
0000
0100
0000
0000
0000
,
0011
0011
0101
0101
,
1100
1100
1010
1010
,
0001
0010
0100
1000
0001
0100
0010
1000
,
0100
0010
0001
0100
0010
1000
0010
0100
0002
0000
0000
0000
0013
0000
0000
0000
,
1001
0000
1000
0100
0001
0100
1000
0001
,
0010
0000
0000
0000
0100
0000
1000
0100
1000
0000
0010
0100
0010
0000
0100
0000
,
0001
0000
1000
0010
0100
0000
0001
1000
0100
0000
0010
0001
1000
0000
0010
0000
,
0100
0001
1000
0010
0100
0001
1000
0010
0200
0000
0000
0000
0301
0000
0000
0000
,
1001
0000
0000
0000
0001
0000
0010
0000
1000
0000
0010
0000
0001
0000
0100
0010
,
1000
0000
0100
0000
1000
0000
0001
0010
0100
0000
1000
0100
1000
0000
0010
0100
,
0001
0010
0110
0100
1000
0010
0110
0100
,
0001
1000
0001
1000
0100
1000
0001
0010
0200
0000
0000
0000
0310
0000
0000
0000
,
0001
0100
0001
0000
0100
0000
0010
0000
1000
0000
0100
0000
1000
0000
0100
0000
,
0010
0001
0010
0100
1000
0000
0000
0000
0010
0000
0000
0000
1001
0000
0000
0000
,
1000
0100
1000
0000
0001
0000
0100
0000
0001
0010
0100
1000
0100
0000
1000
0000
,
0001
0100
0010
1000
0010
0000
0000
0000
0100
0000
0000
0000
1001
0000
0000
0000
,
0001
1000
0001
1000
0100
1000
0100
1000
0001
0010
0001
0010
0100
1000
0100
1000
,
0001
0100
0001
0100
0010
1000
0010
1000
0100
0010
0100
0010
0001
1000
0001
0100
,
0010
1000
0100
0010
0001
0100
0010
1000
0001
0100
0010
1000
0001
0100
0010
0100
,
0002
0000
0000
0000
1003
0000
0200
0000
0000
0000
0310
0001
0100
0000
0000
0000
,
2002
0000
3003
0000
;

//--------------- dance-double - forcednature ----------------
#NOTEDATA:;
#STEPSTYPE:dance-double;
#DESCRIPTION:forcednature;
#DIFFICULTY:Easy;
#METER:10;
#RADARVALUES:0,0,0,0,0;
#CREDIT:forcednature;
#NOTES:
00000000
00000000
00000000
00000000
,
00000000
00000000
00000000
00000000
,
00000000
00000000
00000000
00000000
,
00000000
00000000
00000000
00000000
,
00000000
00000000
00000000
00000000
,
00000000
00000000
00000000
00000000
,
00000000
00000000
00000000
00000000
,
00011000
00000000
00011000
00000000
,
00011000
00000000
00011000
00000000
,
00001000
00010000
00001000
00001000
,
00020000
00000000
00000000
00030000
,
00100000
00000000
10000000
00100000
,
10000000
01000000
10000000
01000000
,
00100000
00010000
00100000
00001000
,
00010000
00001000
00020000
00030000
,
00001000
00010000
00001000
00010000
,
00000100
00001000
00000100
00000010
,
00000001
00001000
00000001
00000000
00001000
00000000
00000001
00000000
,
00000200
00000000
00000300
00000000
,
00011000
00011000
00011000
00011000
,
00011000
00011000
00011000
00011000
,
00001000
00010000
00001000
00010000
,
00001000
00010000
00001000
00000000
00020000
00000000
00030000
00000000
,
00011000
00000000
01000000
00010000
,
00100000
00010000
01000000
00000000
,
00100000
10000000
01000000
00010000
,
00001000
00010000
00001000
00000000
,
00011000
00000000
00001000
00010000
,
00000100
00010000
00001000
00000000
,
00000010
00000000
00000001
00000000
00001000
00000001
00001000
00000000
,
00000010
00000100
00000001
00000000
,
00000220
00000000
00000330
00000000
00001000
00000001
00001000
00000000
,
00000001
00000010
00000100
00000000
,
00010000
00000000
00001000
00000000
00010000
00001000
00010000
00000000
,
00100000
10000000
01000000
00000000
,
01100000
00100000
00000000
00100000
,
00010000
01000000
00000000
01000000
,
00010000
01000000
00010000
00000000
00100000
00000000
00001000
00000000
,
00020000
00002000
00033000
00000000
,
00022000
00000000
00000000
00000000
,
00000000
00000000
00000000
00033000
,
00000100
00001000
00001000
00000010
,
00000100
00000100
00000100
00000000
00000001
00000000
00000010
00000000
,
00000100
00000100
00000100
00000000
00010000
00010000
00010000
00000000
,
00001000
00000000
00000000
00000000
00100000
00000000
00000000
00000000
00010000
00000000
10000000
00000000
00010000
10000000
00010000
00000000
,
00200000
00000000
00000000
00000000
,
00000000
00000000
00000000
00000000
,
00300000
00000000
01000000
10000000
,
01000000
00010000
00000000
00000000
,
00001000
00001000
00010000
00001000
,
00000020
00000000
00000030
00000000
,
00000001
00000010
00000100
00000000
,
00001000
00000001
00000100
00000000
,
00001001
00000000
00001000
00000010
,
00010000
00000000
00001000
01000000
,
00010000
00000000
00100000
01000000
,
10000000
00000000
00100000
00000000
,
10010000
00000000
10000000
01000000
,
00100000
00000000
00010000
01000000
,
00001000
00000000
00010000
00000010
,
00001000
00000001
00000200
00000300
,
00000010
00000100
00000010
00000100
,
00001000
00001000
00010000
00000000
,
00100000
01000000
00100000
01000000
,
00010000
00010000
00100000
00000000
,
00011000
00011000
00011000
00011000
,
00011000
00011000
00011000
00011000
,
00010000
00001000
00001000
00010000
,
00002000
00000000
00020000
00033000
,
00001000
00000000
00100000
00000000
00010000
00100000
00010000
00000000
,
01000000
00000000
00100000
00000000
10000000
00100000
10000000
00000000
,
02000000
10000000
00000000
10000000
,
00000000
03100000
02200000
03300000
,
00010000
00000000
00100000
00000000
00001000
00010000
00001000
00000000
,
00010000
00000000
00000100
00000000
00001000
00000100
00001000
00000000
,
00000010
00000100
00000001
00000100
,
00000010
00000000
00001000
00000001
00001000
00000000
00000001
00000000
,
00002002
00000000
00003003
00000000
00001000
00000100
00001000
00000000
,
00000000
00000010
00010000
00001000
,
00010000
00000000
00001000
00000000
01000000
00010000
01000000
00000000
,
00000000
00010000
00200000
00300000
,
00011000
00011000
00011000
00011000
,
00011000
00011000
00011000
00011000
,
00001000
00010000
00010000
00001000
,
00010000
00001000
00010000
00000000
00002000
00000000
00003000
00000000
,
00011000
00000000
00000100
00000000
00001000
00000100
00001000
00000000
,
00000010
00000100
00000001
00000000
,
00000010
00000000
00000100
00000000
00001000
00000010
00001000
00000000
,
00000220
00000000
00000330
00000000
,
00011000
00000000
00010000
00000000
00001000
00010000
00001000
00000000
,
00100000
00000000
00010000
00000000
01000000
00010000
01000000
00000000
,
00100000
10000000
01000000
00010000
,
00001000
00010000
00002000
00003000
,
00011000
00000000
00000000
00000000
00010000
00001000
00010000
00000000
,
00000100
00001000
00000010
00000000
,
00000100
00000000
00000001
00000000
00000010
00000001
00000010
00000000
,
00000100
00010000
00001000
00000000
,
00100000
00000000
00010000
00000000
01000000
00010000
01000000
00000000
,
00100000
10000000
01000000
00010000
,
00001000
00000000
00010000
00000000
00001000
00010000
00001000
00000000
,
00022000
00000000
00033000
00000000
,
00022000
00000000
00033000
00000000
;

//--------------- dance-double - forcednature ----------------
#NOTEDATA:;
#STEPSTYPE:dance-double;
#DESCRIPTION:forcednature;
#DIFFICULTY:Medium;
#METER:13;
#RADARVALUES:0,0,0,0,0;
#CREDIT:forcednature;
#NOTES:
00000000
00000000
00000000
00000000
,
00000000
00000000
00000000
00000000
,
00000000
00000000
00000000
00000000
,
00000000
00000000
00000000
00000000
,
00000000
00000000
00000000
00000000
,
00000000
00000000
00000000
00000000
,
00000000
00000000
00000000
00000000
,
00011000
00000000
00000000
00001000
00010000
00000000
00000000
00000000
,
01100000
00000000
00000000
00100000
01000000
00000000
00000000
00000000
,
10010000
00000000
10000000
00000000
00010000
10000000
00010000
00000000
,
00000000
00200000
00000000
00000000
00000000
00000000
00300000
00000000
,
10010000
10000000
01000000
00010000
,
00001000
00010000
00001000
00000000
00000010
00000000
00000000
00000000
,
00000001
00000100
00001000
00000100
,
00000001
00000100
00000001
00000000
00000010
00000000
00000000
00000000
,
00001001
00001000
00000100
00000001
,
00000100
00001000
00000100
00000000
00010000
00000000
00000000
00000000
,
00001000
00001000
00001000
00000000
00010000
00001000
00010000
00000000
,
00000020
00020030
00032000
00003000
,
00011000
00011000
00011000
00011000
,
00010000
00100000
10000000
01000000
,
00100000
00010000
00100000
00000000
00001000
00010000
00001000
00000000
,
00000010
00000100
00000010
00000100
00002000
00000000
00003001
00000000
,
00000101
00000100
00000010
00000100
,
00001000
00010000
01000000
00100000
,
02000000
23000000
32000000
03020000
,
00032000
00000000
00023000
00000000
00030100
00001000
00000100
00000000
,
00001010
00001000
00000010
00000001
,
00000010
00001000
00000100
00010000
,
00002000
00003020
00002030
00023000
,
00032000
00000000
00003200
00000000
00000301
00001000
00000001
00000000
,
00002002
00000000
00003003
00000000
00001000
00001000
00001000
00000000
,
00000001
00000010
00001000
00010000
,
00100000
00000000
10000000
00000000
00010000
00010000
00010000
00000000
,
10000000
00100000
00020000
00030000
,
00011000
00001000
00000100
00001000
,
00010000
01000000
00010000
00001000
,
00100000
00001000
00100000
00000000
00001000
00010000
00001000
00000000
,
00000010
00000100
00000010
00000100
00001000
00000001
00000010
00000000
,
00002002
00000000
00000000
00000000
,
00000000
00000000
00000000
00003003
,
00001000
00000000
00001000
00000001
00000000
00000100
00000000
00001000
00000000
00000000
00000000
00010000
00001000
00000000
00010000
00000000
,
00100000
00000000
00100000
00000000
10000000
00100000
10000000
00000000
01000000
00000000
00100000
00000000
00010000
00100000
01000000
00000000
,
10000000
00000000
01000000
00000000
00010000
00000000
00001000
00000000
00000000
00000000
00100000
00001000
00010000
00000000
00000100
00000000
,
00010000
00000000
00001000
00000000
00000010
00000000
00000001
00000010
00000001
00000000
00000100
00000000
00000010
00000000
00000110
00000000
,
00002002
00000000
00000000
00000000
,
00000000
00000000
00000000
00000000
,
00000000
00003003
00000000
00000001
00001000
00000001
00000000
00000100
,
00000000
00001000
00000000
00000000
00010000
00000000
00001000
00000000
,
00010000
00000000
00010000
00100000
00000000
10000000
00000000
02000000
,
00000000
00000000
00000000
00000000
,
00000000
03000000
00000000
00100000
01000000
00100000
00000000
00001000
,
00000000
00000010
00000000
00000100
00001000
00000000
00000001
00000000
,
00001001
00000000
00001000
00000010
00000000
00000100
00000000
00000002
,
00000000
00000003
00000000
00000010
00000100
00000000
00000010
00000001
,
00000010
00000000
00000100
00001000
00000100
00000000
00010000
00001000
,
00010000
00000000
00100000
01000000
00010000
00000000
10000000
00000000
,
10010000
00000000
00010000
00000000
00100000
00000000
01000000
20000000
,
00000000
30000000
00100000
02000000
00000000
03000000
00010000
00200000
,
00000000
00300000
00001000
00000000
00010000
00000000
00001000
00000000
,
00000010
00000100
00001000
00000000
00000002
00000000
00000003
00000000
,
00001001
00001001
00001001
00001001
,
00000001
00000010
00001000
00010000
,
00011000
00011000
00011000
00011000
,
00001000
00010000
01000000
10000000
,
00100000
10000000
00100000
00000000
01000000
00010000
01000000
00000000
,
00001000
00010000
00001000
00000000
00000010
00000000
00000100
00000000
,
00000010
00000001
00000010
00000001
00001000
00000100
00000010
00000000
,
00002002
00000000
00000000
00003003
,
00000101
00000000
00001000
00000000
00000010
00000100
00000010
00000100
,
00001000
00010000
00001000
00010000
00100000
01000000
00100000
01000000
,
00020000
10030000
20000000
30010000
,
00200000
01300000
20020000
30030000
,
11000000
00000000
00010000
00000000
00100000
01000000
00100000
01000000
,
00010000
00001000
00010000
00001000
00000010
00000100
00000010
00000100
,
00002000
00003001
00000002
00001003
,
00000020
00000230
00000302
00001003
,
00002002
00000000
00003003
00000000
00001000
00001000
00001000
00000000
,
00000001
00000010
00001000
00010000
,
00100000
00000000
10000000
00000000
00010000
00010000
00010000
00000000
,
10000000
00100000
00010000
00001000
,
00011000
00011000
00011000
00011000
,
00001000
00000010
00000001
00000100
,
00000010
00001000
00000010
00000000
00001000
00000100
00001000
00000000
,
00000100
00010000
00000100
00010000
00002000
00000000
00003000
00000000
,
00011000
00000000
00010000
00001000
00000000
00100000
00000000
00020000
,
00000000
00030000
01000000
00010000
01000000
00000000
00100000
10000000
,
00100000
00000000
10000000
01000000
10000000
00000000
00010000
00000000
,
00220000
00030000
00002000
00303000
,
00011000
00000000
00010000
00001000
00010000
00000000
00000010
00001000
,
00000010
00000000
00000100
00000001
00001000
00000001
00001000
00000000
,
00000010
00000100
00001000
00000000
00000010
00000010
00000010
00000000
,
00010000
00001000
00010000
00001000
02000000
00000000
03000000
00000000
,
01100000
00000000
10100000
00000000
10000000
01000000
00100000
00000000
,
00010000
01000000
00001000
00010000
,
00011000
00000000
00010100
00000000
00000100
00000100
00000100
00000000
,
00001000
00000001
00000100
00001000
,
00010000
00001000
00010000
00001000
01000000
00010000
01000000
00000000
,
00100000
10000000
00100000
10000000
01000000
10000000
01000000
00000000
,
00100000
00010000
00100000
00010000
01000000
00001000
00010000
00000010
,
00002000
00000002
00000000
00003003
,
00000220
00000000
00000330
00000000
;

//--------------- dance-double - forcednature ----------------
#NOTEDATA:;
#STEPSTYPE:dance-double;
#DESCRIPTION:forcednature;
#DIFFICULTY:Hard;
#METER:18;
#RADARVALUES:0,0,0,0,0;
#CREDIT:forcednature;
#NOTES:
00000000
00000000
00000000
00000000
,
00000000
00000000
00000000
00000000
,
00000000
00000000
00000000
00000000
,
00000000
00000000
00000000
00000000
,
00000000
00000000
00000000
00000000
,
00000000
00000000
00000000
00000000
,
00000000
00000000
00000000
00000000
,
00011000
00000000
00001000
00010000
00100000
00000000
10000000
00000000
,
10010000
00000000
10000000
01000000
00010000
00000000
00011000
00000000
,
00010000
00001000
00010000
00001000
00000010
00000000
00000100
00000000
00000010
00000001
00000010
00000001
00000100
00000010
00001000
00000100
,
00000000
00000001
00000100
00010000
00001000
00000000
00011000
00000000
,
00100000
00010000
01000000
00001000
00100000
00010000
01000000
10000000
,
01000000
00100000
00010000
00001000
00100000
00010000
00000010
00000100
,
00001000
00000000
00000001
00000100
00000001
00000010
00001000
00010000
,
02000000
00000000
13000000
00100000
02000000
00000000
03010000
00000000
,
10010000
00000000
10000000
00100000
01000000
00100000
00010000
00000000
,
00001000
00000100
00000001
00000010
00000100
00010000
00001000
00000000
,
00000010
00000000
00000001
00001000
00000001
00000000
00000000
00000000
00000100
00000000
00001000
00000000
00010000
00001000
00010000
00000000
,
00002000
00000000
00000000
00000000
01003000
00000000
00100000
00000000
10000000
00010000
01000000
00010000
01000000
00000000
00000000
00000000
,
01001000
01001000
00011000
00011000
,
00101000
00101000
00011000
00011000
,
01000000
00100000
00010000
00001000
00000100
00000010
00000100
00000001
,
00000010
00000100
00000010
00000100
00001000
00000001
00000010
00000100
00002000
00000000
00000000
00000000
00003010
00000000
00000000
00000000
,
00000002
00000000
00000103
00001000
00010000
00100000
10000000
00000000
,
01000000
00010000
00001000
00000000
00000100
00001000
00010000
00000000
,
00100000
00011000
00000010
00011000
,
00100000
01000000
00000000
00000000
00100000
01000000
00000000
00000000
10000000
00000000
00010000
00000000
10010000
00000000
00000000
00000000
,
20100000
00000000
31000000
00010000
00001000
00000010
00000001
00000000
,
00000100
00001000
00010000
00000000
01000000
00010000
00001000
00000000
,
00000010
00000001
00000100
00001000
00000100
00000001
00000010
00001000
,
00010000
00000000
00100000
00000000
01000000
00100000
01000000
00000000
00010000
00000000
10000000
00000000
01000000
00000000
00000000
00000000
,
01200000
00000000
00301000
00000000
00000010
00000100
00000110
00000000
,
00000010
00000001
00000100
00001000
00010000
01000000
00100000
01000000
,
10000000
00000000
01100000
00000000
00010000
00001000
00011000
00000000
,
00000010
00000100
00000001
00000010
00002000
00000000
00013000
00000000
,
00011000
00000000
00000000
00001000
01000000
00000000
00010000
00000000
00100000
00000000
00000000
01000000
00100000
00000000
00001000
00000000
,
00010000
00000000
00000000
00001000
00000010
00000000
00000001
00000000
00000010
00000000
00000000
00000100
00001000
00000000
00000000
00000000
,
00000001
00000100
00000001
00000100
00001000
00000000
00000000
00000000
00010000
00100000
00010000
00100000
10000000
00000000
00000000
00000000
,
01000000
00100000
00010000
00000000
01000000
00000000
00001000
00000000
00010000
00001000
00010000
00000000
00100000
00000000
00000000
00000000
,
20020000
00000000
00000000
00000000
,
00000000
00000000
00000000
30030000
,
10000000
00000000
10000000
01000000
00000000
00010000
00000000
00001000
00000000
00000000
00000000
00000010
00000100
00000010
00000001
00000100
,
00000100
00001000
00001000
00010000
00010000
01000000
01000000
00100000
00010000
01000000
00100000
10000000
01000000
00010000
00001000
00100000
,
00010000
00000000
00000000
00000000
01000000
00000000
00100000
00000000
00000000
00000000
00010000
00000000
00001000
00000000
00000010
00000000
00000000
00000000
00000000
00000000
00000100
00001000
00000100
00000010
00000001
00000000
00000100
00000000
00000001
00000000
00000010
00000000
,
00000010
00000000
00001000
00000000
00001000
00000000
00010000
00000000
00010000
00000000
00100000
00000000
10000000
00000000
01000000
10000000
01000000
00000000
00010000
00000000
00001000
00000000
00100000
00000000
01000000
00000000
00000000
00000000
01100000
00000000
00000000
00000000
,
20020000
00000000
00000000
00000000
,
00000000
00000000
00000000
00000000
,
00000000
30030000
00000000
10000000
00100000
00020000
00030000
00002000
,
00003000
00000200
00000300
00000001
00000100
00001000
00010000
00000010
,
00002000
00000000
00003100
00000020
00000030
00000002
00000003
00000200
,
00000000
00000000
00000000
00000000
,
00000000
00000300
00000000
00001000
00000100
00000002
00000003
00000020
,
00000030
00000000
00002000
00000000
00003000
00000000
00010000
00001000
00010000
00000000
00100000
00000000
10000000
00000000
01000000
00000000
,
01100000
00000000
00100000
00001000
00000000
00000010
00000000
00000200
,
00000000
00000000
00000300
00000000
00000000
00000000
00001000
00000001
00001000
00000000
00000001
00000000
00000010
00000000
00001000
00000000
,
00001000
00010000
00010000
00100000
00100000
10000000
10000000
01000000
,
00010000
00000000
00001000
00000000
00100000
00000000
00010000
00100000
00010000
00000000
01000000
00100000
10000000
00000000
01000000
00000000
,
01200000
00000000
00301000
00000010
00000001
00000010
00000100
00020000
,
00000000
00031000
00000100
00000002
00000000
00000103
00001000
00020000
,
00000000
00000000
00130000
00000000
00100000
00000000
00010000
00000000
00010000
00000000
00001000
00000000
00000010
00000000
00000001
00000010
,
00000100
00000000
00001000
00000000
00000001
00000000
00000200
00000000
00000000
00000000
00001300
00010000
00001000
00000000
00000000
00000000
,
00011000
00011000
00101000
00101000
,
00011000
00000000
00011000
00000000
00000010
00001000
00000001
00000010
,
00000110
00000110
00011000
00011000
,
01100000
01100000
10010000
10010000
,
00100000
00000000
00010000
00000000
10000000
00000000
00010000
00000000
10000000
00000000
01000000
00000000
00010000
00001000
00010000
00000000
,
00001000
00000000
00000100
00000000
00000001
00000000
00000010
00000000
00000100
00000000
00010000
00001000
00010000
00000000
00000000
00000000
,
00000010
00001000
00000010
00001000
00000010
00000000
00000100
00000000
00001000
00010000
00001000
00010000
00100000
01000000
00010000
10000000
,
00200000
01000000
00310000
00011000
,
00000110
00000000
00000001
00001000
00000001
00000010
00001000
00010000
,
00100000
00000000
10000000
00000000
00100000
00000000
00010000
00000000
00001000
00010000
00001000
00000000
00010000
00000000
00000010
00000000
,
00000200
00000000
00000000
00000000
00001300
00000000
00000100
00000000
00000001
00000010
00000000
00000000
00001100
00000000
00000000
00000000
,
00010000
00001000
00000000
00000000
00110000
00000000
00000000
00000000
10000000
01000000
00100000
00010000
01000000
00000000
00000000
00000000
,
01100000
00000000
10000000
00010000
10000000
00100000
00010000
00001000
,
00000010
00000000
00000001
00000000
00000010
00001000
00000010
00001000
00010000
00000000
00001000
00000000
00010000
00000000
00100000
00000000
,
00000000
00000000
01000000
00010000
01000000
00000000
00010000
00000000
00100000
00000000
01000000
00000000
10000000
00000000
01000000
00000000
,
00010000
00001000
00000010
00000001
00000100
00000100
00000010
00000000
,
00000120
00000000
00010030
00000000
00100000
01000000
01100000
00000000
,
00100000
10000000
01000000
00010000
00001000
00000100
00000010
00000100
,
00000001
00000000
00000110
00000000
00001000
00010000
00011000
00000000
,
00100000
01000000
10000000
00100000
00020000
00000000
00031000
00000000
,
00011000
00011000
01100000
01100000
,
00011000
00011000
00000110
00000110
,
00000001
00000100
00001000
00010000
01000000
10000000
00100000
10000000
,
01000000
00100000
01000000
00100000
00001000
00010000
00001000
00010000
00000200
00000000
00000000
00000000
00000310
00000000
00000000
00000000
,
00011000
00000000
00001000
00000010
00000000
00000001
00000000
00000200
,
00000000
00000000
00000300
00000000
00000000
00000000
00000010
00001000
00000010
00000000
00001000
00000100
00000010
00000000
00000001
00000000
,
00000100
00000000
00001000
00000000
00010000
00001000
00010000
00000000
00100000
00000000
10000000
00000000
01000000
10000000
01000000
00000000
,
00100000
00001000
00100000
00001000
00010000
00000100
00010000
00000100
00000020
00000000
00000000
00000000
00000130
00000000
00000000
00000000
,
00001001
00000000
00000001
00000100
00001000
00000100
00000010
00020000
,
00030000
00000000
00100000
00000000
10000000
00000000
02000000
00000000
03000000
00000000
00100000
00010000
00100000
00000000
00001000
00010000
,
00000010
00000000
00000100
00000000
00000001
00000000
00000100
00000000
00001000
00000000
00001000
00000000
00010000
00000000
00100000
01000000
,
00100000
10000000
01000000
00010000
00022000
00000000
00033000
00000000
,
00001000
00010000
01000000
00000000
00100000
00000000
00010000
00000000
10000000
00000000
01000000
00000000
10000000
00000000
01000000
00000000
,
00100000
00001000
00100000
00001000
00010000
00000000
00000000
00000000
00001000
00000000
00000000
00000000
00010000
00000000
00001000
00000000
,
00000100
00000000
00000001
00000010
00000100
00000010
00000001
00000000
00000010
00000000
00001000
00000000
00010000
00000000
01000000
00000000
,
10000000
01000000
00100000
00010000
10000000
00000000
00000000
00000000
01000000
00000000
00010000
00000000
00001000
00000000
00000100
00000000
,
00000001
00000010
00000100
00000010
00000001
00001000
00000001
00001000
00000010
00001000
00000010
00001000
00000010
00010000
00000010
00010000
,
00001000
00100000
00001000
00100000
00010000
10000000
00010000
10000000
01000000
00100000
01000000
00100000
00010000
10000000
00010000
10000000
,
00100000
01000000
00010000
01000000
00001000
00010000
00001000
00100000
00001000
00010000
00100000
10000000
01000000
00010000
00001000
00000100
,
00000001
00000000
00000000
00000000
00000101
00000000
00000000
00000000
00001000
00000100
00000010
00000000
00000001
00000000
00000000
00000000
,
00002200
00000000
00003300
00000000
;
