#VERSION:0.83;
#TITLE:Please Welcome Mr.C;
#SUBTITLE:;
#ARTIST:C-Show;
#TITLETRANSLIT:;
#SUBTITLETRANSLIT:;
#ARTISTTRANSLIT:;
#GENRE:Jazzy Holic;
#ORIGIN:;
#CREDIT:;
#BANNER:Please Welcome Mr.C.png;
#BACKGROUND:Please Welcome Mr.C-bg.png;
#PREVIEWVID:;
#JACKET:Please Welcome Mr.C-jacket.png;
#CDIMAGE:;
#DISCIMAGE:;
#LYRICSPATH:;
#CDTITLE:cdtitle.png;
#MUSIC:Please Welcome Mr.C.ogg;
#OFFSET:-2.021335;
#SAMPLESTART:18.716988;
#SAMPLELENGTH:16.695652;
#SELECTABLE:YES;
#BPMS:0.000=230.000,
56.000=115.000,
60.000=230.000,
116.000=115.000,
120.000=230.000,
176.000=115.000,
204.000=230.000,
212.000=115.000,
216.000=230.000,
248.000=115.000,
272.000=230.000,
280.000=115.000,
284.000=230.000,
340.000=115.000,
344.000=230.000;
#STOPS:;
#DELAYS:;
#WARPS:252.000=16.000;
#TIMESIGNATURES:0.000=4=4;
#TICKCOUNTS:0.000=4;
#COMBOS:0.000=1;
#SPEEDS:0.000=1.000=0.000=0;
#SCROLLS:0.000=1.000,
56.000=0.000,
57.000=1.000,
176.000=0.000,
177.000=1.000,
212.000=4.000,
212.250=2.000,
212.500=1.000,
268.000=0.000,
271.000=1.000,
280.000=0.000,
281.000=1.000;
#FAKES:;
#LABELS:0.000=Song Start;
#BGCHANGES:;
#KEYSOUNDS:;
#ATTACKS:
;

//---------------dance-single - ----------------
#NOTEDATA:;
#CHARTNAME:;
#STEPSTYPE:dance-single;
#DESCRIPTION:;
#CHARTSTYLE:;
#DIFFICULTY:Challenge;
#METER:15;
#RADARVALUES:0.661617,1.156133,0.695546,0.525901,0.865191,546.000000,464.000000,82.000000,62.000000,20.000000,0.000000,0.000000,0.000000,1.000000,0.661617,1.156133,0.695546,0.525901,0.865191,546.000000,464.000000,82.000000,62.000000,20.000000,0.000000,0.000000,0.000000,1.000000;
#CREDIT:;
#NOTES:
// measure 0
0000
0000
0000
0000
,  // measure 1
0000
0000
0000
0000
,  // measure 2
0000
0000
0000
0000
,  // measure 3
0000
0000
0000
0000
,  // measure 4
0000
0000
0000
0000
,  // measure 5
0000
0000
0000
0000
,  // measure 6
0000
0000
0000
0000
,  // measure 7
0000
0000
0000
0000
,  // measure 8
0001
0000
0010
0100
0000
2000
0000
0000
0001
0000
0000
0001
,  // measure 9
0000
0000
0001
0000
0000
3010
0100
0000
0100
0001
0000
0000
,  // measure 10
1000
0000
0010
0100
0000
0002
0000
0000
1000
0000
0000
1000
,  // measure 11
0000
0000
1000
0000
0000
0013
0100
0000
0100
1000
0000
0000
,  // measure 12
0001
0000
0100
0020
0000
1000
0000
0000
0130
0001
0000
0000
,  // measure 13
1000
0000
0100
0020
0000
0001
0000
0000
0130
1000
0000
0000
,  // measure 14
2002
0000
0000
0000
0000
0000
0000
0000
0000
0000
0000
0000
0000
0000
0000
0000
0000
0000
0000
0000
0000
0000
0000
0000
0000
0000
0000
0000
0000
0000
0000
0000
0000
0000
0000
0000
0000
0000
0000
0000
0000
0000
0000
0000
0000
0000
0000
0000
0000
0000
0000
0000
0000
0000
3003
0000
0000
0000
0000
0000
0000
0000
0000
0000
0000
0000
0000
0000
0000
0000
0000
0000
0000
0000
0000
0000
0000
0000
0000
0000
0000
0000
0000
0000
0000
0000
0000
0000
1000
0000
0000
0000
0000
0000
0000
0000
0000
0000
0000
0000
0000
0000
0000
0000
0000
0000
0000
0000
0000
0000
0000
0000
1000
0000
0000
0000
0000
0000
0000
0000
0000
0000
0000
0000
0000
0000
0000
0000
0000
0000
0000
0000
0000
0000
0000
0000
1000
0000
0000
0000
0000
0000
0000
0000
0010
0000
0000
0000
0000
0000
0000
0000
0000
0000
0000
0000
0000
0000
0000
0000
0100
0000
0000
0000
0000
0000
0000
0000
0001
0000
0000
0000
0000
0000
0000
0000
0000
0000
0000
0000
0000
0000
0000
0000
0000
0000
0000
0000
0000
0000
0000
0000
,  // measure 15
1001
0000
1000
0200
0000
0000
0001
0000
0000
0010
0000
0000
,  // measure 16
1300
0000
1100
00M0
0000
0101
0000
0000
0001
1000
0000
0001
,  // measure 17
0010
0000
0001
0200
0000
0000
1000
0000
0000
0010
0000
0000
,  // measure 18
0301
0000
0101
00M0
0000
1100
0000
0000
1000
0001
0000
1000
,  // measure 19
0010
0000
1000
0200
0000
0000
0001
0000
0000
0010
0000
0000
,  // measure 20
1300
0000
1100
00M0
0000
0101
0000
0000
0001
1000
0000
0001
,  // measure 21
0010
0000
0001
0200
0000
0000
0010
0000
0000
0301
0000
1001
,  // measure 22
0000
0000
1001
0000
0000
1000
0100
0000
1000
0010
0000
0000
,  // measure 23
1001
0000
0001
0020
0000
0000
1000
0000
0000
0100
0000
0000
,  // measure 24
0031
0000
0011
0M00
0000
1010
0000
0000
1000
0001
0000
1000
,  // measure 25
0100
0000
1000
0020
0000
0000
0001
0000
0000
0100
0000
0000
,  // measure 26
1030
0000
1010
0M00
0000
0011
0000
0000
0001
1000
0000
0001
,  // measure 27
0100
0000
0001
0020
0000
0000
1000
0000
0000
0100
0000
0000
,  // measure 28
0031
0000
0011
0M00
0000
1010
0000
0000
1000
0001
0000
1000
,  // measure 29
0200
0000
0000
0010
0000
0000
2300
0000
0000
3010
0000
0100
0000
0000
0100
0000
0000
0010
1000
0000
0100
0010
0000
0000
,  // measure 30
0002
0003
0020
0030
,  // measure 31
0002
0010
2003
0100
,  // measure 32
3001
0000
0000
0010
0000
0000
0001
0000
0010
0000
0000
0001
,  // measure 33
0010
0100
1100
0000
,  // measure 34
2000
3000
0020
0030
,  // measure 35
2000
0010
3002
0100
,  // measure 36
1003
0020
0000
0000
,  // measure 37
0030
0000
1000
0010
0000
0100
0001
0000
1000
0000
0000
0000
,  // measure 38
2200
3300
0022
0033
,  // measure 39
1001
1010
1001
0011
,  // measure 40
1001
1000
0010
0100
,  // measure 41
0001
0000
0000
0010
0000
0100
0000
0000
1000
0001
0000
0000
,  // measure 42
0102
0013
2100
3010
,  // measure 43
0101
0011
1100
1010
,  // measure 44
2002
0000
0000
0000
0000
0000
0000
0000
0000
0000
0000
0000
0000
0000
0000
0000
0000
0000
0000
0000
0000
0000
0000
0000
0000
0000
0000
0000
0000
0000
0000
0000
0000
0000
0000
0000
0000
0000
0000
0000
0000
0000
0000
0000
0000
0000
0000
0000
0000
0000
0000
0000
0000
0000
3003
0000
0000
0000
0000
0000
0000
0000
0000
0000
0000
0000
0000
0000
0000
0000
0000
0000
0000
0000
0000
0000
0000
0000
0000
0000
0000
0000
0000
0000
0000
0000
0000
0000
1000
0000
0000
0000
0000
0000
0000
0000
0000
0000
0000
0000
0000
0000
0000
0000
0000
0000
0000
0000
0000
0000
0000
0000
1000
0000
0000
0000
0000
0000
0000
0000
0000
0000
0000
0000
0000
0000
0000
0000
0000
0000
0000
0000
0000
0000
0000
0000
1000
0000
0000
0000
0000
0000
0000
0000
0100
0000
0000
0000
0000
0000
0000
0000
0000
0000
0000
0000
0000
0000
0000
0000
0010
0000
0000
0000
0000
0000
0000
0000
0001
0000
0000
0000
0000
0000
0000
0000
0000
0000
0000
0000
0000
0000
0000
0000
0000
0000
0000
0000
0000
0000
0000
0000
,  // measure 45
1002
0000
0000
0100
0000
0103
0000
0000
0101
0000
0000
1001
0000
0000
0001
0010
0M00
0010
1000
0000
0001
0010
0000
0000
,  // measure 46
0210
0000
0000
1000
0000
1300
0000
0000
1010
0000
0000
0101
0000
0000
1000
0100
00M0
0100
0002
0000
0000
0010
0000
0000
,  // measure 47
1003
0000
1000
0010
0000
1000
0200
0000
0000
0001
0000
0000
0310
0000
0000
0010
0000
0001
0200
0000
0000
1000
0000
0000
,  // measure 48
0310
0000
0000
0100
0000
0000
0110
0000
0000
0000
0000
1001
0000
0000
1001
0000
0000
0001
0010
0000
0001
0100
0000
0000
,  // measure 49
1001
0000
0000
MMMM
0000
0000
1000
0000
1100
0000
0000
1001
0000
0000
1000
0010
0M00
0010
0001
0000
1000
0010
0000
0000
,  // measure 50
0210
0000
0000
0001
0000
0301
0000
0000
0011
0000
0000
1100
0000
0000
0001
0100
00M0
0100
1000
0000
0001
0100
0000
0000
,  // measure 51
0101
0000
0000
0000
0000
1010
0000
0000
0000
0001
0000
0000
,  // measure 52
1100
0000
0000
0000
0000
0011
0000
0000
1000
0001
0000
0000
,  // measure 53
2002
0000
3003
0000
2000
0010
3002
0010
,  // measure 54
1003
0000
0000
1010
0000
0000
1010
0000
0000
1000
0000
0010
,  // measure 55
0000
0000
0100
0000
0000
0010
1000
0000
0010
1000
0000
0000
,  // measure 56
0001
0000
0000
0011
0000
0000
0011
0000
0000
0001
0000
0010
,  // measure 57
0000
0000
0100
0000
0000
0010
0001
0000
0010
0001
0000
0000
,  // measure 58
1000
0000
0000
1010
0000
0000
0101
0000
0000
0001
0000
0010
,  // measure 59
0000
0000
0100
0000
0000
1000
0010
0000
0100
0001
0000
0000
,  // measure 60
1000
0000
0100
0010
0000
0001
1000
0000
0001
0100
0000
0010
,  // measure 61
2000
0000
3001
0000
,  // measure 62
1001
0000
0110
0000
0001
0010
1000
0010
,  // measure 63
0002
0000
0000
0000
,  // measure 64
0003
0000
0000
0000
,  // measure 65
0000
0000
0000
0000
,  // measure 66
0000
0000
0000
0000
,  // measure 67
0001
0000
0000
0000
,  // measure 68
0011
0000
0000
1000
0000
0000
1010
0000
0000
0001
0000
1000
,  // measure 69
0100
0000
0010
0001
0000
1000
0010
0000
0100
0001
0000
1000
,  // measure 70
0200
0000
0000
0000
0000
0000
0000
0000
0000
0000
0000
0000
0000
0000
0000
0000
0000
0000
0000
0000
0000
0000
0000
0000
0000
0000
0000
0000
0000
0000
0000
0000
0000
0000
0000
0000
0000
0000
0000
0000
0000
0000
0000
0000
0000
0000
0000
0000
0000
0000
0000
0000
0000
0000
0300
0000
0000
0000
0000
0000
0000
0000
0000
0000
0000
0000
0000
0000
0000
0000
0000
0000
0000
0000
0000
0000
0000
0000
0000
0000
0000
0000
0000
0000
0000
0000
0000
0000
1000
0000
0000
0000
0000
0000
0000
0000
0000
0000
0000
0000
0000
0000
0000
0000
0000
0000
0000
0000
0000
0000
0000
0000
1000
0000
0000
0000
0000
0000
0000
0000
0000
0000
0000
0000
0000
0000
0000
0000
0000
0000
0000
0000
0000
0000
0000
0000
1000
0000
0000
0000
0000
0000
0000
0000
0010
0000
0000
0000
0000
0000
0000
0000
0000
0000
0000
0000
0000
0000
0000
0000
0100
0000
0000
0000
0000
0000
0000
0000
0001
0000
0000
0000
0000
0000
0000
0000
0000
0000
0000
0000
0000
0000
0000
0000
0000
0000
0000
0000
0000
0000
0000
0000
,  // measure 71
1001
0000
0001
0020
0000
0000
1000
0000
0000
0130
0000
0010
,  // measure 72
0001
0000
0011
0M00
0000
1010
0000
0000
1000
0010
0000
0100
,  // measure 73
0001
0000
1000
0200
0000
0000
0001
0000
0000
0310
0000
0100
,  // measure 74
1000
0000
0001
0200
0000
0001
0000
0300
010M
1000
0000
0000
,  // measure 75
1001
0000
0001
0200
0000
0000
1000
0000
0000
0310
0000
0100
,  // measure 76
0001
0000
0101
00M0
0000
1100
0000
0000
0001
0100
0000
0010
,  // measure 77
1000
0000
0001
0020
0000
0000
0100
0000
0000
0031
0000
1001
,  // measure 78
0000
0000
1001
0000
0000
0001
0100
0000
0001
0010
0000
0000
,  // measure 79
1001
0000
1000
0020
0000
0000
0001
0000
0000
0130
0000
0010
,  // measure 80
1000
0000
1010
0M00
0000
0011
0000
0000
0001
0010
0000
0100
,  // measure 81
1000
0000
0001
0200
0000
0000
1000
0000
0000
0310
0000
0100
,  // measure 82
0001
0000
1000
0200
0000
1000
0000
0300
M100
0001
0000
0000
,  // measure 83
1001
0000
1000
0200
0000
0000
0001
0000
0000
0310
0000
0100
,  // measure 84
1000
0000
1100
00M0
0000
0101
0000
0000
0001
0010
0000
0001
,  // measure 85
0200
0000
0000
0000
0000
0000
0010
0000
0000
0000
0000
0000
0302
0000
0000
0000
0000
0000
0013
0000
0000
0000
0100
0000
0000
0000
0000
0000
0100
0000
0000
0000
0000
0000
0010
0000
0002
0000
0000
0003
0000
0000
2000
0000
0000
3000
0000
0000
,  // measure 86
1001
0000
0001
0100
0000
0020
0000
0000
1000
0000
0000
1000
,  // measure 87
0000
0000
1030
0000
0000
0010
0100
0000
0100
0001
0000
0000
,  // measure 88
1001
0000
1000
0100
0000
0020
0000
0000
0001
0000
0000
0001
,  // measure 89
0000
0000
0031
0000
0000
0010
0100
0000
0100
1000
0000
0000
,  // measure 90
1001
0000
0001
0200
0000
0010
0000
0000
0301
1000
0000
0000
,  // measure 91
1001
0000
1000
0200
0000
0010
0000
0000
1300
0001
0000
0000
,  // measure 92
1001
0000
0001
0200
0000
0001
0000
0000
0010
0000
0000
1000
,  // measure 93
0000
0000
0010
0000
0000
0301
0100
0000
0001
0010
0000
0000
,  // measure 94
0110
0000
0000
0000
;

//---------------dance-single - ----------------
#NOTEDATA:;
#CHARTNAME:;
#STEPSTYPE:dance-single;
#DESCRIPTION:;
#CHARTSTYLE:;
#DIFFICULTY:Hard;
#METER:12;
#RADARVALUES:0.519842,0.956800,0.491972,0.805815,0.483489,429.000000,371.000000,58.000000,95.000000,0.000000,0.000000,0.000000,0.000000,1.000000,0.519842,0.956800,0.491972,0.805815,0.483489,429.000000,371.000000,58.000000,95.000000,0.000000,0.000000,0.000000,0.000000,1.000000;
#CREDIT:;
#NOTES:
0000
0000
0000
0000
,
0000
0000
0000
0000
,
0000
0000
0000
0000
,
0000
0000
0000
0000
,
0000
0000
0000
0000
,
0000
0000
0000
0000
,
0000
0000
0000
0000
,
0000
0000
0000
0000
,
0001
0001
0010
0010
,
1000
0010
0001
0001
,
1000
1000
0010
0010
,
0001
0010
1000
1000
,
0001
0010
0110
0000
,
1000
0010
0110
0000
,
2002
0000
0000
0000
0000
0000
0000
0000
0000
3003
0000
0000
0000
0000
0000
0000
1000
0000
0000
0000
0001
0000
0000
0000
1000
0000
0000
0000
1001
0000
0000
0000
,
0001
0000
1000
0200
0000
0000
0302
0000
0000
0203
0000
0000
,
0310
0000
0100
0000
0000
1100
0000
0000
1100
0000
0000
0001
,
1000
0000
0001
0200
0000
0000
2300
0000
0000
3200
0000
0000
,
0310
0000
0100
0000
0000
0101
0000
0000
0101
0000
0000
1000
,
0001
0000
1000
0200
0000
0000
0302
0000
0000
0203
0000
0000
,
0310
0000
0100
0000
0000
1100
0000
0000
1100
0000
0000
0001
,
1000
0000
0001
0200
0000
0000
0320
0000
0000
2030
0000
3100
,
0000
0000
0010
0000
0000
0000
0002
0003
0000
2000
3000
0000
,
0001
0000
1000
0020
0000
0000
0032
0000
0000
0023
0000
0000
,
0130
0000
0010
0000
0000
1010
0000
0000
1010
0000
0000
0001
,
1000
0000
0001
0020
0000
0000
2030
0000
0000
3020
0000
0000
,
0130
0000
0010
0000
0000
0011
0000
0000
0011
0000
0000
1000
,
0001
0000
1000
0020
0000
0000
0032
0000
0000
0023
0000
0000
,
0130
0000
0010
0000
0000
1010
0000
0000
1001
0000
0000
1000
,
0100
0000
0000
0020
0000
0000
0032
0000
0000
2003
0000
3010
0000
0000
0010
0000
0000
1000
0010
0000
0100
0001
0000
0000
,
1000
0000
0100
0000
,
1000
0100
0010
0001
,
1000
0000
0001
0000
,
1000
0001
1001
0000
,
0001
0000
0100
0000
,
0001
0100
0010
1000
,
0001
0020
0000
0000
,
0030
0010
0110
0000
,
2000
3000
0002
0003
,
2000
0010
3002
0100
,
1003
0001
0001
0010
,
0100
1000
0010
0100
,
0002
0003
2000
3000
,
0002
0010
2003
0100
,
0002
0000
0000
0000
0000
0000
0000
0000
0000
0000
0000
0000
0000
0000
0000
0000
0000
0000
0000
0000
0000
0000
0000
0000
0000
0000
0000
0000
0000
0000
0000
0000
0000
0000
0000
0000
0000
0000
0000
0000
0000
0000
0000
0000
0000
0000
0000
0000
0000
0000
0000
0000
0000
0000
3003
0000
0000
0000
0000
0000
0000
0000
0000
0000
0000
0000
0000
0000
0000
0000
0000
0000
0000
0000
0000
0000
0000
0000
0000
0000
0000
0000
0000
0000
0000
0000
0000
0000
0001
0000
0000
0000
0000
0000
0000
0000
0000
0000
0000
0000
0000
0000
0000
0000
0000
0000
0000
0000
0000
0000
0000
0000
0010
0000
0000
0000
0000
0000
0000
0000
0000
0000
0000
0000
0000
0000
0000
0000
0000
0000
0000
0000
0000
0000
0000
0000
0001
0000
0000
0000
0000
0000
0000
0000
0010
0000
0000
0000
0000
0000
0000
0000
0000
0000
0000
0000
0000
0000
0000
0000
0100
0000
0000
0000
0000
0000
0000
0000
1000
0000
0000
0000
0000
0000
0000
0000
0000
0000
0000
0000
0000
0000
0000
0000
0000
0000
0000
0000
0000
0000
0000
0000
,
1002
0000
0000
0000
0000
1003
0000
0000
0001
0000
0000
0001
0000
0000
0100
0010
0000
0000
1000
0000
0000
1010
0000
0000
,
2001
0000
0000
0000
0000
3001
0000
0000
1000
0000
0000
1000
0000
0000
0100
0010
0000
0000
0001
0000
0000
0011
0000
0000
,
0012
1000
0103
0000
2010
0001
3100
0000
,
0220
0000
0000
0330
0000
0000
2002
0000
0000
3003
0000
1000
0000
0000
0010
0000
0000
1000
0010
0000
0100
0001
0000
0000
,
2001
0000
0000
3100
0000
0000
0010
0000
0100
0000
0000
0001
0000
0000
0100
0010
0000
0000
0100
0000
0000
1100
0000
0000
,
1002
0000
0000
0103
0000
0000
0010
0000
0100
0000
0000
1000
0000
0000
0100
0010
0000
0000
0100
0000
0000
0101
0000
0000
,
1001
0000
0000
0000
0000
0011
0000
0000
0000
1000
0000
0000
,
1001
0000
0000
0000
0000
1010
0000
0000
0000
0001
0000
0000
,
2002
0000
3003
0000
0002
0003
2000
3000
,
0001
0000
0000
0010
0000
0000
0100
0000
0000
0010
0000
0001
,
0000
0000
0001
0000
0000
0010
0100
0000
0000
0100
0000
0000
,
1000
0000
0000
0010
0000
0000
0100
0000
0000
0010
0000
1000
,
0000
0000
1000
0000
0000
0010
0100
0000
0000
0100
0000
0000
,
0001
0000
0000
0010
0000
0000
0100
0000
0000
1000
0000
0010
,
0000
0000
0100
0000
0000
0001
1000
0000
0000
0100
0000
0000
,
0020
0032
2003
3002
,
0203
0000
0310
0000
,
1001
0000
0110
0000
0001
0010
1000
0010
,
0002
0000
0000
0000
,
0003
0000
0000
0000
,
0000
0000
0000
0000
,
0000
0000
0000
0000
,
0001
0000
0000
0000
,
2000
0010
3002
0010
,
2003
3020
0230
0302
,
2000
0000
0000
0000
0000
0000
0000
0000
0000
0000
0000
0000
0000
0000
0000
0000
0000
0000
0000
0000
0000
0000
0000
0000
0000
0000
0000
0000
0000
0000
0000
0000
0000
0000
0000
0000
0000
0000
0000
0000
0000
0000
0000
0000
0000
0000
0000
0000
0000
0000
0000
0000
0000
0000
3003
0000
0000
0000
0000
0000
0000
0000
0000
0000
0000
0000
0000
0000
0000
0000
0000
0000
0000
0000
0000
0000
0000
0000
0000
0000
0000
0000
0000
0000
0000
0000
0000
0000
0000
0000
0000
0000
0000
0000
0000
0000
1000
0000
0000
0000
0000
0000
0000
0000
0000
0000
0000
0000
0000
0000
0000
0000
0000
0000
0000
0000
0000
0000
0000
0000
0001
0000
0000
0000
0000
0000
0000
0000
0000
0000
0000
0000
0000
0000
0000
0000
1000
0000
0000
0000
0000
0000
0000
0000
0001
0000
0000
0000
0000
0000
0000
0000
0000
0000
0000
0000
0000
0000
0000
0000
0000
0000
0000
0000
0000
0000
0000
0000
1001
0000
0000
0000
0000
0000
0000
0000
0000
0000
0000
0000
0000
0000
0000
0000
0000
0000
0000
0000
0000
0000
0000
0000
,
0001
0021
2030
3020
,
0031
0000
0001
0000
0000
1001
0000
0000
0001
1000
0000
0001
,
0100
0210
2300
3200
,
0301
0000
0100
0001
0000
0020
0000
0000
0130
0010
0000
0000
,
0100
0210
0302
0203
,
1300
0000
1000
0000
0000
1001
0000
0000
0001
0100
0000
0010
,
1000
0000
0000
1010
0000
0000
0101
0000
0000
0001
0000
0010
,
0000
0000
0100
0000
0000
0000
2000
3000
0000
0002
0003
0000
,
1000
1020
0032
0023
,
1030
0000
1000
0000
0000
1001
0000
0000
1000
0001
0000
1000
,
0100
0210
0302
0203
,
1300
0000
0100
1000
0000
0020
0000
0000
0130
0010
0000
0000
,
0100
0210
2300
3200
,
0301
0000
1000
0000
0000
1001
0000
0000
1000
0100
0000
0010
,
0001
2000
3020
0230
0301
0000
0110
0110
,
2001
0000
0000
0000
0000
0001
0000
0000
0001
0000
0000
0001
,
0000
0000
0001
0000
0000
3100
0010
0000
0000
0001
0000
0000
,
1002
0000
0000
0000
0000
1000
0000
0000
1000
0000
0000
1000
,
0000
0000
1000
0000
0000
0103
0010
0000
0000
1000
0000
0000
,
2010
0000
0000
0000
0000
0010
0000
0000
3001
0000
0000
0000
,
0012
0000
0000
0000
0000
0010
0000
0000
1003
0000
0000
0000
,
2002
0000
0000
3003
0000
0001
0000
0000
0100
0000
0000
1000
,
0000
0000
0100
0000
0000
0001
0010
0000
0000
0100
0000
0000
,
0110
0000
0000
0000
;

//---------------dance-single - ----------------
#NOTEDATA:;
#CHARTNAME:;
#STEPSTYPE:dance-single;
#DESCRIPTION:;
#CHARTSTYLE:;
#DIFFICULTY:Medium;
#METER:10;
#RADARVALUES:0.367161,0.637867,0.339291,0.398667,0.000000,303.000000,263.000000,40.000000,47.000000,0.000000,0.000000,0.000000,0.000000,1.000000,0.367161,0.637867,0.339291,0.398667,0.000000,303.000000,263.000000,40.000000,47.000000,0.000000,0.000000,0.000000,0.000000,1.000000;
#CREDIT:;
#NOTES:
0000
0000
0000
0000
,
0000
0000
0000
0000
,
0000
0000
0000
0000
,
0000
0000
0000
0000
,
0000
0000
0000
0000
,
0000
0000
0000
0000
,
0000
0000
0000
0000
,
0000
0000
0000
0000
,
0001
0010
0001
0000
,
0010
0100
1000
0000
,
1000
0010
1000
0000
,
0010
0100
0001
0000
,
1000
0001
0011
0000
,
0001
1000
1010
0000
,
1001
0000
0000
0000
0001
1000
0001
0000
,
1000
0100
0010
0001
,
1000
0000
1000
1100
,
0001
0100
0010
1000
,
0001
0000
0001
0101
,
1000
0100
0010
0001
,
1000
0000
1000
1100
,
0001
0100
0010
1000
,
0100
0000
1001
1001
,
1000
0010
0001
0010
,
1000
0000
0010
1010
,
0001
0010
1000
0010
,
0001
0000
0010
0011
,
1000
0010
0001
0010
,
1000
0000
1000
1010
,
1001
0000
0000
0000
1000
0001
1000
0000
,
0001
0000
0010
0000
,
0100
0010
0100
0010
,
0001
0000
1000
0000
,
0001
0000
1001
0000
,
1000
0000
0010
0000
,
0100
0010
0100
0010
,
2000
0000
0000
0000
,
3000
1000
1000
0000
,
0002
0003
0020
0030
,
0002
0023
0230
2300
,
3002
0003
0100
0000
,
0010
1000
0100
0000
,
2000
3000
0020
0030
,
2000
3020
0230
0302
,
1003
0000
0000
0000
0001
1000
0001
0000
,
1002
0000
0013
0000
0100
0010
0001
0000
,
2001
0000
3010
0000
0100
0010
1000
0000
,
0002
0010
0013
0000
2000
0010
3010
0000
,
0022
0033
2200
3300
0001
0100
0010
1000
,
2010
0000
3100
0000
1000
0100
0010
0000
,
0012
0000
0103
0000
0001
0100
0010
0000
,
1010
0000
0000
0001
,
0011
0000
0000
1000
,
2002
0000
3003
0000
2000
3000
0002
0003
,
1000
0010
0100
0000
,
0100
0010
1000
0000
,
0001
0010
0100
0000
,
0100
0010
0001
0000
,
1000
0010
0100
0000
,
0001
0010
0100
0000
,
1000
0010
0100
0001
,
2000
0000
3001
0000
,
1001
0000
0110
0000
0001
0010
0100
1000
,
0002
0000
0000
0000
,
0003
0000
0000
0000
,
0000
0000
0000
0000
,
0000
0000
0000
0000
,
0001
0000
0000
0000
,
2002
3003
0220
0330
,
2000
3020
0230
0302
,
1003
0000
0000
0000
1000
0001
1000
0000
,
0001
0010
1000
0010
,
0011
0000
1000
1000
,
0001
0100
1000
0100
,
0010
0010
1001
0000
,
1000
0100
0001
0100
,
1100
0000
0001
0001
,
1000
0010
0100
0001
,
0010
0000
1001
1001
,
1000
0010
0001
0010
,
1010
0000
0001
0001
,
1000
0100
0001
0100
,
0010
0010
1001
0000
,
0001
0100
1000
0100
,
0101
0000
1000
0001
,
1000
0000
0000
0000
0000
0000
0001
0010
,
0022
0000
0000
0000
,
0033
0000
0000
1000
,
2020
0000
0000
0000
,
3030
0000
0000
0001
,
0202
0303
1000
0001
,
2200
3300
0001
1000
,
0202
0000
0000
0303
,
0001
0100
0001
0010
,
0110
0000
0000
0000
;

//---------------dance-single - ----------------
#NOTEDATA:;
#CHARTNAME:;
#STEPSTYPE:dance-single;
#DESCRIPTION:;
#CHARTSTYLE:;
#DIFFICULTY:Easy;
#METER:8;
#RADARVALUES:0.283550,0.558133,0.288397,0.296879,0.000000,234.000000,200.000000,34.000000,35.000000,0.000000,0.000000,0.000000,0.000000,1.000000,0.283550,0.558133,0.288397,0.296879,0.000000,234.000000,200.000000,34.000000,35.000000,0.000000,0.000000,0.000000,0.000000,1.000000;
#CREDIT:;
#NOTES:
0000
0000
0000
0000
,
0000
0000
0000
0000
,
0000
0000
0000
0000
,
0000
0000
0000
0000
,
0000
0000
0000
0000
,
0000
0000
0000
0000
,
0000
0000
0000
0000
,
0000
0000
0000
0000
,
0001
0000
0001
0000
,
0001
0000
0010
0100
,
1000
0000
1000
0000
,
1000
0000
1000
0010
,
0200
0000
0310
0000
,
0200
0010
0310
0000
,
1001
0000
0000
0000
0001
1000
0001
0000
,
1000
0100
0010
0000
,
0110
0000
0001
0000
,
0001
0100
0010
0000
,
0110
0000
1000
0000
,
1000
0100
0010
0000
,
0110
0000
0001
0000
,
0001
0100
0010
0000
,
1010
0000
1000
1000
,
0010
1000
0100
0000
,
0110
0000
0100
0000
,
0010
0001
0100
0000
,
0110
0000
0100
0000
,
0010
1000
0100
0000
,
0110
0000
0100
0000
,
1001
0000
0000
0000
1000
0001
1000
0000
,
0001
0000
0100
0000
,
0010
0000
1000
0000
,
0100
0000
0000
0000
,
0000
0000
0110
0000
,
1000
0000
0100
0000
,
0010
0000
0001
0000
,
0200
0000
0000
0000
,
0300
0000
0100
0000
,
0002
0003
0020
0030
,
0200
0300
2000
3000
,
0020
0030
0100
0000
,
0001
0000
0001
0000
,
2000
3000
0020
0030
,
0200
0300
0002
0003
,
0010
0000
0000
0000
0001
1000
0001
0000
,
1002
0103
0010
1000
,
2001
3100
0010
0001
,
2000
3010
0002
0013
,
1010
0000
0101
0000
1000
0001
1000
0000
,
1002
0010
1000
0103
,
2001
0010
0001
3100
,
1100
0000
0000
0000
,
0101
0000
0000
0000
,
2002
3003
0000
0000
,
1000
0000
1000
0000
,
1000
0010
1000
0000
,
0001
0000
0001
0000
,
0001
0010
0001
0000
,
1000
0000
0010
0000
,
1000
0010
0100
0000
,
0001
0010
0100
0000
,
2000
0000
3001
0000
,
1000
0100
0001
0010
,
2000
0000
0000
0000
,
3000
0000
0000
0000
,
0000
0000
0000
0000
,
0000
0000
0000
0000
,
1000
0000
0000
0000
,
0002
0003
0200
0300
,
2000
3000
0020
0030
,
0001
0000
0000
0000
1000
0001
1000
0000
,
0001
0010
0100
0000
,
1100
0000
0101
0000
,
0001
0100
0010
0000
,
0010
1000
0100
0000
,
1000
0100
0010
0000
,
0011
0000
1010
0000
,
0001
1000
0100
0000
,
0110
0000
0001
0001
,
1000
0010
0100
0000
,
0101
0000
1100
0000
,
1000
0100
0010
0000
,
0010
0001
0100
0000
,
0001
0100
0010
0000
,
1010
0000
0011
0000
,
1000
0000
0000
0000
0000
0000
0001
1000
,
2002
0000
0000
0000
,
3003
0000
0000
0000
,
0220
0000
0000
0000
,
0330
0000
0000
0000
,
2002
3003
0010
0000
,
2002
3003
0100
0000
,
2002
0000
3003
0000
,
1000
0001
0010
0000
,
0110
0000
0000
0000
;

//---------------dance-single - ----------------
#NOTEDATA:;
#CHARTNAME:;
#STEPSTYPE:dance-single;
#DESCRIPTION:;
#CHARTSTYLE:;
#DIFFICULTY:Beginner;
#METER:3;
#RADARVALUES:0.141775,0.318933,0.135716,0.033929,0.000000,117.000000,101.000000,16.000000,4.000000,0.000000,0.000000,0.000000,0.000000,4.000000,0.141775,0.318933,0.135716,0.033929,0.000000,117.000000,101.000000,16.000000,4.000000,0.000000,0.000000,0.000000,0.000000,4.000000;
#CREDIT:;
#NOTES:
0000
0000
0000
0000
,
0000
0000
0000
0000
,
0000
0000
0000
0000
,
0000
0000
0000
0000
,
0000
0000
0000
0000
,
0000
0000
0000
0000
,
0000
0000
0000
0000
,
0000
0000
0000
0000
,
0001
0000
0000
0000
,
0001
0000
0000
0000
,
1000
0000
0000
0000
,
1000
0000
0000
0000
,
0001
0000
0000
0000
,
1000
0000
0000
0000
,
1001
0000
0000
0000
,
1000
0000
1000
0000
,
1000
0000
0000
0000
,
0010
0000
0010
0000
,
0010
0000
0000
0000
,
0100
0000
0100
0000
,
0100
0000
0000
0000
,
0001
0000
0001
0000
,
1000
0000
0000
0000
,
0001
0000
0001
0000
,
0001
0000
0000
0000
,
0010
0000
0010
0000
,
0010
0000
0000
0000
,
0100
0000
0100
0000
,
0100
0000
0000
0000
,
1001
0000
0000
0000
,
1000
0000
0000
0000
,
0010
0000
0000
0000
,
0100
0000
0000
0000
,
0000
0000
0000
0000
,
0001
0000
0000
0000
,
0010
0000
0000
0000
,
0100
0000
0000
0000
,
0000
0000
0000
0000
,
2000
0000
3000
0000
,
0020
0000
0030
0000
,
0100
0000
0000
0000
,
0001
0000
0000
0000
,
0020
0000
0030
0000
,
0200
0000
0300
0000
,
1000
0000
0000
0000
,
1001
0000
0010
0000
,
1001
0000
0100
0000
,
0001
0000
1000
0000
,
0001
0001
0001
0000
,
0110
0000
1000
0000
,
0110
0000
0001
0000
,
1001
0000
0000
0000
,
1001
0000
0000
0000
,
1001
0000
0000
0000
,
0001
0000
0000
0000
,
0010
0000
0000
0000
,
0100
0000
0000
0000
,
1000
0000
0000
0000
,
0010
0000
0000
0000
,
0100
0000
0000
0000
,
0001
0000
0000
0000
,
1000
0000
0001
0000
,
1000
0000
0100
0000
,
0010
0001
0000
0000
,
0000
0100
0000
0000
,
0000
0010
0000
0000
,
0000
0000
0000
0000
,
0010
0000
0000
0000
,
0001
0000
0000
0000
,
0100
0000
0000
0000
,
0010
0000
0000
0000
,
1000
0000
1000
0000
,
0010
0000
0000
0000
,
1000
0000
1000
0000
,
0100
0000
0000
0000
,
1000
0000
1000
0000
,
0010
0000
0000
0000
,
1000
0000
0001
0000
,
1000
0000
0000
0000
,
0001
0000
0001
0000
,
0010
0000
0000
0000
,
0001
0000
0001
0000
,
0100
0000
0000
0000
,
0001
0000
0001
0000
,
0010
0000
0000
0000
,
1001
0000
0000
0000
,
1001
0000
0000
0000
,
0000
0000
0000
0000
,
0110
0000
0000
0000
,
0000
0000
0000
0000
,
1001
0000
0000
0000
,
0110
0000
0000
0000
,
1001
0000
0000
0000
,
0000
0000
0000
0000
,
0110
0000
0000
0000
;
