#VERSION:0.83;
#TITLE:Please Welcome Mr.C;
#SUBTITLE:;
#ARTIST:C-Show;
#TITLETRANSLIT:;
#SUBTITLETRANSLIT:;
#ARTISTTRANSLIT:;
#GENRE:SWING HOLIC;
#ORIGIN:;
#CREDIT:;
#BANNER:Please Welcome Mr.C.png;
#BACKGROUND:Please Welcome Mr.C-bg.png;
#PREVIEWVID:;
#JACKET:Please Welcome Mr.C-jacket.png;
#CDIMAGE:;
#DISCIMAGE:;
#LYRICSPATH:;
#CDTITLE:;
#MUSIC:Please Welcome Mr.C.ogg;
#OFFSET:0.010000;
#SAMPLESTART:85.553001;
#SAMPLELENGTH:14.820000;
#SELECTABLE:YES;
#BPMS:0.000=230.000;
#STOPS:;
#DELAYS:;
#WARPS:;
#TIMESIGNATURES:0.000=4=4;
#TICKCOUNTS:0.000=4;
#COMBOS:0.000=1;
#SPEEDS:0.000=1.000=0.000=0;
#SCROLLS:0.000=1.000;
#FAKES:;
#LABELS:0.000=Song Start;
#BGCHANGES:3.500=Please Welcome Mr.C.mp4=1.000=0=0=1===CrossFade_Faster==,
99999=-nosongbg-=1.000=0=0=0 // don't automatically add -songbackground-
;
#KEYSOUNDS:;
#ATTACKS:
;

//---------------dance-single - ----------------
#NOTEDATA:;
#CHARTNAME:;
#STEPSTYPE:dance-single;
#DESCRIPTION:;
#CHARTSTYLE:;
#DIFFICULTY:Hard;
#METER:15;
#RADARVALUES:0.684420,1.064351,0.165505,0.531359,1.202091,550.000000,531.000000,19.000000,61.000000,35.000000,0.000000,1.000000,0.000000,0.000000,0.684420,1.064351,0.165505,0.531359,1.202091,550.000000,531.000000,19.000000,61.000000,35.000000,0.000000,1.000000,0.000000,0.000000;
#CREDIT:BlindedVanguard573;
#NOTES:
0000
0000
0000
0000
,
0000
0000
0000
0000
,
0000
0000
0000
0000
,
0000
0000
0000
0000
,
0000
0000
0000
0000
,
0000
0000
0000
0000
,
0101
0000
0000
1000
,
1100
0000
0000
0010
,
1001
0000
0000
0000
,
0000
0000
0000
0000
,
2010
0000
0000
0001
0000
0000
0100
0000
0000
3010
0M00
0010
,
0002
0000
0000
1000
0000
0000
0100
0000
0000
0013
0M00
0010
,
2000
0000
0000
0001
0000
0000
0010
0000
0000
3100
00M0
0100
,
0002
0000
0000
1000
0000
0000
0010
0000
0000
0103
00M0
0100
,
1000
0000
0001
0010
0000
0001
1000
0000
0001
M000
0000
0000
,
0001
0010
0001
1000
0100
1000
0001
0100
0001
1000
0010
1000
,
0002
0000
0000
0003
0000
0000
M00M
0000
0000
0000
0000
1000
,
0000
0000
1000
0000
0000
0001
0010
0000
0100
1000
0000
0000
,
0001
0000
0100
1000
0000
0100
0010
0000
0100
0001
0000
0000
,
1000
0000
0000
0000
0100
0000
0000
00M0
0000
0000
0100
0000
0000
0000
0000
0000
0001
0000
0000
0000
0000
0000
1000
0000
,
0000
0000
0010
0001
0000
0010
0100
0000
0010
1000
0000
0000
,
0001
0000
0000
0000
0010
0000
0000
0M00
0000
0000
0010
0000
0000
0000
0000
0000
1000
0000
0001
0000
0000
0000
0000
0000
,
1000
0000
0100
0001
0000
0100
0010
0000
0100
1000
0000
0000
,
0001
0000
0000
0000
0100
0000
0000
00M0
0000
0000
0100
0000
0000
0000
0000
0000
1000
0000
0000
0000
0000
0000
0001
0000
,
0000
0000
0010
1000
0000
0010
0100
0000
0010
0001
0000
1000
,
0000
0000
1000
0000
0000
0001
0100
0000
0010
1000
0000
0000
,
0001
0000
0100
1000
0000
0100
0010
0000
0100
0001
0000
0100
,
0010
0000
1000
0100
0000
1000
0000
0000
0001
0100
0000
0001
,
0000
0000
0010
1000
0000
0010
0100
0000
0010
0001
0000
0010
,
0100
0000
1000
0010
0000
1000
0000
0000
0001
0010
0000
0000
,
0001
0000
0100
1000
0000
0100
0010
0000
0100
0001
0000
0010
,
0100
0000
1000
0010
0000
1000
0000
0000
0001
0010
0000
0001
,
2000
0000
0000
3000
0000
0000
0000
0000
0000
0000
0000
0001
,
0000
0000
0001
0000
0000
1000
0010
0000
0100
0001
0000
0000
,
0012
0010
2003
0100
,
3002
0203
2300
3002
,
0013
0000
1000
0010
0M00
0010
0001
0000
0000
1000
0000
0000
,
0100
00M0
0100
0000
0001
0000
1000
0000
0020
0000
0000
0000
0030
0000
0000
0000
,
2010
0010
3002
0100
,
2003
3200
0302
2003
,
3010
0000
0100
0000
1000
0000
0001
0000
0100
0000
0010
0000
,
1000
0000
0001
0100
00M0
0100
1000
0000
0001
0000
0000
0000
,
0102
0000
0000
1003
0000
0000
2100
0000
0000
3100
00M0
0100
,
0001
0000
0001
0010
0M00
0010
1000
0000
1000
0001
0000
0001
,
0010
0100
0100
1000
,
0001
0000
0000
0000
0000
0000
1000
0000
0000
0000
0010
0000
0000
0M00
0000
0000
0010
0000
0100
0000
0000
0000
0000
0000
,
1000
0000
0010
0100
0000
0001
1000
0000
0100
0010
0000
0001
,
1000
0010
0100
0001
0100
0010
1000
0100
0010
0001
0010
0100
,
1000
0000
0000
0000
0000
0000
0000
0000
0000
0000
0000
0001
,
0000
0000
0001
0000
0000
1000
0010
0000
0100
0001
0000
0000
,
0020
0000
0000
0031
0000
0000
0010
0M00
0010
0000
0000
1000
,
0000
0000
0002
0010
0000
1003
0000
0000
0001
1000
0000
0000
,
0002
0000
0000
0000
0000
0000
0013
0000
0000
0000
0001
0000
0000
0000
0000
0000
0100
0000
0000
00M0
0000
0000
0100
0000
,
0000
0000
1000
0100
00M0
0100
0001
0100
0001
1000
0001
0100
,
0010
0000
1000
0001
0000
1000
0200
0000
0000
0300
0000
0000
,
0010
0000
0000
0001
0000
1000
0020
0000
0000
0030
0000
0000
,
0200
0000
0000
0010
0000
0000
0302
0000
0000
1003
0000
0001
,
0000
0000
0001
0000
0000
0010
0100
0000
1000
0001
0000
0000
,
0100
0000
0000
0040
0000
0000
1030
0000
0002
0010
0000
1003
,
0000
0000
2000
0010
0000
3001
0000
0000
1000
0001
0000
0000
,
0010
0000
0000
0100
0000
0000
1000
0000
0002
0100
0000
1003
,
0000
0000
2000
0100
0000
3001
0000
0000
0100
0010
0000
0000
,
2002
0000
0000
0000
0000
3003
0000
0000
0000
0000
0000
0000
,
0220
0000
0000
0000
0000
0330
0000
0000
0000
0000
0000
0000
,
2002
0000
0000
0000
0000
3003
0000
0000
0000
0000
0000
0000
,
0000
0000
0000
0000
,
0102
0000
0000
1000
0000
0000
0010
0000
0000
0103
00M0
0100
,
1000
0000
1000
0010
0M00
0010
0001
0000
0001
0100
00M0
0100
,
2000
0000
0000
0001
0000
0000
0010
0000
0000
3100
00M0
0100
,
0001
0000
0001
0010
0M00
0010
1000
0000
1000
0100
00M0
0100
,
0001
0000
0100
0010
0000
1000
0001
0000
0010
0100
0000
1000
,
0001
0000
0100
0010
0000
1000
0001
0000
0010
0100
0000
1000
,
0001
0100
0010
1000
0010
0100
0001
0010
0100
1000
0100
0010
,
0001
0100
0010
1000
0100
0010
0002
0000
0000
0003
0000
0000
,
2010
0100
3002
0010
,
2003
3020
0032
2003
,
3200
0300
0000
0000
,
0000
0000
00M0
00M0
00M0
00M0
0000
0000
,
0001
0000
1000
0100
0000
0010
0001
0000
1000
0010
0000
0100
,
0001
1000
0100
0010
0001
1000
0001
0100
0010
1000
0001
0010
,
0200
0000
0000
0300
0000
0000
0MM0
0000
0000
0000
0000
1000
,
0000
0000
1000
0000
0000
0001
0100
0000
0010
1000
0000
0000
,
0001
0000
0010
1000
0000
0010
0100
0000
0010
0001
0000
0010
,
0100
0000
1000
0010
0000
1000
0000
0000
0001
0010
0000
0001
,
0000
0000
0100
1000
0000
0100
0010
0000
0100
0001
0000
0100
,
0010
0000
1000
0100
0000
1000
0000
0000
0001
0100
0000
0000
,
0001
0000
0010
1000
0000
0010
0100
0000
0010
0001
0000
0100
,
0010
0000
1000
0100
0000
1000
0000
0000
0001
0100
0000
0001
,
0000
0000
0100
1000
0000
0100
0010
0000
0100
0001
0000
1000
,
0000
0000
1000
0000
0000
0001
0010
0000
0100
1000
0000
0000
,
0001
0000
0010
1000
0000
0001
0100
0000
1000
0001
0000
0010
,
0001
0000
0100
0010
0000
1000
0000
0000
0100
0010
0000
0001
,
0000
0000
0100
1000
0000
0001
0010
0000
1000
0001
0000
0100
,
0001
0000
0010
0001
0000
0100
0000
0000
0010
1000
0000
0000
,
0001
0000
0100
1000
0000
0001
0010
0000
1000
0001
0000
0100
,
0001
0000
0010
0100
0000
1000
0000
0000
0010
0100
0000
0000
,
2002
3003
0000
0000
,
0000
0000
0001
1000
,
1200
0000
0000
0000
0000
0001
0000
0000
1000
0000
0000
0001
,
0000
0000
1300
0000
0000
1000
0100
00M0
0100
0001
0000
0001
,
0020
0000
0000
0000
0000
1000
0000
0000
0001
0000
0000
1000
,
0000
0000
0031
0000
0000
0001
0010
0M00
0010
0100
0000
0000
,
2002
0000
0000
3003
0000
0000
0000
0000
0100
0010
0000
0000
,
2002
3003
0000
M00M
,
0220
0000
0000
0330
0000
0000
0000
0000
0000
0000
0000
0001
,
0000
0000
0001
0000
0000
0010
0100
0000
1000
0001
0000
0000
,
2002
3003
0000
0000
;

//---------------dance-single - ----------------
#NOTEDATA:;
#CHARTNAME:;
#STEPSTYPE:dance-single;
#DESCRIPTION:;
#CHARTSTYLE:;
#DIFFICULTY:Medium;
#METER:12;
#RADARVALUES:0.564958,0.694142,0.592334,0.618467,0.500871,454.000000,386.000000,68.000000,71.000000,0.000000,0.000000,0.000000,0.000000,0.000000,0.564958,0.694142,0.592334,0.618467,0.500871,454.000000,386.000000,68.000000,71.000000,0.000000,0.000000,0.000000,0.000000,0.000000;
#CREDIT:BlindedVanguard573;
#NOTES:
0000
0000
0000
0000
,
0000
0000
0000
0000
,
0000
0000
0000
0000
,
0000
0000
0000
0000
,
0000
0000
0000
0000
,
0000
0000
0000
0000
,
0101
0000
0000
1000
,
1100
0000
0000
0010
,
1001
0000
0000
0000
,
0000
0000
0000
0000
,
0002
0010
1000
0013
,
0001
0010
0100
1000
,
0002
0100
1000
0103
,
0001
0100
0010
1000
,
0001
0010
0100
1001
,
1000
0100
0001
0010
,
2000
3000
0000
0000
,
0001
0001
1000
1001
,
0001
0101
1001
0011
,
0001
0000
0010
0000
0000
0100
0000
0000
1000
0000
0000
0001
,
1000
1010
1001
1100
,
1000
0000
0100
0000
0000
0010
0000
0000
0001
1000
0000
0000
,
0001
0011
1001
0101
,
0001
0000
0100
0000
0000
0010
0000
0000
1000
0000
0000
0001
,
1000
0000
0000
1100
0000
0000
1001
0000
0000
1000
0000
0010
,
0000
0000
0010
0000
0000
0100
0001
0000
0000
1001
0000
0000
,
0001
0011
1100
0011
,
0001
0000
0100
0000
0000
0010
0000
0000
1000
0000
0000
0001
,
1000
1100
0011
1100
,
1000
0000
0010
0000
0000
0100
0000
0000
0001
1000
0000
0000
,
0001
0011
1100
1001
,
1000
0000
0010
0000
0000
0100
0000
0000
0001
0000
0000
0010
,
0200
0000
0000
0300
0000
0000
0000
0000
0000
0000
0000
1000
,
0000
0000
1000
0000
0000
0001
0100
0000
0000
0010
0000
0000
,
2010
0100
3002
0100
,
2003
3200
0302
0203
,
1300
0000
0000
0010
0000
0010
0100
0000
0000
0001
0000
0000
,
1000
0000
0100
0010
0200
0000
0300
0000
,
2100
0010
3002
0010
,
2003
3020
0032
0023
,
2030
0010
0001
0010
,
3001
0000
0000
0010
0000
0100
0010
0000
0001
0000
0000
0000
,
2100
3001
0102
1003
,
1200
0302
0203
2300
,
3002
0013
0010
0100
,
1000
0000
0000
0001
0000
0100
0000
0000
0010
1000
0000
0000
,
0012
1003
2010
3001
,
0021
2030
3020
0032
,
2003
0000
0000
3000
0000
0000
0000
0000
0000
0000
0000
0010
,
0000
0000
0010
0000
0000
0100
0001
0000
0000
1000
0000
0000
,
1002
0000
0000
0100
0000
0000
1003
0000
0001
0000
0000
0100
,
0000
0000
0100
0000
0000
0010
0000
0000
1000
0001
0000
0000
,
2001
0000
0000
3100
0000
0000
1000
0000
0010
0000
0000
0010
,
0000
0000
0100
0000
0000
0001
0000
0000
0010
0100
0000
0000
,
2000
0010
3001
1000
,
0002
0010
1003
0001
,
2000
0000
0000
0100
0000
0000
3002
0000
0000
0100
0000
1003
,
0000
0000
1000
0000
0000
1000
0010
0000
0000
0100
0000
0000
,
0002
0000
0000
0010
0000
0000
0103
0000
0001
0000
0000
0010
,
0000
0000
0010
0000
0000
0100
0000
0000
1000
0010
0000
0000
,
2000
0000
0000
0100
0000
0000
3001
0000
1000
0000
0000
0010
,
0000
0000
0010
0000
0000
0100
0000
0000
0001
0010
0000
0000
,
2002
0000
0000
0000
0000
3003
0000
0000
0000
0000
0000
0000
,
0220
0000
0000
0000
0000
0330
0000
0000
0000
0000
0000
0000
,
2002
0000
0000
0000
0000
3003
0000
0000
0000
0000
0000
0000
,
0000
0000
0000
0000
,
0002
0000
0000
1000
0000
0000
0010
0000
0000
0103
0000
0100
,
0001
0000
0000
0010
0000
0000
0100
0000
1000
0001
0000
0000
,
2000
0000
0000
0001
0000
0000
0010
0000
0000
3100
0000
0100
,
1000
0000
0000
0010
0000
0000
0100
0000
0001
1000
0000
0000
,
0002
0000
0000
0010
0000
0000
1000
0000
0000
0103
0000
0001
,
2000
0000
0000
0010
0000
0000
0001
0000
0000
3100
0000
1000
,
0001
0000
0100
0010
0000
0000
1000
0000
0001
0010
0000
0000
,
0100
0000
1000
0001
0000
0000
0220
0000
0000
0330
0000
0000
,
0002
0010
2003
0010
,
3002
0023
2030
3002
,
0203
0300
0000
0000
,
0000
0000
0000
0000
,
1000
0000
0001
0100
0000
0000
0001
0000
1000
0010
0000
0000
,
1000
0000
0100
0010
0000
0001
1000
0000
0010
0100
0000
0001
,
0020
0000
0000
0030
0000
0000
0000
0000
0000
0000
0000
0100
,
0000
0000
0100
0000
0000
1000
0001
0000
0000
1001
0000
0000
,
1000
1100
1001
1010
,
1000
0000
0010
0000
0000
0100
0000
0000
0001
0000
0000
1000
,
0001
0011
1001
0101
,
0001
0000
0100
0000
0000
0010
0000
0000
1000
0001
0000
0000
,
1000
1010
1001
1100
,
1000
0000
0100
0000
0000
0010
0000
0000
0001
0000
0000
1000
,
0001
0000
0000
0101
0000
0000
1001
0000
0000
0001
0000
0010
,
0000
0000
0010
0000
0000
0100
1000
0000
0000
1001
0000
0000
,
1000
1010
0101
1010
,
1000
0000
0100
0000
0000
0010
0000
0000
0001
0000
0000
1000
,
0001
0101
1010
0101
,
0001
0000
0010
0000
0000
0100
0000
0000
1000
0001
0000
0000
,
1000
1010
0101
1001
,
0001
0000
0010
0000
0000
0100
0000
0000
1000
0000
0000
0010
,
0200
0300
0000
0000
,
0000
0000
0001
1000
,
1002
0000
0000
0000
0000
0010
0000
0000
0100
0000
0000
0010
,
0000
0000
0103
0000
0000
0100
0001
0000
0000
1000
0000
0000
,
2001
0000
0000
0000
0000
0010
0000
0000
0100
0000
0000
0010
,
0000
0000
3100
0000
0000
0100
1000
0000
0000
0001
0000
0000
,
2002
3003
0000
0010
,
0220
0330
0000
1000
,
2002
0000
0000
3003
0000
0000
0000
0000
0000
0000
0000
0001
,
0000
0000
0001
0000
0000
0010
0100
0000
0000
0010
0000
0000
,
2002
3003
0000
0000
;

//---------------dance-single - ----------------
#NOTEDATA:;
#CHARTNAME:;
#STEPSTYPE:dance-single;
#DESCRIPTION:;
#CHARTSTYLE:;
#DIFFICULTY:Easy;
#METER:9;
#RADARVALUES:0.409408,0.462761,0.217770,0.357143,0.000000,329.000000,304.000000,25.000000,41.000000,0.000000,0.000000,0.000000,0.000000,0.000000,0.409408,0.462761,0.217770,0.357143,0.000000,329.000000,304.000000,25.000000,41.000000,0.000000,0.000000,0.000000,0.000000,0.000000;
#CREDIT:BlindedVanguard573;
#NOTES:
0000
0000
0000
0000
,
0000
0000
0000
0000
,
0000
0000
0000
0000
,
0000
0000
0000
0000
,
0000
0000
0000
0000
,
0000
0000
0000
0000
,
0101
0000
0000
1000
,
1100
0000
0000
0010
,
1001
0000
0000
0000
,
0000
0000
0000
0000
,
0001
0010
0001
0010
,
0100
1000
0001
0000
,
1000
0010
1000
0010
,
0100
0001
1000
0000
,
0100
0010
0001
0000
,
0100
0010
1000
0001
,
2002
3003
0000
0000
,
0001
0001
1000
1001
,
0002
0100
1003
0001
,
1000
0100
0001
0100
,
2000
0010
3001
1000
,
0001
0010
1000
0010
,
0002
0010
0103
0001
,
1000
0100
0001
1000
,
0020
0100
0031
0010
,
0001
0100
0010
1001
,
2000
0100
3001
1000
,
0001
0100
1000
0100
,
0002
0010
1003
0001
,
1000
0010
0001
0010
,
2000
0010
3100
1000
,
0001
0100
1000
0001
,
0020
0030
0000
0000
,
1000
1000
0001
1001
,
1000
0000
0001
0000
,
0010
0100
0010
1000
,
0010
0100
1000
1000
,
0010
0100
0001
0000
,
0010
0000
0100
0000
,
1000
0010
0100
1000
,
0200
0300
0002
0003
,
0010
0100
1001
0000
,
2000
0000
0010
0000
,
3002
0010
0010
1003
,
0001
0010
0010
0100
,
0100
1000
0001
1000
,
0002
0000
0100
0000
,
2003
0100
0100
3001
,
2002
0000
3003
0000
,
0010
0010
0100
0001
,
1001
0000
1000
0000
,
0100
0010
1000
0010
,
0100
0000
1000
0000
,
0010
0100
1000
0100
,
0010
0100
0101
0000
,
0010
0100
1100
0000
,
2000
0010
3002
0010
,
1003
0100
0010
0001
,
1001
0000
0001
0000
,
0100
0010
0001
0010
,
0100
0000
0001
0000
,
0010
0100
0001
0100
,
2002
0000
0000
0000
0000
3003
0000
0000
0000
0000
0000
0000
,
0220
0000
0000
0000
0000
0330
0000
0000
0000
0000
0000
0000
,
2002
0000
0000
0000
0000
3003
0000
0000
0000
0000
0000
0000
,
0000
0000
0000
0000
,
1000
0010
1000
0010
,
0100
0001
1000
0000
,
0001
0010
0001
0010
,
0100
1000
0001
0000
,
1000
0010
0100
1000
,
0001
0010
0100
0001
,
1000
1000
0001
0001
,
0010
0100
2002
3003
,
2000
0000
0010
0000
,
3001
0010
1000
0010
,
0002
0003
0000
0000
,
0000
0000
0000
0000
,
1000
0100
0001
0100
,
1000
0010
0001
0010
,
2002
3003
0000
0000
,
0001
0010
0100
1001
,
2000
0100
3001
1000
,
0001
0100
1000
0100
,
0002
0010
1003
0001
,
1000
0010
0001
0010
,
2000
0010
3100
1000
,
0001
0100
1000
0001
,
0020
0100
1030
0010
,
1000
0100
0010
1001
,
0002
0100
1003
0001
,
1000
0100
0001
0100
,
2000
0010
3001
1000
,
0001
0010
1000
0010
,
0002
0010
0103
0001
,
1000
0100
0001
1000
,
0020
0030
0000
0000
,
0000
0000
0001
1000
,
1001
0000
0000
0000
,
0000
0000
0000
0010
,
0110
0000
0000
0000
,
0000
0000
0000
0001
,
0101
0000
0000
1000
,
1100
0000
0000
0010
,
1001
0000
0000
0000
,
0001
0010
1000
0100
,
0002
0003
0000
0000
;

//---------------dance-single - ----------------
#NOTEDATA:;
#CHARTNAME:;
#STEPSTYPE:dance-single;
#DESCRIPTION:;
#CHARTSTYLE:;
#DIFFICULTY:Beginner;
#METER:5;
#RADARVALUES:0.298656,0.369338,0.113240,0.000000,0.000000,240.000000,227.000000,13.000000,0.000000,0.000000,0.000000,0.000000,0.000000,0.000000,0.298656,0.369338,0.113240,0.000000,0.000000,240.000000,227.000000,13.000000,0.000000,0.000000,0.000000,0.000000,0.000000,0.000000;
#CREDIT:BlindedVanguard573;
#NOTES:
// measure 0
0000
0000
0000
0000
,  // measure 1
0000
0000
0000
0000
,  // measure 2
0000
0000
0000
0000
,  // measure 3
0000
0000
0000
0000
,  // measure 4
0000
0000
0000
0000
,  // measure 5
0000
0000
0000
0000
,  // measure 6
0001
0000
0000
0000
,  // measure 7
1000
0000
0000
0000
,  // measure 8
1001
0000
0000
0000
,  // measure 9
0000
0000
0000
0000
,  // measure 10
0001
0000
0010
0000
,  // measure 11
0100
0000
1000
1000
,  // measure 12
1000
0000
0010
0000
,  // measure 13
0100
0000
0001
0001
,  // measure 14
0001
0001
0001
0000
,  // measure 15
0010
0010
0010
0000
,  // measure 16
1001
0000
0000
0000
,  // measure 17
0000
0000
0000
0000
,  // measure 18
1000
1000
1000
1000
,  // measure 19
1000
0000
0010
0000
,  // measure 20
0100
0100
0100
0100
,  // measure 21
0100
0000
0001
0000
,  // measure 22
0010
0010
0010
0010
,  // measure 23
0010
0000
0100
0000
,  // measure 24
1000
1000
1000
1000
,  // measure 25
1000
0000
1001
0000
,  // measure 26
0001
0001
0001
0001
,  // measure 27
0001
0000
0010
0000
,  // measure 28
1000
1000
1000
1000
,  // measure 29
1000
0000
0010
0000
,  // measure 30
0100
0100
0100
0100
,  // measure 31
0100
0000
1000
0000
,  // measure 32
1001
0000
0000
0000
,  // measure 33
0000
0000
0000
0000
,  // measure 34
0001
0000
0010
0000
,  // measure 35
0100
0100
0100
0000
,  // measure 36
1000
0000
0000
0000
,  // measure 37
0001
0000
0000
0000
,  // measure 38
0100
0000
0010
0000
,  // measure 39
1000
1000
1000
0000
,  // measure 40
0001
0000
0000
0000
,  // measure 41
0010
0000
0000
0000
,  // measure 42
0100
0000
1000
0000
,  // measure 43
0001
0001
0001
0000
,  // measure 44
0100
0000
0010
0000
,  // measure 45
1000
0000
0001
0000
,  // measure 46
0010
0000
0100
0000
,  // measure 47
1000
1000
1000
0000
,  // measure 48
1001
0000
0000
0000
,  // measure 49
0000
0000
0000
0000
,  // measure 50
0001
0000
0100
0000
,  // measure 51
0010
0000
1000
1000
,  // measure 52
1000
0000
0100
0000
,  // measure 53
0010
0000
0001
0001
,  // measure 54
0001
0000
1001
0000
,  // measure 55
1000
0000
1001
0000
,  // measure 56
0001
0000
0010
0000
,  // measure 57
0100
0100
0100
0100
,  // measure 58
0100
0000
1000
0000
,  // measure 59
0001
0000
0010
0010
,  // measure 60
0010
0000
0001
0000
,  // measure 61
1000
0000
0100
0100
,  // measure 62
0100
0000
0000
0000
,  // measure 63
1001
0000
0000
0000
,  // measure 64
0110
0000
0000
0000
,  // measure 65
0000
0000
0000
0000
,  // measure 66
0001
0001
0001
0000
,  // measure 67
0010
0000
0100
0000
,  // measure 68
1000
1000
1000
0000
,  // measure 69
0001
0000
0100
0000
,  // measure 70
0010
0010
0010
0000
,  // measure 71
0100
0100
0100
0000
,  // measure 72
0001
0001
0001
0001
,  // measure 73
0001
0000
1001
0000
,  // measure 74
1000
0000
0100
0000
,  // measure 75
0010
0010
0010
0000
,  // measure 76
1001
0000
0000
0000
,  // measure 77
0000
0000
0000
0000
,  // measure 78
0001
0000
0100
0000
,  // measure 79
0010
0010
0010
0000
,  // measure 80
1001
0000
0000
0000
,  // measure 81
0000
0000
0000
0000
,  // measure 82
1000
1000
1000
1000
,  // measure 83
1000
0000
0100
0000
,  // measure 84
0010
0010
0010
0010
,  // measure 85
0010
0000
0001
0000
,  // measure 86
0100
0100
0100
0100
,  // measure 87
0100
0000
0010
0000
,  // measure 88
1000
1000
1000
1000
,  // measure 89
1000
0000
0001
0001
,  // measure 90
0001
0001
0001
0001
,  // measure 91
0001
0000
0010
0000
,  // measure 92
0100
0100
0100
0100
,  // measure 93
0100
0000
0001
0000
,  // measure 94
0100
0100
0100
0100
,  // measure 95
0100
0000
1000
0000
,  // measure 96
1001
0000
0000
0000
,  // measure 97
0000
0000
0000
0000
,  // measure 98
0001
0000
0100
0100
,  // measure 99
0100
0100
0100
0000
,  // measure 100
0010
0000
1000
1000
,  // measure 101
1000
1000
1000
0000
,  // measure 102
0100
0100
0100
0000
,  // measure 103
0010
0010
0010
0000
,  // measure 104
0001
0000
1000
0000
,  // measure 105
0010
0000
0100
0100
,  // measure 106
0100
0000
0000
0000
;
