#TITLE:Paca Dance;
#SUBTITLE:;
#ARTIST:The Just Dance Band;
#TITLETRANSLIT:;
#SUBTITLETRANSLIT:;
#ARTISTTRANSLIT:;
#GENRE:;
#CREDIT:Evergreen;
#MUSIC:Paca-Dance-Edit.ogg;
#BANNER:paca-bn.png;
#BACKGROUND:paca-bg.png;
#CDTITLE:;
#SAMPLESTART:61.461;
#SAMPLELENGTH:19.200;
#SELECTABLE:YES;
#OFFSET:-0.021;
#BPMS:0.000=125.000;
#STOPS:;
#BGCHANGES:;
#FGCHANGES:;

//--------------- dance-single - ----------------
#NOTES:
     dance-single:
     :
     Hard:
     12:
     0,0,0,0,0:
0000
0000
0000
0000
,
0000
0000
0000
0000
,
0000
0000
0000
0000
,
0000
0000
0000
0000
,
1000
0000
0010
0000
0100
0001
1000
0000
,
0001
0010
0001
0000
1000
0100
0010
0000
,
0001
0100
0001
0000
1000
0010
0100
0000
,
0001
1000
0001
1001
,
1000
0100
0010
0100
1000
0001
1000
0000
,
0001
0100
0010
0100
0001
1000
0001
0000
,
1000
0010
0100
0010
1000
0001
1000
0000
,
0001
0010
1000
0010
0001
0010
0200
1300
,
0001
0100
0010
0100
0001
0010
0100
0000
,
1000
0100
0002
0000
0103
1000
0010
0100
,
0010
1000
0010
1000
0001
0010
0001
0010
,
0001
0100
1000
0100
0001
1000
0002
2003
,
3100
0000
0010
0200
1300
0000
0010
0100
,
0001
0000
0100
0001
0000
0100
0001
0000
1000
0000
0100
0000
1000
0000
0000
0000
,
0001
0000
0010
0001
0000
0010
0001
0000
1000
0000
0010
0000
0100
0000
0001
0000
,
1000
0001
0010
0001
1000
0010
0100
0002
,
0103
0000
0010
0200
0301
0000
0010
0100
,
1000
0000
0100
1000
0000
0100
1000
0000
0001
0000
0100
0000
0001
0000
0000
0000
,
1000
0000
0010
1000
0000
0010
1000
0000
0001
0000
0010
0000
0100
0000
1000
0000
,
0001
0000
1000
0001
0000
1000
0001
0000
1000
0000
0010
0000
2000
3000
0000
0000
,
0001
0000
0010
0000
0001
0000
0010
0000
0100
0000
1000
0100
0000
0010
0001
0000
,
1000
0010
0100
0010
1010
0000
1000
0100
,
1000
0000
0010
0000
1000
0000
0010
0000
0100
0000
0001
0100
0000
0010
1000
0000
,
0001
0010
0100
0010
0011
0000
0001
0100
,
0010
0000
1000
0000
0010
0000
1000
0000
0001
0000
0010
0100
0000
1000
0001
0000
,
1000
0100
1000
0001
0101
0000
0100
0001
,
1000
0100
0010
0001
1000
0010
0100
0001
,
1001
0000
0000
0MM0
,
0001
0100
0010
0100
0001
1000
0001
0000
,
1000
0100
0010
0100
1000
0001
1000
0000
,
0001
0010
0100
0010
0001
1000
0001
0000
,
1000
0010
0001
0010
1000
0010
0200
0301
,
1000
0100
0010
0100
1000
0010
0100
0000
,
0001
0100
2000
0000
3100
0001
0010
0100
,
0010
0001
0010
0001
1000
0010
1000
0010
,
1000
0100
0001
0100
1000
0001
0100
0000
,
0101
0001
1000
0000
0100
0010
0001
0000
,
2000
0000
0000
0000
3010
0100
0001
1000
,
1100
0100
0010
0000
0001
0100
0010
1000
,
0001
0010
0100
1000
0001
0100
0001
1000
,
1001
0000
0000
1001
0000
0000
1001
0000
0000
0000
0001
0000
1000
0000
0000
0000
,
1010
0000
0000
1010
0000
0000
1010
0000
0000
0000
0010
0000
0100
0000
0010
0000
,
0110
0000
0000
0110
0000
0000
0110
0000
0000
0000
0100
0000
0001
0000
0000
0000
,
0101
0000
0000
0101
0000
0000
0101
0000
0000
0000
0100
0000
0001
0000
1000
0000
,
1001
0000
0001
0010
0100
0010
0001
0000
,
1001
0000
1000
0010
0100
0010
1000
0000
,
0001
0000
0000
0010
0100
0000
0000
1000
0001
0000
1000
0000
0010
0000
0100
0000
,
0001
0000
0000
1000
,
0001
0010
0100
0010
0001
0010
0100
0000
,
2000
0000
0001
0000
3001
0000
0010
0100
,
1000
0010
0100
0010
1000
0010
0100
0000
,
0001
1000
0100
0000
1000
0001
1001
0000
,
1000
0010
0100
0010
1000
0001
1000
0000
,
0001
0010
0100
0010
0001
1000
0001
0000
,
1000
0100
0010
0100
1000
0001
1000
0000
,
0001
0100
1000
0100
0001
0100
0020
1030
,
0001
0010
0100
0010
0001
0100
0010
0000
,
1000
0010
0002
0000
0013
1000
0100
0010
,
0100
1000
0100
1000
0001
0100
0001
0100
,
0001
0010
1000
0010
0001
1000
0010
0000
,
1010
0000
0000
0000
;

//--------------- dance-single - Evergreen ----------------
#NOTES:
     dance-single:
     Evergreen:
     Challenge:
     14:
     0,0,0,0,0:
0000
0000
0000
0000
,
0000
0000
0000
0000
,
0000
0000
0000
0000
,
0000
0000
0000
0000
,
1000
0000
0000
0000
0000
0000
0001
0000
0000
0000
0000
0000
1000
0000
0100
0010
0000
0002
0000
0000
0000
0103
0000
0000
,
0001
0000
0000
1000
0000
0000
0001
0000
0000
0000
0000
0000
1000
0000
0010
0100
0000
0002
0000
0000
0000
1003
0000
0000
,
0001
0000
0000
1000
0000
0000
0001
0000
0000
0000
0000
0000
1000
0000
0100
0010
0000
0002
0000
0000
0000
1003
0000
0000
,
0001
0000
0000
0000
0000
0000
1000
0000
0000
0000
0000
0000
0001
0000
1000
0001
0000
0000
1001
0000
0000
1000
0000
0000
,
0010
0000
0000
1000
0000
0000
0010
0000
0000
1000
0000
0000
0001
0000
0000
0010
0000
0100
0000
0000
0010
0001
0000
0000
,
0010
0000
0000
0100
0000
0000
1000
0000
0000
0001
0000
0000
0100
0000
0000
0010
0000
0100
0000
0000
0001
1000
0000
0000
,
0001
0000
0000
1000
0000
0000
0001
0000
0000
1000
0000
0000
0010
0000
0000
0100
0000
0001
0000
0000
0100
0010
0000
0000
,
1000
0000
0000
0010
0000
0000
0001
0000
0000
0010
0000
0000
1000
0000
0000
0001
0000
0010
0002
0000
0000
1003
0000
0100
,
0010
0000
0000
0001
0000
0000
0010
0000
0000
0001
0000
0000
1000
0000
0000
0010
0000
0100
0000
0000
0001
1000
0000
0000
,
0100
0000
0000
0001
0000
0000
0100
0000
0000
1000
0000
0000
0010
0000
0000
0100
0000
0001
0000
0000
1000
0001
0000
0000
,
1000
0000
0000
0010
0000
0000
0100
0000
0000
0001
0000
0000
0010
0000
0000
0100
0000
1000
0000
0000
0100
0010
0000
0000
,
0001
0000
0000
0010
0000
0000
1000
0000
0000
0010
0000
0000
0001
0000
0000
1000
0000
0010
2000
0000
0000
3002
0000
0000
,
0013
0100
1000
0002
0103
0010
1000
0001
,
0010
0000
0100
1000
0000
0100
1000
0000
0010
0000
0100
0000
0001
0000
1000
0000
,
0010
0000
0100
0001
0000
0100
0001
0000
1000
0000
0100
0000
0010
0000
0100
0000
,
1000
0010
0010
1000
0001
0010
0010
0200
,
1300
0010
0100
0020
1030
0001
0010
0100
,
1000
0000
0001
0010
0000
0001
0010
0000
0100
0000
1000
0000
0001
0000
0100
0000
,
0010
0000
1000
0010
0000
1000
0010
0000
1000
0000
0001
0000
0100
0000
0001
0000
,
1000
0000
0001
1000
0000
0001
1000
0000
0100
0000
0010
0000
0002
0003
0000
0000
,
2000
0000
0010
0000
3002
0000
0010
0000
1003
0000
0010
0100
0000
0001
1000
0000
,
0100
0000
0001
0000
0100
0000
0010
0000
0011
0000
0001
0000
1000
0000
0010
0100
,
0002
0000
0010
0000
2003
0000
0010
0000
3001
0000
0010
0100
0000
1000
0001
0000
,
0100
0000
1000
0000
0100
0000
0010
0000
1010
0000
1000
0000
0001
0000
0010
0100
,
2000
0000
0100
0000
3002
0000
0100
0000
1003
0000
0100
0010
0000
0001
1000
0000
,
0001
0000
0100
0000
0010
0000
0100
0000
0101
0000
0001
1000
0100
0000
1000
0000
,
0100
0010
0100
1000
0001
0100
0010
1000
,
1001
0000
0000
0000
0000
0000
0000
0000
0000
0000
0000
0000
0002
0003
0000
0000
,
0010
0000
0000
0001
0000
0000
0010
0000
0000
0001
0000
0000
1000
0000
0000
0010
0000
0100
0000
0000
0010
1000
0000
0000
,
0010
0000
0000
0100
0000
0000
0001
0000
0000
1000
0000
0000
0100
0000
0000
0010
0000
0100
0000
0000
1000
0001
0000
0000
,
1000
0000
0000
0001
0000
0000
1000
0000
0000
0001
0000
0000
0010
0000
0000
0100
0000
1000
0000
0000
0100
0010
0000
0000
,
0001
0000
0000
0010
0000
0000
1000
0000
0000
0010
0000
0000
0001
0000
0000
1000
0000
0010
2000
0000
0000
3001
0000
0100
,
0010
0000
0000
1000
0000
0000
0010
0000
0000
1000
0000
0000
0001
0000
0000
0010
0000
0100
0000
0000
1000
0001
0000
0000
,
0100
0000
0000
1000
0000
0000
0100
0000
0000
0001
0000
0000
0010
0000
0000
0100
0000
1000
0000
0000
0001
1000
0000
0000
,
0001
0000
0000
0010
0000
0000
0100
0000
0000
1000
0000
0000
0010
0000
0000
0100
0000
0001
0000
0000
0100
0010
0000
0000
,
1000
0000
0000
0010
0000
0000
0001
0000
0000
0010
0000
0000
1000
0000
0000
0001
0000
0010
0002
0000
0000
1003
0000
0000
,
1010
0000
0000
0010
0000
0000
0100
0000
0000
0001
0000
0000
1000
0000
0100
1000
0000
0010
0000
0000
0000
0100
0000
0000
,
0004
4000
0000
0000
0000
0000
0000
0000
0000
0000
0000
0000
3003
0000
0000
0000
0000
0000
0001
0000
0000
0010
0000
0000
,
0011
0000
0000
0001
0000
0000
0100
0000
0000
0001
0000
0000
1000
0000
0100
1000
0000
0010
0000
0000
0000
0100
0000
0000
,
0001
0010
0100
1000
0001
0000
1000
0100
1000
0000
0001
0100
0001
1000
0010
0000
,
1010
0000
0000
0101
0000
0000
1010
0000
0000
0000
0001
0000
1000
0000
0000
0000
,
0011
0000
0000
1100
0000
0000
0011
0000
0000
0000
0010
0001
1000
0001
0100
0000
,
0101
0000
0000
1010
0000
0000
0101
0000
0000
0000
1000
0000
0001
0000
0000
0000
,
1100
0000
0000
0011
0000
0000
1100
0000
0000
0000
1000
0100
0010
0100
1000
0001
,
0011
0000
0000
0110
0000
0000
1100
1000
0010
0000
0100
0000
0001
1000
0000
0001
,
0101
0000
0000
0110
0000
0000
1010
1000
0001
0000
0010
0100
1000
0001
1000
0010
,
0100
0000
0001
0010
0001
0000
1000
0010
1000
0001
0010
0001
1000
0000
0100
0010
,
0002
0003
0000
1000
,
0001
0000
0100
0010
0000
1000
0001
0000
0010
0100
0000
1000
0001
0000
0100
0010
0000
1000
0001
0000
0010
0100
0000
1000
,
0004
0400
0000
0000
0000
0000
0000
0000
0000
0000
0000
0000
0303
0000
0000
0000
0000
0000
0001
0000
0000
0000
0000
0000
,
1000
0000
0100
0010
0000
0001
1000
0000
0010
0100
0000
0001
1000
0000
0100
0010
0000
0001
1000
0000
0010
0100
0000
0001
,
1000
0000
0010
0100
0000
0001
1000
0000
0100
0010
0000
0001
1000
0000
0001
1000
0000
0000
1001
0000
0000
0001
0000
0000
,
0100
0000
0000
0001
0000
0000
0100
0000
0000
0001
0000
0000
1000
0000
0000
0100
0000
0010
0000
0000
0100
1000
0000
0000
,
0100
0000
0000
0010
0000
0000
0001
0000
0000
1000
0000
0000
0010
0000
0000
0100
0000
0010
0000
0000
1000
0001
0000
0000
,
1000
0000
0000
0001
0000
0000
1000
0000
0000
0001
0000
0000
0100
0000
0000
0010
0000
1000
0000
0000
0010
0100
0000
0000
,
0001
0000
0000
0100
0000
0000
1000
0000
0000
0100
0000
0000
0001
0000
0000
1000
0000
0100
2000
0000
0000
3001
0000
0010
,
0100
0000
0000
1000
0000
0000
0100
0000
0000
1000
0000
0000
0001
0000
0000
0100
0000
0010
0000
0000
1000
0001
0000
0000
,
0010
0000
0000
1000
0000
0000
0010
0000
0000
0001
0000
0000
0100
0000
0000
0010
0000
1000
0000
0000
0001
1000
0000
0000
,
0001
0000
0000
0100
0000
0000
0010
0000
0000
1000
0000
0000
0100
0000
0000
0010
0000
0001
0000
0000
0010
0100
0000
0000
,
1000
0000
0000
0100
0000
0000
0001
0000
0000
0100
0000
0000
1000
0000
0000
0001
0000
0100
0002
0000
0000
1003
0000
0000
,
1001
0000
0000
0000
;

//--------------- dance-single - Evergreen with mean spins ----------------
#NOTES:
     dance-single:
     Evergreen with mean spins:
     Edit:
     15:
     0,0,0,0,0:
0000
0000
0000
0000
,
0000
0000
0000
0000
,
0000
0000
0000
0000
,
0000
0000
0000
0000
,
1000
0000
0000
0000
0000
0000
0001
0000
0000
0000
0000
0000
1000
0000
0100
0010
0000
0002
0000
0000
0000
0103
0000
0000
,
0001
0000
0000
1000
0000
0000
0001
0000
0000
0000
0000
0000
1000
0000
0010
0100
0000
0002
0000
0000
0000
1003
0000
0000
,
0001
0000
0000
1000
0000
0000
0001
0000
0000
0000
0000
0000
1000
0000
0100
0010
0000
0002
0000
0000
0000
1003
0000
0000
,
0001
0000
0000
0000
0000
0000
1000
0000
0000
0000
0000
0000
0001
0000
1000
0001
0000
0000
1001
0000
0000
1000
0000
0000
,
0010
0000
0000
1000
0000
0000
0010
0000
0000
1000
0000
0000
0001
0000
0000
0010
0000
0100
0000
0000
0010
0001
0000
0000
,
0010
0000
0000
0100
0000
0000
1000
0000
0000
0001
0000
0000
0100
0000
0000
0010
0000
0100
0000
0000
0001
1000
0000
0000
,
0001
0000
0000
1000
0000
0000
0001
0000
0000
1000
0000
0000
0010
0000
0000
0100
0000
0001
0000
0000
0100
0010
0000
0000
,
1000
0000
0000
0100
0000
0000
0001
0000
0000
0010
0000
0000
1000
0000
0000
0001
0000
0010
0002
0000
0000
1003
0000
0100
,
0010
0000
0000
0001
0000
0000
0010
0000
0000
0001
0000
0000
1000
0000
0000
0010
0000
0100
0000
0000
0001
1000
0000
0000
,
0100
0000
0000
0001
0000
0000
0100
0000
0000
1000
0000
0000
0010
0000
0000
0100
0000
0001
0000
0000
1000
0001
0000
0000
,
1000
0000
0000
0010
0000
0000
0100
0000
0000
0001
0000
0000
0010
0000
0000
0100
0000
1000
0000
0000
0100
0010
0000
0000
,
0001
0000
0000
0100
0000
0000
1000
0000
0000
0010
0000
0000
0001
0000
0000
1000
0000
0010
2000
0000
0000
3002
0000
0000
,
0013
0100
1000
0002
0103
0010
1000
0001
,
0010
0000
0100
1000
0000
0100
1000
0000
0010
0000
0100
0000
0001
0000
1000
0000
,
0010
0000
0100
0001
0000
0100
0001
0000
1000
0000
0100
0000
0010
0000
0100
0000
,
1000
0010
0010
1000
0001
0010
0010
0200
,
1300
0010
0100
0020
1030
0001
0010
0100
,
1000
0000
0001
0010
0000
0001
0010
0000
0100
0000
1000
0000
0001
0000
0100
0000
,
0010
0000
1000
0010
0000
1000
0010
0000
1000
0000
0001
0000
0100
0000
0001
0000
,
1000
0000
0001
1000
0000
0001
1000
0000
0100
0000
0010
0000
0002
0003
0000
0000
,
2000
0000
0010
0000
3002
0000
0010
0000
1003
0000
0010
0100
0000
0001
1000
0000
,
0100
0000
0001
0000
0100
0000
0010
0000
0011
0000
0001
0000
1000
0000
0010
0100
,
0002
0000
0010
0000
2003
0000
0010
0000
3001
0000
0010
0100
0000
1000
0001
0000
,
0100
0000
1000
0000
0100
0000
0010
0000
1010
0000
1000
0000
0001
0000
0010
0100
,
2000
0000
0100
0000
3002
0000
0100
0000
1003
0000
0100
0010
0000
0001
1000
0000
,
0001
0000
0100
0000
0010
0000
0100
0000
0101
0000
0001
1000
0100
0000
1000
0000
,
0100
0010
0100
1000
0001
0100
0010
1000
,
1001
0000
0000
0000
0000
0000
0000
0000
0000
0000
0000
0000
0002
0003
0000
0000
,
0010
0000
0000
0001
0000
0000
0010
0000
0000
0001
0000
0000
1000
0000
0000
0010
0000
0100
0000
0000
0010
1000
0000
0000
,
0010
0000
0000
0100
0000
0000
0001
0000
0000
1000
0000
0000
0100
0000
0000
0010
0000
0100
0000
0000
1000
0001
0000
0000
,
1000
0000
0000
0001
0000
0000
1000
0000
0000
0001
0000
0000
0010
0000
0000
0100
0000
1000
0000
0000
0100
0010
0000
0000
,
0001
0000
0000
0100
0000
0000
1000
0000
0000
0010
0000
0000
0001
0000
0000
1000
0000
0010
2000
0000
0000
3001
0000
0100
,
0010
0000
0000
1000
0000
0000
0010
0000
0000
1000
0000
0000
0001
0000
0000
0010
0000
0100
0000
0000
1000
0001
0000
0000
,
0100
0000
0000
1000
0000
0000
0100
0000
0000
0001
0000
0000
0010
0000
0000
0100
0000
1000
0000
0000
0001
1000
0000
0000
,
0001
0000
0000
0010
0000
0000
0100
0000
0000
1000
0000
0000
0010
0000
0000
0100
0000
0001
0000
0000
0100
0010
0000
0000
,
1000
0000
0000
0100
0000
0000
0001
0000
0000
0010
0000
0000
1000
0000
0000
0001
0000
0010
0002
0000
0000
1003
0000
0000
,
1010
0000
0000
0010
0000
0000
0100
0000
0000
0001
0000
0000
1000
0000
0100
1000
0000
0010
0000
0000
0000
0100
0000
0000
,
0004
4000
0000
0000
0000
0000
0000
0000
0000
0000
0000
0000
3003
0000
0000
0000
0000
0000
0001
0000
0000
0010
0000
0000
,
0011
0000
0000
0001
0000
0000
0100
0000
0000
0001
0000
0000
1000
0000
0100
1000
0000
0010
0000
0000
0000
0100
0000
0000
,
0001
0010
0100
1000
0001
0000
1000
0100
1000
0000
0001
0100
0001
1000
0010
0000
,
1010
0000
0000
0101
0000
0000
1010
0000
0000
0000
0001
0000
1000
0000
0000
0000
,
0011
0000
0000
1100
0000
0000
0011
0000
0000
0000
0010
0001
1000
0001
0100
0000
,
0101
0000
0000
1010
0000
0000
0101
0000
0000
0000
1000
0000
0001
0000
0000
0000
,
1100
0000
0000
0011
0000
0000
1100
0000
0000
0000
1000
0100
0010
0100
1000
0001
,
0011
0000
0000
0110
0000
0000
1100
1000
0010
0000
0100
0000
0001
1000
0000
0001
,
0101
0000
0000
0110
0000
0000
1010
1000
0001
0000
0010
0100
1000
0001
1000
0010
,
0100
0000
0001
0010
0001
0000
1000
0010
1000
0001
0010
0001
1000
0000
0100
0010
,
0002
0003
0000
1000
,
0001
0000
0100
0010
0000
1000
0001
0000
0010
0100
0000
1000
0001
0000
0100
0010
0000
1000
0001
0000
0010
0100
0000
1000
,
0004
0400
0000
0000
0000
0000
0000
0000
0000
0000
0000
0000
0303
0000
0000
0000
0000
0000
0001
0000
0000
0000
0000
0000
,
1000
0000
0100
0010
0000
0001
1000
0000
0010
0100
0000
0001
1000
0000
0100
0010
0000
0001
1000
0000
0010
0100
0000
0001
,
1000
0000
0010
0100
0000
0001
1000
0000
0100
0010
0000
0001
1000
0000
0001
1000
0000
0000
1001
0000
0000
0001
0000
0000
,
0100
0000
0000
0001
0000
0000
0100
0000
0000
0001
0000
0000
1000
0000
0000
0100
0000
0010
0000
0000
0100
1000
0000
0000
,
0100
0000
0000
0010
0000
0000
0001
0000
0000
1000
0000
0000
0010
0000
0000
0100
0000
0010
0000
0000
1000
0001
0000
0000
,
1000
0000
0000
0001
0000
0000
1000
0000
0000
0001
0000
0000
0100
0000
0000
0010
0000
1000
0000
0000
0010
0100
0000
0000
,
0001
0000
0000
0010
0000
0000
1000
0000
0000
0100
0000
0000
0001
0000
0000
1000
0000
0100
2000
0000
0000
3001
0000
0010
,
0100
0000
0000
1000
0000
0000
0100
0000
0000
1000
0000
0000
0001
0000
0000
0100
0000
0010
0000
0000
1000
0001
0000
0000
,
0010
0000
0000
1000
0000
0000
0010
0000
0000
0001
0000
0000
0100
0000
0000
0010
0000
1000
0000
0000
0001
1000
0000
0000
,
0001
0000
0000
0100
0000
0000
0010
0000
0000
1000
0000
0000
0100
0000
0000
0010
0000
0001
0000
0000
0010
0100
0000
0000
,
1000
0000
0000
0010
0000
0000
0001
0000
0000
0100
0000
0000
1000
0000
0000
0001
0000
0100
0002
0000
0000
1003
0000
0000
,
1001
0000
0000
0000
;
