#VERSION:0.83;
#TITLE:PERFECT HUMAN;
#SUBTITLE:;
#ARTIST:Remixed by Ryu☆ feat. BEMANI Sound Team "PON";
#TITLETRANSLIT:;
#SUBTITLETRANSLIT:;
#ARTISTTRANSLIT:;
#GENRE:IIDX EDITION;
#CREDIT:Graphics by forcednature;
#MUSIC:PERFECT HUMAN.ogg;
#BANNER:PERFECT HUMAN.png;
#BACKGROUND:PERFECT HUMAN-bg.png;
#CDTITLE:;
#SAMPLESTART:49.500;
#SAMPLELENGTH:15.000;
#SELECTABLE:YES;
#OFFSET:0.000;
#BPMS:0.000=150.000;
#STOPS:116.000=2.000
,199.000=2.000
;
#TIMESIGNATURES:0.000=4=4,
116.000=3=4,
119.000=4=4,
199.000=3=4,
202.000=4=4
;
#BGCHANGES:;
#FGCHANGES:;

//--------------- dance-single - Extraordiberry ----------------
#NOTEDATA:;
#STEPSTYPE:dance-single;
#DESCRIPTION:Extraordiberry;
#DIFFICULTY:Beginner;
#METER:3;
#RADARVALUES:0,0,0,0,0;
#CREDIT:Extraordiberry;
#NOTES:
0000
0000
0000
0000
,
0000
0000
0000
0000
,
0000
0000
0000
0000
,
0000
0000
0000
0000
,
0000
0000
0000
0000
,
1000
0000
0000
0000
,
0100
0000
0000
0000
,
1000
0000
0000
0000
,
0001
1000
0001
0000
,
0001
0000
0000
0000
,
0100
0000
0000
0000
,
0001
0000
0000
0000
,
1000
0001
1000
0000
,
0001
0001
0001
0000
,
1000
1000
1000
0000
,
0100
0100
0100
0000
,
1000
0000
0001
0000
,
1000
1000
1000
0000
,
0010
0010
0010
0000
,
0100
0100
0100
0000
,
1001
0000
0000
0000
,
2000
0000
0000
0000
,
0000
0000
0000
3000
,
0002
0000
0000
0000
,
0000
0000
0000
0003
,
1000
0000
0000
0000
,
0001
0000
0000
0000
,
1000
0000
0100
0000
,
0010
0000
0001
0000
,
0000
0000
0000
1000
,
1000
1000
0000
0010
,
0010
0010
0000
0100
,
0100
0100
0000
0000
,
0000
0000
0000
0002
,
0000
0000
0000
0000
,
0003
1000
0000
0001
,
0001
0001
0000
0000
,
0000
0000
0000
2000
,
0000
0000
0000
0000
,
3000
0001
0000
1000
,
1000
1000
0000
0000
,
0000
0000
0000
0002
,
0000
0000
0000
0000
,
0000
0000
0003
2000
,
0000
0000
0000
0000
,
0000
0000
3000
0001
,
0000
0100
0000
0010
,
0000
1000
0000
0001
,
0001
0001
0000
2000
,
0000
0000
0000
3000
,
0000
0000
0001
0001
,
0001
0000
1000
1000
,
1000
0000
0100
0100
,
0100
0000
0000
0000
,
0000
0000
0020
0000
,
0000
0000
0000
0030
,
0100
0000
1000
1000
,
1000
0000
0000
0000
,
0000
0000
0020
0000
,
0000
0000
0000
0030
,
0100
0000
0001
0001
,
0001
0000
0000
0000
,
1000
0000
0001
0001
,
0001
0000
1000
1000
,
1000
0000
0100
0100
,
0100
0000
0000
0000
,
0010
0000
0001
0001
,
0001
0000
0100
0100
,
0100
0000
0010
0010
,
0010
0000
0000
0000
,
1001
0000
0000
0000
;

//--------------- dance-single - Extraordiberry ----------------
#NOTEDATA:;
#STEPSTYPE:dance-single;
#DESCRIPTION:Extraordiberry;
#DIFFICULTY:Easy;
#METER:6;
#RADARVALUES:0,0,0,0,0;
#CREDIT:Extraordiberry;
#NOTES:
0000
0000
0000
0000
,
0000
0000
0000
0000
,
0000
0000
0000
0000
,
0000
0000
0000
0000
,
2000
0000
0000
3000
,
0001
0000
0100
0000
,
0001
1000
1001
0000
,
1000
0000
0100
0000
,
1000
0001
1000
1000
,
0001
0000
0100
0000
,
0001
1000
1001
0000
,
0001
0000
0010
0000
,
0100
1000
1001
0000
,
0001
0100
0010
0000
,
1000
0100
0010
0000
,
0001
0100
0010
0100
,
0001
0000
1000
0000
,
0001
0010
0100
0000
,
1000
0010
0100
0000
,
0001
0010
0100
0010
,
0001
1001
0000
0000
,
2000
0000
0000
3000
,
0002
0000
0000
0003
,
0200
0000
0000
0300
,
0020
0000
0000
0030
,
1000
0001
1000
0000
,
0100
0010
0100
0000
,
0001
0001
0100
0100
,
0020
0000
0000
0000
,
0030
0000
0000
1001
,
0000
0110
0000
1001
,
0000
0110
0000
1001
,
0000
1000
0000
0000
,
0000
0001
0000
2000
,
0000
0000
0000
0000
,
0000
3001
0000
1001
,
0000
0110
0000
0000
,
0000
1000
0000
0002
,
0000
0000
0000
0000
,
0000
1003
0000
1001
,
0000
0110
0000
0000
,
0000
0001
0000
2000
,
0000
0000
3000
0200
,
0000
0000
0300
0020
,
0000
0000
0030
0002
,
0000
0000
0003
1000
,
0010
0100
0000
0001
,
0010
0100
0000
1000
,
1000
0010
0010
0200
,
0000
0000
0000
0300
,
0000
0000
1001
0000
,
0110
0000
1001
0000
,
0110
0000
1001
0000
,
0110
0000
0000
0000
,
1000
0000
0002
0000
,
0000
0000
0000
0000
,
1003
0001
1001
0000
,
0110
0000
0000
0000
,
0001
0000
2000
0000
,
0000
0000
0000
0000
,
3001
1000
1001
0000
,
0110
0000
0000
0000
,
0001
0000
1001
0000
,
0110
0000
1001
0000
,
0110
0000
1001
0000
,
0110
0000
1001
0000
,
0000
0000
1000
1000
,
0100
0100
0010
0010
,
0001
0001
1001
0000
,
0110
0000
0000
0000
,
1000
0001
0000
0000
;

//--------------- dance-single - Extraordiberry ----------------
#NOTEDATA:;
#STEPSTYPE:dance-single;
#DESCRIPTION:Extraordiberry;
#DIFFICULTY:Medium;
#METER:12;
#RADARVALUES:0,0,0,0,0;
#CREDIT:Extraordiberry;
#NOTES:
0000
0000
0000
0000
,
0000
0000
0000
0000
,
0000
0000
0000
0000
,
0000
0000
0000
0000
,
2000
0000
0000
3001
,
1000
0100
0010
0000
0001
0100
0010
0000
,
1000
0000
0100
0010
0000
0100
0000
0010
0000
0000
0100
0000
1000
0000
0000
0000
,
0001
0100
0010
0000
1000
0100
0010
0000
,
0100
1000
0010
1000
0100
0010
0001
0000
,
1000
0010
0100
0000
0010
1000
0100
0000
,
0010
0000
0000
0001
0000
0000
1000
0000
0000
1000
0000
0000
0010
0000
0100
0000
0010
0000
0100
0000
0000
0000
0000
0000
,
0001
0010
0100
0000
1000
0010
0100
0000
,
0001
0000
0010
0000
0100
0000
0010
0000
0001
1000
0001
1000
0001
0000
0000
0000
,
1000
0100
0010
0100
1000
0100
1100
0000
,
1000
0000
0000
0001
0000
0000
0100
0000
0001
0000
0100
0000
0101
0000
0000
0000
,
0001
1000
0100
0010
0100
1000
0010
1000
,
0100
1000
0010
0000
0100
0001
0010
0000
,
0001
0100
0010
0100
0010
1000
1010
0000
,
0001
0001
1000
0100
0010
0001
0011
0000
,
1000
0010
0100
0000
0001
0010
0100
0000
,
1000
0001
1000
0000
0001
1000
0001
0000
0000
0000
1000
0000
0001
0000
0000
0000
,
2000
0000
0000
0000
,
3200
0000
0000
0000
,
0320
0000
0000
0000
,
0032
0000
1000
1000
,
2003
0010
0001
0010
,
3002
0010
1000
0010
,
1003
1000
0001
0001
,
1001
0110
1001
0110
,
0000
0000
0000
0000
0000
0000
0000
0000
0000
0000
0000
0000
1100
0000
0000
0010
,
0000
0000
0001
0000
0000
0000
1000
0000
0001
0000
0100
0000
0101
0000
0000
0010
,
0000
0000
1000
0000
0000
0000
0001
0000
1000
0000
0100
0000
1100
0000
0000
0010
,
0000
0001
0000
1000
0001
0100
0000
0000
,
0001
0100
1000
0100
0001
0000
1000
0100
,
0010
0100
1000
0100
0010
0100
1000
0100
,
0010
0000
0001
0000
2000
0000
0000
0000
3001
0000
0000
0000
0101
0000
0000
0010
,
0000
1000
0000
0001
1000
0100
0000
0000
,
1000
0100
0001
0100
1000
0000
0001
0100
,
0010
0100
0001
0100
0010
0100
0001
0100
,
0010
0000
1000
0000
0002
0000
0000
0000
1003
0000
0000
0000
1100
0000
0000
0010
,
0000
0001
0000
1000
0001
0100
0000
0000
,
0001
0100
1000
0001
0010
0000
2000
0000
,
0000
0001
3001
0002
,
0000
1000
1003
2001
,
0000
0010
3001
1002
,
0000
0010
1003
0001
,
0100
0010
1000
0100
,
0010
0000
0001
0000
1000
0000
0001
0100
,
0010
1000
0100
0010
0001
1000
0020
0000
,
0000
0000
0000
0030
,
0000
0000
0000
0000
0000
0000
0000
0000
1010
0000
0000
1000
0000
0000
0100
0000
,
0000
0000
1000
0000
0100
0000
0010
0000
0011
0000
0000
0001
0000
0000
0100
0000
,
0000
0000
0001
0000
0100
0000
0010
0000
1010
0000
0000
1000
0000
0000
0100
0000
,
0000
1000
0100
0010
0000
0000
0001
0100
,
1000
0001
0010
0000
1000
0100
0010
0001
,
1000
0010
0100
0001
1000
0100
0010
0001
,
0200
0000
0000
0000
0301
0000
0000
0000
0011
0000
0000
0001
0000
0000
0100
0000
,
0000
0001
0100
0010
0000
0000
1000
0100
,
0001
1000
0010
0000
0001
0100
0010
1000
,
0001
0010
0100
1000
0001
0100
0010
1000
,
0200
0000
0000
0000
1300
0000
0000
0000
1010
0000
0000
1000
0000
0000
0100
0000
,
0000
0010
0001
0100
0000
0000
1000
0001
,
0010
0000
1000
0000
0001
0000
0000
0000
1100
0000
0000
0010
0000
0000
0001
0000
,
0000
0000
1000
0000
0001
0000
0100
0000
0101
0000
0000
0010
0000
0000
1000
0000
,
0000
0000
0001
0000
1000
0000
0100
0000
1100
0000
0000
0010
0000
0000
0011
0000
,
0000
0001
0100
0010
0000
0000
1000
0100
,
0001
0000
1000
0000
0010
0000
0000
0000
0101
0000
0000
0010
0000
0000
1010
0000
,
0000
0000
1000
0000
0100
0000
1000
0000
1100
0000
0000
0010
0000
0000
0011
0000
,
0000
0000
0001
0000
0100
0000
0001
0000
0101
0000
0000
0110
0000
0000
1010
0000
,
0000
1000
1001
1001
0000
0000
0001
0100
,
1000
0010
0001
0000
0000
0000
0000
0000
;

//--------------- dance-single - Extraordiberry ----------------
#NOTEDATA:;
#STEPSTYPE:dance-single;
#DESCRIPTION:Extraordiberry;
#DIFFICULTY:Hard;
#METER:16;
#RADARVALUES:0,0,0,0,0;
#CREDIT:Extraordiberry;
#NOTES:
0000
0000
0000
0000
,
0000
0000
0000
0000
,
0000
0000
0000
0000
,
0000
0000
0000
0000
,
2000
0000
0000
3001
,
1000
0100
0010
0000
0001
1000
0010
0100
0000
0100
0010
1000
0001
0000
0010
0000
,
0100
0000
0010
0001
0000
0100
0000
0010
0000
1000
0100
0000
0011
0000
0000
0000
,
0001
0100
0010
0000
1000
0001
0010
0100
0000
0100
0010
0001
1000
0000
0010
0000
,
0100
0000
0000
0001
0000
0000
0010
0000
0000
0001
0000
0000
1000
0000
0001
0000
1000
0000
0010
0000
0000
0000
0000
0000
,
1000
0001
0100
0010
0000
0010
0100
0000
0001
0010
0100
0000
1000
0010
0100
0000
,
0001
0000
0000
1000
0000
0000
0100
0000
0000
0010
0000
0000
0001
0000
0100
0000
0010
0000
1010
0000
0000
0000
0000
0000
,
0001
1000
0100
0010
0000
0010
0100
0000
1000
0001
0100
0001
1000
0100
0010
0000
,
0001
0000
0100
0000
1000
0000
0100
0000
0001
1000
0001
0000
1001
0000
0000
0000
,
1000
0100
0010
0001
1000
0100
0010
0001
1000
0100
0010
0001
0100
0000
0100
0000
,
0001
1000
0100
0010
0000
0010
0100
0000
1000
0001
0100
0000
0010
0000
0010
0000
,
1000
0100
0010
0000
0001
0100
0010
1000
0001
0100
0010
0000
1010
0000
1000
0000
,
1100
0001
0011
0000
0101
1000
1010
0000
,
0001
0010
0100
0000
1000
0010
0100
0010
1000
0001
0010
0000
0011
0000
0001
0000
,
0100
0010
0000
0010
1000
0001
0010
0000
0001
1000
0010
0000
1010
0000
1000
0000
,
0001
0010
0100
0000
1000
0010
0100
0010
1000
0001
0010
0001
1000
0010
0100
0010
,
1000
0100
0010
0001
0100
0010
2000
0000
0000
0000
0001
0000
3001
0000
0000
0000
,
2000
0000
0000
0000
,
3002
0000
0000
0000
,
0023
0000
0100
0100
,
0230
0000
1000
1300
,
2010
0010
0001
3100
,
0012
0010
1000
0103
,
2010
3100
0012
0103
,
1010
1100
0011
0101
,
MMMM
0000
0000
0000
0000
0000
0000
0000
0000
0000
0000
0000
1100
0000
0000
0110
,
0000
0000
0011
0000
0000
0000
0001
0000
1001
0000
0100
0000
0101
0000
0000
0110
,
0000
0000
1010
0000
0000
0000
1000
0000
1001
0000
0100
0000
1100
0000
0000
0110
,
0000
0011
0000
0001
1001
0100
0000
0000
,
0002
0000
1000
0000
2003
0000
3001
0000
1001
0000
0000
0000
1000
0100
0010
0100
,
1000
0001
0100
0001
1000
0100
0010
0100
1000
0001
0100
0001
1000
0100
0010
0100
,
1000
0001
0100
0010
2000
0000
0000
0000
3001
0000
0000
0000
0101
0000
0000
0110
,
0000
1010
0000
1000
1001
0100
0000
0000
,
2000
0000
0010
0000
0001
0000
0100
0000
3001
0000
0000
0000
0001
0100
0010
0100
,
0001
1000
0100
1000
0001
0100
0010
0100
0001
1000
0100
1000
0001
0100
0010
0100
,
0001
1000
0100
0010
0002
0000
0000
0000
1003
0000
0000
0000
1100
0000
0000
0110
,
0000
0011
0000
0001
1001
0100
0000
0000
,
1001
0010
0110
1000
1001
0000
2000
0000
,
0001
0010
3001
0002
,
1000
0010
1003
0102
,
0000
1000
0013
2100
,
0000
0000
0001
0000
3010
0000
1000
1000
,
0100
0100
0010
0010
0001
0001
0100
0100
,
0010
0000
0010
0000
1000
0000
1000
0000
0001
0000
0001
0000
1000
0100
0010
0001
,
0100
0010
0100
0010
1000
0100
0010
0001
0100
0010
0100
0010
2000
0000
0000
0000
,
0000
0000
0000
0000
0000
3000
MMMM
0000
,
0000
0000
0000
0000
0000
0000
0000
0000
1010
0000
0000
1001
0000
0000
1100
0000
,
0000
0000
0100
0000
0110
0000
0010
0000
0011
0000
0000
1001
0000
0000
0101
0000
,
0000
0000
0100
0000
0110
0000
0010
0000
1010
0000
0000
1001
0000
0000
1100
0000
,
0000
0100
0110
0010
0000
0000
0002
0203
,
0320
0000
2030
0000
3002
0000
0003
0000
1000
0100
0010
0001
1000
0001
0010
0100
,
1000
0100
0010
0001
1000
0001
0010
0100
1000
0100
0010
0001
1000
0001
0100
0010
,
2000
0000
0000
0000
3001
0000
0000
0000
0011
0000
0000
1001
0000
0000
0101
0000
,
0000
0100
0110
0010
0000
0000
1000
0001
,
0020
0030
0000
0000
0020
0030
0000
0000
1000
0000
0000
0000
0000
0000
0000
0000
0001
0000
1000
0000
0100
0000
0100
0000
0001
0000
1000
0000
0100
0000
0100
0000
,
0001
1000
0100
0100
0001
1000
0100
0100
0001
1000
0100
0100
0001
1000
0100
0010
,
0002
0000
0000
0000
1003
0000
0000
0000
1010
0000
0000
1001
0000
0000
1100
0000
,
0000
0100
0110
0010
0000
0000
0002
0203
,
2300
0000
3020
0000
0032
0000
0003
0000
0101
0000
0000
0110
0000
0000
1010
0000
,
0000
0000
1000
0000
1001
0000
1001
0000
1100
0000
0000
0110
0000
0000
0011
0000
,
0000
0000
0001
0000
1001
0000
1001
0000
0101
0000
0000
0110
0000
0000
1010
0000
,
0000
1000
1001
1001
0000
0000
0001
0001
,
1000
0100
0001
0100
1000
0000
0000
0000
1010
0000
1000
0100
0000
0100
0010
0000
,
0001
0100
0000
0100
0010
0000
1000
0000
0011
0000
0001
0100
0000
0100
1000
0000
,
0001
0010
0000
0010
1000
0000
0100
0000
1000
0001
0100
0100
1000
0001
0100
0100
,
1000
0001
0100
0100
1000
0001
0100
0100
0000
0000
0000
0000
MMMM
0000
MMMM
0000
,
MMMM
MMMM
MMMM
MMMM
0000
0000
0000
0000
;

//--------------- dance-double - Extraordiberry ----------------
#NOTEDATA:;
#STEPSTYPE:dance-double;
#DESCRIPTION:Extraordiberry;
#DIFFICULTY:Easy;
#METER:6;
#RADARVALUES:0,0,0,0,0;
#CREDIT:Extraordiberry;
#NOTES:
00000000
00000000
00000000
00000000
,
00000000
00000000
00000000
00000000
,
00000000
00000000
00000000
00000000
,
00000000
00000000
00000000
00000000
,
00020000
00000000
00000000
00030000
,
00001000
00000000
00010000
00000000
,
00100000
10000000
00010000
00000000
,
10000000
00000000
01000000
00000000
,
00010000
00010000
00001000
00000000
,
00010000
00000000
00001000
00000000
,
00000010
00000001
00001000
00000000
,
00000001
00000000
00000100
00000000
,
00001000
00001000
00010000
00000000
,
00001000
00010000
00001000
00000000
,
00010000
00100000
00010000
00000000
,
00100000
10000000
00100000
00000000
,
10000000
00000000
10010000
00000000
,
10000000
01000000
10000000
00000000
,
01000000
00010000
01000000
00000000
,
00010000
00001000
00010000
00001000
,
00011000
00000000
00000000
00000000
,
00020000
00000000
00000000
00030000
,
00000200
00000000
00000000
00000300
,
00002000
00000000
00000000
00003000
,
00000002
00000000
00000000
00000003
,
00001000
00000001
00000100
00000000
,
00000010
00010000
00001000
00000000
,
00010000
00001000
01000000
00010000
,
20000000
00000000
00000000
00000000
,
30000000
00000000
00000000
10000000
,
00000000
01000000
00000000
00010000
,
00000000
00001000
00000000
00000010
,
00000000
00000001
00000000
00000000
,
00000000
00001000
00000000
00000002
,
00000000
00000000
00000000
00000000
,
00000000
00001003
00000000
00000001
,
00000000
00000100
00000000
00001000
,
00000000
00010000
00000000
00002000
,
00000000
00000000
00000000
00000000
,
00000000
00013000
00000000
00001000
,
00000000
00010000
00000000
00100000
,
00000000
10000000
00000000
00020000
,
00000000
00000000
00030000
20000000
,
00000000
00000000
30000000
02000000
,
00000000
00000000
03000000
00200000
,
00000000
00000000
00300000
00001000
,
00010000
00001000
00000000
00000010
,
00001000
00000010
00000000
00000001
,
00000001
00001000
00001000
00000002
,
00000000
00000000
00000000
00000003
,
00000000
00000000
00000001
00000000
,
00000010
00000000
00001000
00000000
,
00010000
00000000
01000000
00000000
,
10000000
00000000
00000000
00000000
,
00010000
00000000
20000000
00000000
,
00000000
00000000
00000000
00000000
,
30010000
00010000
10000000
00000000
,
00100000
00000000
00010000
00000000
,
00001000
00000000
00020000
00000000
,
00000000
00000000
00000000
00000000
,
00031000
00001000
00010000
00000000
,
00001000
00000000
00000100
00000000
,
00000001
00000000
00000001
00000100
,
00000001
00000000
00000100
00001000
,
00000100
00000000
00001000
00010000
,
00001000
00000000
00010000
00100000
,
10000000
00000000
10000000
01000000
,
10000000
00000000
01000000
00010000
,
01000000
00000000
00010000
00001000
,
00010000
00001000
00000010
00000001
,
00001000
00000000
00000000
00000000
;

//--------------- dance-double - Extraordiberry ----------------
#NOTEDATA:;
#STEPSTYPE:dance-double;
#DESCRIPTION:Extraordiberry;
#DIFFICULTY:Medium;
#METER:12;
#RADARVALUES:0,0,0,0,0;
#CREDIT:Extraordiberry;
#NOTES:
00000000
00000000
00000000
00000000
,
00000000
00000000
00000000
00000000
,
00000000
00000000
00000000
00000000
,
00000000
00000000
00000000
00000000
,
00020000
00000000
00000000
00031000
,
00010000
00001000
00010000
00000000
00001000
00000010
00001000
00000000
,
00000010
00000001
00000010
00000001
00001000
00000010
00010000
00000000
,
00001000
00010000
00001000
00000000
00010000
00100000
00010000
00000000
,
00100000
10000000
01000000
10000000
00010000
00100000
00001000
00000000
,
00010000
00001000
00010000
00000000
00001000
00000010
00000001
00000000
,
00001000
00000000
00000000
00000001
00000000
00000000
00000100
00000000
00000000
00000010
00000000
00000000
00010000
00000000
00001000
00000000
00010000
00000000
00001000
00000000
00000000
00000000
00000000
00000000
,
00010000
00001000
00010000
00000000
00100000
10000000
00100000
00000000
,
10000000
00000000
01000000
00000000
00010000
00000000
00001000
00000000
00010000
00001000
00010000
00000000
00001000
00000000
00000000
00000000
,
00010000
00000100
00001000
00000100
00000010
00000001
00000100
00000000
,
00001000
00000000
00000000
00010000
00000000
00000000
00001000
00000000
01000000
00000000
00010000
00000000
00100000
00000000
00000000
00000000
,
00001000
00010000
00001000
00000010
00000001
00000010
00001000
00000000
,
00010000
00001000
00000010
00000000
00000001
00000010
00001000
00000000
,
00010000
00001000
01000000
00010000
10000000
01000000
00010000
00000000
,
00001000
00010000
00000000
00000000
00000100
00000000
00001000
00000000
00000001
00000000
00000100
00000000
00001000
00000000
00000000
00000000
,
00010000
00100000
01000000
00100000
10000000
00010000
10000000
00000000
,
01000000
00010000
00001000
00000020
00000000
00000000
00000031
00000000
,
00002000
00000000
00000000
00000000
,
00003020
00000000
00000000
00000000
,
00020030
00000000
00000000
00000000
,
00032000
00000000
01000000
01003000
,
01020000
01000000
10000000
00100000
,
00032000
00000100
00000001
00000010
,
00013000
01000000
00100000
10000000
,
11000000
01100000
00110000
00011000
,
00000000
00000000
00000000
00000000
00000000
00000000
00000000
00000000
00000000
00000000
00000000
00000000
00001000
00000000
00000000
00000010
,
00000000
00000000
00000001
00000000
00000000
00000000
00000010
00000000
00001000
00000000
00001000
00000000
00010000
00000000
00000000
00100000
,
00000000
00000000
10000000
00000000
00000000
00000000
00100000
00000000
00010000
00000000
00010000
00000000
00001000
00000000
00000000
00000100
,
00000000
00000001
00000000
00000100
00001000
00001000
00000000
00000000
,
00010000
00001000
00000010
00000100
00001000
00000000
00000001
00000100
,
00000010
00000100
00000001
00000100
00000010
00000100
00000001
00000100
,
00000010
00000000
00000100
00000000
00002000
00000000
00000000
00000000
00013000
00000000
00000000
00000000
00010000
00000000
00000000
01000000
,
00000000
10000000
00000000
01000000
00010000
00010000
00000000
00000000
,
00001000
00010000
00100000
01000000
00010000
00000000
10000000
01000000
,
00100000
01000000
10000000
01000000
00100000
01000000
10000000
01000000
,
00100000
00000000
01000000
00000000
00020000
00000000
00000000
00000000
00031000
00000000
00000000
00000000
00001000
00000000
00000000
00000010
,
00000000
00000001
00000000
00000010
00001000
00001000
00000000
00000000
,
00010000
00001000
00000100
00000001
00001000
00000000
00002001
00000000
,
00000000
00003002
00000203
00002300
,
00000000
00023000
00230000
20300000
,
00000000
32000000
03020000
00032000
,
00000000
00003020
00000032
00002003
,
00000100
00000001
00000010
00023000
,
01000000
00000000
10000000
00000000
00100000
00000000
00031000
00000100
,
00000010
00000001
00001000
00000010
00010000
00001000
00020000
00000000
,
00000000
00000000
00000000
00030000
,
00000000
00000000
00000000
00000000
00000000
00000000
00000000
00000000
00010000
00000000
00000000
00100000
00000000
00000000
10000000
00000000
,
00000000
00000000
01000000
00000000
00010000
00000000
00010000
00000000
00001000
00000000
00000000
00000010
00000000
00000000
00000001
00000000
,
00000000
00000000
00000100
00000000
00001000
00000000
00001000
00000000
00010000
00000000
00000000
01000000
00000000
00000000
10000000
00000000
,
00000000
00100000
00010000
00010000
00000000
00000000
00001000
00010000
,
01000000
00100000
00010000
00000000
10000000
00100000
01000000
00100000
,
10000000
00100000
01000000
00100000
10000000
00100000
01000000
00100000
,
00020000
00000000
00000000
00000000
00031000
00000000
00000000
00000000
00001000
00000000
00000000
00000100
00000000
00000000
00000001
00000000
,
00000000
00000010
00001000
00001000
00000000
00000000
00010000
00001000
,
00000100
00000010
00001000
00000000
00000001
00000010
00000100
00000010
,
00000001
00000010
00000100
00000010
00000001
00000010
00000100
00000010
,
00002000
00000000
00000000
00000000
00013000
00000000
00000000
00000000
00010000
00000000
00000000
00100000
00000000
00000000
10000000
00000000
,
00000000
01000000
00010000
00010000
00000000
00000000
00001000
00010000
,
00100000
00000000
10000000
00000000
00010000
00000000
00000000
00000000
10000000
00000000
00000000
01000000
00000000
00000000
00010000
00000000
,
00000000
00000000
00001000
00000000
00000010
00000000
00000010
00000000
00000001
00000000
00000000
00000100
00000000
00000000
00001000
00000000
,
00000000
00000000
00010000
00000000
00100000
00000000
00100000
00000000
10000000
00000000
00000000
01000000
00000000
00000000
00010000
00000000
,
00000000
00001000
00000010
00000010
00000000
00000000
00000001
00000100
,
00001000
00010000
00001000
00000000
00010000
00000000
00000000
00000000
00001000
00000000
00000000
00000010
00000000
00000000
00000001
00000000
,
00001000
00000000
00000001
00000000
00000100
00000000
00001000
00000000
00010000
00000000
00000000
00100000
00000000
00000000
10000000
00000000
,
00010000
00000000
10000000
00000000
01000000
00000000
00010000
00000000
00001000
00000000
00000000
00000100
00000000
00000000
00000001
00000000
,
00001000
00000001
00000010
00001000
00000000
00000000
00010000
00001000
,
00000100
00000001
00001000
00000100
00000000
00000000
00000000
00000000
;

//--------------- dance-double - Extraordiberry ----------------
#NOTEDATA:;
#STEPSTYPE:dance-double;
#DESCRIPTION:Extraordiberry;
#DIFFICULTY:Hard;
#METER:16;
#RADARVALUES:0,0,0,0,0;
#CREDIT:Extraordiberry;
#NOTES:
00000000
00000000
00000000
00000000
,
00000000
00000000
00000000
00000000
,
00000000
00000000
00000000
00000000
,
00000000
00000000
00000000
00000000
,
00020000
00000000
00000000
00031000
,
00010000
00000000
00001000
00000000
00000010
00000000
00000001
00001000
00000000
00001000
00000010
00000000
00010000
00001000
00010000
00000000
,
00001000
00000000
00000010
00000001
00000000
00001000
00000000
00000001
00000000
00000100
00001000
00000000
00010000
00000000
00000000
00000000
,
00001000
00000000
00010000
00000000
00100000
00000000
10000000
00010000
00000000
00010000
00100000
00000000
00001000
00010000
00001000
00000000
,
00100000
00000000
00000000
00010000
00000000
00000000
00001000
00000000
00000000
00000100
00000000
00000000
00010000
00000000
00001000
00000000
00010000
00000000
00001000
00000000
00000000
00000000
00000000
00000000
,
00010000
00000000
00001000
00000010
00000000
00000010
00000001
00000000
00000100
00000000
00010000
00000000
00000100
00000000
00000001
00000000
,
00001000
00000000
00000000
00000100
00000000
00000000
00000010
00000000
00000000
00000010
00000000
00000000
00000001
00000000
00000100
00000000
00001000
00000000
00010000
00000000
00000000
00000000
00000000
00000000
,
00001000
00000000
00010000
00100000
00000000
00100000
10000000
00000000
00010000
00100000
01000000
10000000
01000000
00100000
00010000
00000000
,
10000000
00000000
00100000
00000000
00010000
00000000
00001000
00000000
00000010
00000001
00001000
00000000
00001001
00000000
00000000
00000000
,
00000001
00000100
00000001
00000100
00001000
00000100
00001000
00000100
00001000
00010000
00001000
00010000
00200000
00000000
20300000
00000000
,
30010000
10000000
00010000
00100000
00000000
00100000
00001000
00000000
00010000
00000000
00100000
00000000
20000000
00000000
30020000
00000000
,
10030000
00010000
10000000
00000000
01000000
00100000
01000000
00000000
00010000
00001000
00010000
00000000
00000100
00000000
00010000
00000000
,
01000000
00010000
00000100
00000000
00000010
00001000
00100000
00000000
,
00010000
00000000
10000000
00000000
00100000
01000000
00100000
01000000
00100000
00010000
00100000
00010000
00002000
00000000
00023000
00000000
,
00031000
00000100
00000000
00000100
00000001
00001000
00000001
00000000
00000010
00000000
00001000
00000000
00020000
00000000
00032000
00000000
,
00013000
00000000
00100000
00000000
10000000
00010000
10000000
00010000
00100000
01000000
00100000
01000000
00010000
00001000
00010000
00001000
,
00000010
00000001
00001000
00000001
00000100
00001000
00020000
00000000
00000000
00000000
00001000
00000000
00031000
00000000
00000000
00000000
,
00020000
00000000
00000000
00000000
,
00230000
00000000
00000000
00000000
,
20300000
00000000
00010000
00010000
,
32000000
00000000
00010000
03010000
,
00020000
00032000
00003020
00020030
,
00032000
00003200
00020300
00031000
,
00011000
01000000
10010000
01000000
,
11000000
00110000
00001100
00000011
,
MMMMMMMM
00000000
00000000
00000000
00000000
00000000
00000000
00000000
00000000
00000000
00000000
00000000
00000002
00000000
00000000
00002003
,
00000000
00000000
00023000
00000000
00000000
00000000
20030000
00000000
30010000
00000000
00010000
00000000
20000000
00000000
00000000
30020000
,
00000000
00000000
00032000
00000000
00000000
00000000
00003002
00000000
00001003
00000000
00001000
00000000
00000002
00000000
00000000
00002003
,
00000000
00023000
00000000
20030000
30010000
00010000
00000000
00000000
,
10000000
00000000
01000000
00000000
00010000
00000000
00000100
00000000
00000010
00000000
00000000
00000000
00000001
00000100
00000001
00000100
,
00000001
00000100
00000001
00000100
00000001
00000100
00000001
00000100
00000001
00000100
00000001
00000100
00000001
00000100
00000001
00000100
,
00000010
00001000
00010000
01000000
00200000
00000000
00000000
00000000
10300000
00000000
00000000
00000000
20000000
00000000
00000000
30020000
,
00000000
00032000
00000000
00003002
00001003
00001000
00000000
00000000
,
00000001
00000000
00000100
00000000
00010000
00000000
00001000
00000000
00100000
00000000
00000000
00000000
10000000
01000000
10000000
01000000
,
10000000
01000000
10000000
01000000
10000000
01000000
10000000
01000000
10000000
01000000
10000000
01000000
10000000
01000000
10000000
01000000
,
00100000
00010000
00001000
00000100
00000020
00000000
00000000
00000000
00000031
00000000
00000000
00000000
00000002
00000000
00000000
00002003
,
00000000
00023000
00000000
20030000
30010000
00010000
00000000
00000000
,
00100000
00010000
00000010
00001000
00010000
00000000
00002000
00000000
,
00010000
00100000
00013000
00020000
,
00001000
00000010
00031000
00012000
,
00000000
01000000
00013000
00020000
,
00000000
00000000
00000100
00000000
00031000
00000000
00010000
00010000
,
00001000
00000010
00010000
00001000
00000100
00010000
00001000
00001000
,
00010000
00000000
00100000
00000000
00001000
00000000
00010000
00000000
01000000
00000000
00001000
00000000
00010000
00001000
00010000
00001000
,
00010000
00001000
00010000
00001000
00000010
00000001
00000010
00000001
00000010
00000001
00000010
00000001
00000200
00000000
00000000
00000000
,
00002300
00023000
00130000
MMMMMMMM
,
00000000
00000000
00000000
00000000
00000000
00000000
00000000
00000000
20000000
00000000
00000000
30020000
00000000
00000000
00030020
00000000
,
00000000
00000000
00000032
00000000
00001003
00000000
00001000
00000000
00000002
00000000
00000000
00002003
00000000
00000000
00203000
00000000
,
00000000
00000000
20300000
00000000
30010000
00000000
00010000
00000000
20000000
00000000
00000000
30020000
00000000
00000000
00030020
00000000
,
00000000
00000032
00001003
00001000
00000000
00000000
00000100
00010000
,
00001000
00000000
00100000
00000000
00000010
00000000
00000000
00000000
00100000
00000010
00100000
00000010
00100000
00000010
00100000
00000010
,
00100000
00000010
00100000
00000010
00100000
00000010
00100000
00000010
00100000
00000010
00100000
00000010
00010000
00001000
00010000
00000100
,
00002000
00000000
00000000
00000000
00003001
00000000
00000000
00000000
00000002
00000000
00000000
00002003
00000000
00000000
00203000
00000000
,
00000000
20300000
30010000
00010000
00000000
00000000
10000000
00001000
,
00010000
00000000
00000001
00000000
00001000
00000000
00000000
00000000
00000001
00010000
00000001
00010000
00000001
00010000
00000001
00010000
,
00000001
00010000
00000001
00010000
00000001
00010000
00000001
00010000
00000001
00010000
00000001
00010000
00001000
01000000
00010000
01000000
,
00020000
00000000
00000000
00000000
10030000
00000000
00000000
00000000
20000000
00000000
00000000
30020000
00000000
00000000
00030020
00000000
,
00000000
00000032
00001003
00001000
00000000
00000000
00002000
00000100
,
00000001
00000000
00000010
00000000
00013000
00000000
00000000
00000000
10000000
00000000
01000000
00010000
00000000
00010000
00001000
00000000
,
00000010
00001000
00000000
00001000
00010000
00000000
00000100
00001000
00000001
00000000
00000100
00001000
00000000
00001000
00010000
00000000
,
00100000
00010000
00000000
00010000
00001000
00000000
01000000
00010000
10000000
00000000
01000000
00010000
00000000
00010000
00001000
00000000
,
00000010
00001000
00000000
00001000
00010000
00000000
00000100
00000000
00000000
00000000
00000000
00000000
00001000
00000000
00001000
00000000
,
00000001
00000100
00001000
00010000
00001000
00000000
00000010
00000000
00000001
00000000
00000100
00010000
00000000
00010000
00001000
00000000
,
00100000
00010000
00000000
00010000
00001000
00000000
01000000
00010000
10000000
00000000
01000000
00001000
00000000
00001000
00010000
00000000
,
00000010
00001000
00000000
00001000
00010000
00000000
00000100
00001000
00000001
00000100
00000001
00000100
00001000
00010000
00001000
00010000
,
00100000
10000000
00100000
10000000
00001000
10000000
00001000
10000000
00000000
00000000
00000000
00000000
MMMMMMMM
00000000
MMMMMMMM
00000000
,
MMMMMMMM
MMMMMMMM
MMMMMMMM
MMMMMMMM
00000000
00000000
00000000
00000000
;
