#TITLE:Over+FLOW;
#SUBTITLE:;
#ARTIST:ZxNX;
#MUSIC:Over+FLOW.ogg;
#BANNER:;
#BACKGROUND:;
#LYRICSPATH:;
#CDTITLE:;
#SAMPLESTART:12.800;
#SAMPLELENGTH:16.000;
#OFFSET:-0.005;
#BPMS:0.000=150.000;
#STOPS:;
#TIMESIGNATURES:;
#BGCHANGES:;
#FGCHANGES:;
#ATTACKS:;
#SPEEDS:;
#SCROLLS:;

//---------------dance-single - FS----------------
#NOTES:
     dance-single:
     FS-:
     Beginner:
     5:
     0,0,0,0,0:
// measure 0
0000
0000
0000
0000
,  // measure 1
0000
0000
0000
0000
,  // measure 2
0000
0000
0000
0000
,  // measure 3
0000
0000
0000
0000
,  // measure 4
0001
0000
0001
0000
,  // measure 5
1000
0000
1000
0000
,  // measure 6
0010
0100
0010
0100
,  // measure 7
0010
0000
0000
0000
,  // measure 8
1001
0000
1000
0000
,  // measure 9
0100
0100
0010
0000
,  // measure 10
0001
1000
0001
0000
,  // measure 11
0100
0100
0010
0000
,  // measure 12
1001
0000
0001
0000
,  // measure 13
0010
0010
0100
0000
,  // measure 14
1000
1000
1000
0000
,  // measure 15
0001
0000
0001
0000
,  // measure 16
0100
0000
0010
0000
,  // measure 17
1000
0001
0010
0000
,  // measure 18
0001
1000
0010
0000
,  // measure 19
0100
0000
0110
0000
,  // measure 20
1001
0000
0001
0000
,  // measure 21
0010
0100
1000
0000
,  // measure 22
0001
0100
0010
0000
,  // measure 23
1000
1000
1000
0000
,  // measure 24
1001
0000
0000
0110
,  // measure 25
0000
0000
0001
0000
,  // measure 26
1001
0000
0000
0110
,  // measure 27
0000
0000
1000
0000
,  // measure 28
0100
0100
0100
0110
,  // measure 29
0000
0000
0001
0000
,  // measure 30
1001
1000
0010
0110
,  // measure 31
0000
1000
0001
0000
,  // measure 32
1001
0000
0001
0100
,  // measure 33
0100
0000
0010
1000
,  // measure 34
0001
0000
0010
0001
,  // measure 35
0001
0000
1001
0000
,  // measure 36
1000
0000
1000
0000
,  // measure 37
0010
0000
0010
0000
,  // measure 38
1000
0001
1000
0001
,  // measure 39
2000
0000
0000
0000
,  // measure 40
3001
0000
1001
0000
,  // measure 41
0100
0000
0110
0000
,  // measure 42
1000
0000
1001
0000
,  // measure 43
0010
0000
0110
0000
,  // measure 44
0001
0000
0001
0000
,  // measure 45
0010
0000
0010
0010
,  // measure 46
0200
0000
0000
0000
,  // measure 47
0000
0000
0000
0300
,  // measure 48
1001
0000
1000
0000
,  // measure 49
0000
0000
0010
0000
,  // measure 50
0110
0000
0001
0000
,  // measure 51
0000
0000
1000
0000
,  // measure 52
1001
0000
0100
0000
,  // measure 53
0000
0010
0001
0000
,  // measure 54
0110
0000
1000
0001
,  // measure 55
0000
0100
0010
0000
,  // measure 56
0110
0000
0001
0000
,  // measure 57
1000
0000
0100
0000
,  // measure 58
0110
0000
1001
0000
,  // measure 59
1000
0000
0110
0000
,  // measure 60
0000
0000
1001
0000
,  // measure 61
1001
0000
1001
0000
,  // measure 62
0001
1000
0001
1000
,  // measure 63
0001
0000
1000
0001
,  // measure 64
0200
0300
0100
0000
,  // measure 65
1000
0001
0001
0000
,  // measure 66
0100
0100
0010
0000
,  // measure 67
1000
0001
0010
0000
,  // measure 68
0110
0000
1000
0000
,  // measure 69
0001
0001
0100
0000
,  // measure 70
0010
0010
0010
0000
,  // measure 71
2000
0000
0000
0000
,  // measure 72
3000
0001
1000
0000
1000
0000
0000
0000
,  // measure 73
0100
0010
0001
0000
,  // measure 74
1000
0010
1000
0000
,  // measure 75
0001
0000
1001
0000
,  // measure 76
0001
0000
0001
0000
,  // measure 77
1000
0000
1000
0000
,  // measure 78
0010
0100
0010
0100
,  // measure 79
0020
0000
0000
0030
,  // measure 80
2002
0000
0000
0000
,  // measure 81
3003
0000
0000
0000
;

//---------------dance-single - FS----------------
#NOTES:
     dance-single:
     FS-:
     Easy:
     8:
     0,0,0,0,0:
// measure 0
0000
0000
0000
0000
,  // measure 1
0000
0000
0000
0000
,  // measure 2
0000
0000
0000
0000
,  // measure 3
0000
0000
0000
0000
,  // measure 4
1000
0100
0010
0000
,  // measure 5
0001
1000
0010
0000
,  // measure 6
1000
1000
0001
0001
,  // measure 7
0020
0000
0000
0130
,  // measure 8
2002
3003
1000
0010
,  // measure 9
1000
0001
0001
0000
0010
0000
0001
0000
,  // measure 10
1000
0010
0000
0100
0001
0000
0010
0000
,  // measure 11
0100
0000
1000
0000
1000
0000
0000
0000
0001
0000
0000
0100
0000
0000
0010
0000
,  // measure 12
2000
0000
0002
3003
1000
0000
0100
0000
,  // measure 13
0010
0100
0100
0000
1000
0000
0010
0000
,  // measure 14
0100
0100
0100
0000
0001
0000
1000
0000
,  // measure 15
0100
0000
0000
0000
0010
0000
0000
0001
0000
0000
0010
0000
0100
0000
0000
0000
,  // measure 16
1001
1000
0010
1000
,  // measure 17
0100
0010
0001
0000
1000
0000
0010
0000
,  // measure 18
0100
0010
1000
0000
0001
0000
0010
0000
,  // measure 19
0100
0000
1000
0000
0000
1000
0000
0000
1001
0000
0000
0000
0000
0000
0000
0000
,  // measure 20
0002
0000
0000
0023
0000
0000
0000
0000
0130
0000
0000
0000
1000
0000
0000
0000
,  // measure 21
0010
0100
0001
0000
1000
0000
0100
0000
,  // measure 22
0010
0100
1000
0000
0001
0000
0100
0000
,  // measure 23
0001
1000
0001
1000
0001
0000
0000
0000
,  // measure 24
2002
0000
3003
0220
0000
0330
1001
0000
,  // measure 25
0001
0010
0100
1000
,  // measure 26
1010
0010
0100
0101
,  // measure 27
0001
1000
0100
0010
,  // measure 28
0100
0100
0100
0110
,  // measure 29
0010
0001
1000
0010
,  // measure 30
0110
0110
0100
0101
,  // measure 31
0001
0011
0010
0100
,  // measure 32
2000
0000
0000
3020
0000
0000
0000
0000
0130
0000
0000
0000
0010
0000
0000
0000
,  // measure 33
1000
0001
0010
0000
0100
0000
0010
0000
,  // measure 34
0001
0100
0010
0000
1000
0000
0001
0000
,  // measure 35
0010
0000
0100
0000
0000
0100
0000
0000
0110
0000
0000
0000
0000
0000
0000
0000
,  // measure 36
1000
0001
1000
0000
,  // measure 37
0010
0100
0001
0000
,  // measure 38
1000
0000
0100
0000
0010
0000
0001
1000
,  // measure 39
0020
0200
0300
0000
,  // measure 40
1030
0001
1001
0000
,  // measure 41
0001
0010
0011
0000
,  // measure 42
1000
0100
1100
0000
,  // measure 43
0010
0100
0110
0000
,  // measure 44
0001
1000
0100
0010
,  // measure 45
0100
0000
1000
0000
0010
0000
0100
0001
,  // measure 46
2000
0000
0000
0000
,  // measure 47
0100
0100
0100
3100
,  // measure 48
0220
0000
0000
0000
0330
0000
0000
0000
0001
0000
0000
1000
0000
0000
0001
0000
,  // measure 49
0000
0000
0000
0000
0000
0000
0000
0000
0100
0000
0000
0010
0000
0000
0100
0000
,  // measure 50
0002
0000
0000
0000
0003
0000
0000
0000
1000
0000
0000
0100
0000
0000
1000
0000
,  // measure 51
0000
0000
0010
0100
,  // measure 52
2002
0000
0000
0000
3003
0000
0000
0000
0001
0000
0000
1000
0000
0000
0100
0000
,  // measure 53
0000
0010
0001
0000
0100
0000
0010
0000
,  // measure 54
2020
0000
0000
0000
3030
0000
0000
0000
0001
0000
0000
0010
0000
0000
0100
0000
,  // measure 55
0000
0000
0010
0001
1000
0000
0010
0000
,  // measure 56
0220
0000
0000
0000
0330
0000
0000
0000
1000
0000
0000
0001
0000
0000
0010
0000
,  // measure 57
0100
0000
0010
0000
0000
0000
0001
0000
1000
0000
0000
0010
0000
0000
0100
0000
,  // measure 58
0002
0000
0000
0000
1003
0000
0000
0000
0100
0000
0000
0010
0000
0000
0100
0000
,  // measure 59
1000
0010
2002
3003
,  // measure 60
0001
0010
0110
0000
,  // measure 61
1100
0000
1001
0000
,  // measure 62
0001
0100
0010
1000
,  // measure 63
0200
0000
0310
0001
,  // measure 64
0200
0000
0000
0000
0300
0000
0000
0000
0100
0000
0000
1000
0000
0000
0100
0000
,  // measure 65
0010
0001
0000
0100
0010
0000
0100
0000
,  // measure 66
0001
1000
0100
0000
0010
0000
0100
0000
,  // measure 67
1000
0000
0001
0000
0001
0000
0000
0000
0100
0000
0000
0010
0000
0000
1000
0000
,  // measure 68
0002
0000
0020
0033
0001
0000
1000
0000
,  // measure 69
0010
0100
0100
0000
0001
0000
1000
0000
,  // measure 70
0100
0100
0100
0000
0010
0000
0001
0000
,  // measure 71
2000
0000
0000
0000
,  // measure 72
3000
0010
0010
0000
1000
0000
0001
0000
,  // measure 73
0010
0100
0000
1000
0001
0000
0100
0000
,  // measure 74
0010
1000
0001
0000
0010
0000
0100
0000
,  // measure 75
1000
0000
0001
0000
0000
0001
0000
0000
1001
0000
0000
0000
0000
0000
0000
0000
,  // measure 76
1000
0010
0100
0000
,  // measure 77
0010
1000
0001
0000
,  // measure 78
0010
0000
0100
0000
1000
0000
0001
0100
,  // measure 79
0020
0000
0000
0030
,  // measure 80
2002
0000
0000
0000
,  // measure 81
3003
0000
0000
0000
;

//---------------dance-single - XO FS----------------
#NOTES:
     dance-single:
     XO FS-:
     Medium:
     12:
     0,0,0,0,0:
// measure 0
0000
0000
0000
0000
,  // measure 1
0000
0000
0000
0000
,  // measure 2
0000
0000
0000
0000
,  // measure 3
0000
0000
0000
0000
,  // measure 4
1000
0000
0010
1000
0100
0000
0010
0001
,  // measure 5
1000
0000
0010
0100
0001
0000
0100
0010
,  // measure 6
1000
0000
0000
0100
0000
0000
0010
0000
0000
0001
0000
0000
0100
0000
0010
0000
,  // measure 7
0002
0000
0000
0000
0000
0000
0013
0100
,  // measure 8
0220
0000
0000
0330
0001
0010
0001
1000
,  // measure 9
0000
1010
1010
0000
1000
0100
0010
0001
,  // measure 10
0000
0101
0000
0100
0010
0001
0010
1000
,  // measure 11
0000
0000
1001
0000
1001
0000
0000
0000
0001
0000
0000
0010
0000
0000
0100
0000
,  // measure 12
2200
3300
2002
3003
1000
0010
1000
0001
,  // measure 13
0000
0011
0011
0000
0001
0100
0010
0000
,  // measure 14
1000
0001
1000
0000
1001
0000
0001
0000
0010
0000
0010
0000
0100
0000
0100
0000
,  // measure 15
1000
0000
0000
0000
0000
0000
0000
0000
0000
0000
0000
0000
0001
0000
0000
0000
0000
0000
0000
0000
0000
0100
0000
0000
0000
0000
0000
0000
0000
0000
0010
0000
0000
0000
0000
0000
1000
0000
0000
0000
0001
0000
0000
0000
1000
0000
0000
0000
,  // measure 16
0200
0000
0310
0000
0100
1000
0010
0100
,  // measure 17
0001
0000
0010
0000
0001
1000
0000
0000
0100
0000
1000
0000
0010
0000
0000
0000
,  // measure 18
1000
0000
0001
0000
0010
0001
0000
0000
0010
0000
0100
0000
1000
0000
0010
0000
,  // measure 19
0100
0000
0110
0000
0000
1001
0000
0000
1200
0000
0000
0000
0000
0000
0310
0000
,  // measure 20
0002
0000
0000
2000
0000
0000
3003
0000
0001
0000
0100
0000
0010
0000
0001
0000
,  // measure 21
0010
0000
0100
0000
0001
0100
0000
0000
0001
0000
1000
0000
0100
0000
0010
0000
,  // measure 22
0001
0000
0100
0000
0010
1000
0000
0000
0001
0000
0010
0000
0001
0000
1000
0000
,  // measure 23
0001
1000
0001
1000
0001
1000
0001
1000
0001
0000
0000
0000
0000
0000
0000
0000
,  // measure 24
2002
3003
1001
0220
0330
0110
2001
0000
,  // measure 25
0100
0000
3001
0100
0010
0000
0100
0001
,  // measure 26
0012
0000
1003
0010
0100
0000
0201
0000
,  // measure 27
0010
0000
0301
1000
0100
0010
0001
0000
,  // measure 28
0100
0100
0100
0210
,  // measure 29
1000
0000
0310
1000
0001
0000
0010
0100
,  // measure 30
0110
0000
1100
0000
1001
0001
0201
0000
,  // measure 31
0310
0000
2010
0000
3100
0010
1000
0010
,  // measure 32
0002
0000
0000
2003
0000
0000
3010
0000
0100
0000
0001
0000
0010
0000
0001
0000
,  // measure 33
0100
0000
1000
0000
0000
0000
0100
0000
0010
0000
1000
0000
0100
0000
0000
1000
,  // measure 34
0001
0000
1000
0001
0000
1000
0001
0000
0010
0000
0100
0000
1000
0000
0001
0000
,  // measure 35
0100
0000
0110
0000
0000
1010
0000
0000
2002
0000
0000
0000
0000
0000
3003
0000
,  // measure 36
0001
0000
0010
0000
0100
0000
0010
0001
,  // measure 37
1000
0010
0100
1000
0100
0010
1000
0001
,  // measure 38
0010
0000
0000
0100
0000
0000
1000
0000
0000
0001
0000
0000
0100
0000
0010
0000
,  // measure 39
2010
0002
0003
0000
,  // measure 40
3100
0010
0011
0001
,  // measure 41
1000
0010
0110
0100
,  // measure 42
0001
1000
1100
0100
,  // measure 43
0010
0001
1001
0000
,  // measure 44
1000
0010
1000
0001
0010
0100
1000
0000
,  // measure 45
0001
0100
0001
1000
0100
0010
1000
0010
,  // measure 46
0002
0000
0000
0000
,  // measure 47
1000
1000
1000
1003
,  // measure 48
2020
0000
0000
0000
3030
0000
0000
0000
0001
0000
0000
0100
0000
0000
0010
0000
,  // measure 49
0000
0000
1000
0000
0001
0000
0000
0000
0010
0000
0000
0100
0000
0000
1000
0000
,  // measure 50
2002
0000
0000
0000
3003
0000
0000
0000
1000
0000
0000
0010
0000
0000
0100
0000
,  // measure 51
0001
0000
0000
0000
1000
0100
0010
0001
,  // measure 52
0202
0000
0000
0000
0303
0000
0000
0000
0110
0000
0000
0010
0000
0000
1000
0000
,  // measure 53
0000
0100
0110
0010
0001
0000
1000
0000
,  // measure 54
2020
0000
0000
0000
3030
0000
0000
0000
0101
0000
0000
0001
1000
0000
0100
0000
,  // measure 55
0000
0010
0100
1000
0001
0100
0010
0000
,  // measure 56
2010
0000
0000
0000
3100
0000
0000
0000
0110
0000
0000
0010
0000
0000
0001
1000
,  // measure 57
0001
0000
0100
0000
0000
0000
0010
0000
1000
0000
0000
0100
0000
0000
1000
0001
,  // measure 58
1000
0000
0000
0000
0000
0000
0000
0000
0000
0000
0000
0000
0100
0000
0000
0000
0010
0000
0000
0000
0001
0000
0000
0000
0100
0000
0000
0000
0000
0000
0000
0000
0000
1000
0000
0000
0000
0000
0000
0000
0000
0000
0100
0000
0000
0000
0000
0000
,  // measure 59
0001
0000
1000
0100
0020
0000
0000
0000
,  // measure 60
0031
1000
0010
0000
1010
0000
0001
0000
,  // measure 61
0011
1000
1010
0100
,  // measure 62
1001
0011
1010
0110
,  // measure 63
2002
0000
0000
3003
1000
0100
0001
0100
,  // measure 64
0020
0000
0000
0000
0030
0000
0000
0000
0010
0000
0000
1000
0000
0000
0100
0000
,  // measure 65
0010
0012
0000
0103
0001
0000
0010
0100
,  // measure 66
1000
1010
0010
0000
0100
0001
1000
0100
,  // measure 67
0000
0000
0110
0000
0110
0000
0000
0000
0010
0000
0000
0001
0000
0000
0100
0000
,  // measure 68
0220
0330
2020
3030
1000
0100
0010
0001
,  // measure 69
0000
1001
1001
0000
1000
0010
0100
0000
,  // measure 70
0001
1000
0001
0000
1000
0001
0000
0000
0010
0000
0100
0000
0001
0000
0100
0000
,  // measure 71
2000
0000
0000
0000
,  // measure 72
3000
1010
1010
0000
0001
0010
0100
1000
,  // measure 73
0010
0001
0000
0010
0100
0001
1000
0000
,  // measure 74
0100
0010
0001
0000
0100
0010
1000
0100
,  // measure 75
0000
0000
0110
0000
0000
0011
0000
0000
2001
0000
0000
3100
0000
0010
0000
0100
,  // measure 76
1000
0000
0010
0000
0100
0000
0001
0010
,  // measure 77
0001
1000
0010
1000
0100
0010
0001
0100
,  // measure 78
0010
0000
0000
1000
0000
0000
0100
0000
0000
0001
0000
0000
0100
0000
1000
0000
,  // measure 79
0002
0200
0300
0003
,  // measure 80
2002
0000
0000
0000
,  // measure 81
3003
0000
0000
0000
;

//---------------dance-single - XO RH FS----------------
#NOTES:
     dance-single:
     XO RH FS-:
     Hard:
     15:
     0,0,0,0,0:
// measure 0
0000
0000
0000
0000
,  // measure 1
0000
0000
0000
0000
,  // measure 2
0000
0000
0000
0000
,  // measure 3
0000
0000
0000
0000
0000
0000
1000
0001
1000
0001
0000
0000
,  // measure 4
0010
0000
0000
0010
0001
0000
0100
0000
0010
0000
0000
0010
1000
0000
0001
0000
,  // measure 5
0100
0000
0000
0100
0001
0000
0010
0000
0100
0000
0000
0100
1000
0000
0001
0000
,  // measure 6
0101
0000
0000
1001
0000
0000
1010
0000
0000
1100
0000
0000
0100
0010
0100
0010
,  // measure 7
0002
0000
0000
0000
0000
0000
0000
0000
0000
0000
0000
0000
1003
0010
0000
0100
,  // measure 8
0002
0000
0000
0000
0000
0000
1003
0100
0010
1000
0000
0010
0000
0100
1000
0000
,  // measure 9
0001
0000
1001
0000
1010
0000
0010
0000
0100
0010
0000
0001
0000
0010
0100
0000
,  // measure 10
0001
0000
0011
0000
0010
0100
0000
0000
1000
0010
1000
0001
0000
0001
0010
0000
,  // measure 11
0001
0000
1001
0000
1001
0000
0000
0000
1010
0000
0000
0110
0000
0000
0101
0000
,  // measure 12
0021
0000
0000
0000
1000
0000
0000
0000
0031
0100
0000
0010
0000
0001
0010
0000
,  // measure 13
0100
0000
0101
0000
1001
0000
0001
0010
0100
0000
0010
0001
0000
1000
0010
0000
,  // measure 14
1000
0100
0001
0000
1000
0000
0010
0000
0001
1000
0001
1000
0010
0100
0010
0100
,  // measure 15
1000
0000
0000
0100
0000
0000
0000
0000
0000
0100
0000
0000
0001
0000
0000
0000
0000
0000
0001
0000
0000
0010
0000
0000
0000
0000
0000
0010
0000
0000
1000
0000
0000
0000
0000
0000
0010
0000
0000
0000
0100
0000
0000
0000
1000
0000
0000
0000
,  // measure 16
0001
0000
0000
0000
0100
0010
1000
0000
0100
0010
0000
1000
0000
0010
0100
0000
,  // measure 17
1000
0000
0010
0000
0100
0010
0000
0100
1000
0000
0100
0000
0001
0010
0000
0010
,  // measure 18
0100
0000
0001
0000
0100
0001
0000
0000
0100
0010
0001
0000
1000
0010
0100
0010
,  // measure 19
1000
0000
1010
0000
0000
0011
0000
0000
1001
0000
0001
0200
0000
0000
0310
0100
,  // measure 20
0020
0000
0030
2010
0000
0000
3000
0000
0100
0010
1000
0000
0010
0100
0000
0100
,  // measure 21
1000
0001
0100
0000
0010
0100
0000
0000
0001
0010
0001
0000
1000
0010
0000
1000
,  // measure 22
0001
0000
0010
0000
0100
0010
0000
0010
0001
1000
0010
0000
0100
0001
1000
0100
,  // measure 23
0010
1000
0010
1000
0010
1000
0010
1000
0010
0000
0000
0000
0110
0000
0000
0000
,  // measure 24
2002
0000
0000
0000
0000
0000
0000
0000
3003
0000
0000
0000
0000
0000
0000
0000
1001
0000
0000
0000
0000
0000
0000
0000
0220
0000
0000
0000
0000
0000
0000
0000
0330
0000
0000
0000
0000
0000
0000
0000
1001
0000
0000
0000
0000
0000
0000
0000
1000
0000
0000
0000
0100
0000
0000
0000
1000
0000
0000
0000
0000
0001
0000
0000
,  // measure 25
0000
0100
0000
0000
0000
0000
0010
0000
0000
0000
0000
1000
0000
0000
0000
0000
1001
0000
0000
0000
0000
0000
0000
0000
0000
0000
0000
0000
0000
0000
0000
0000
,  // measure 26
0001
0000
0000
0000
0010
0000
0000
0000
0001
0000
0000
0000
0000
1000
0000
0000
0000
0000
0000
0000
0001
0000
0000
0000
0100
0000
0000
0000
0001
0000
0000
0000
0100
0000
0000
0000
0000
0000
0000
0000
0000
0000
0000
0000
0000
0000
0000
0000
0010
0000
0000
0000
1000
0000
0000
0000
0010
0000
0000
0000
0000
0100
0000
0000
,  // measure 27
0000
0001
0000
0000
0000
0000
0010
0000
0000
0000
0000
0100
0000
0000
0000
0000
1000
0000
0000
0000
0000
0000
0000
0000
0001
0000
1000
0000
0010
0000
0000
0000
,  // measure 28
0100
0000
0000
0000
0000
0000
0000
0000
0000
0000
0000
0000
0000
0000
0000
0000
0100
0000
0000
0000
0000
0000
0000
0000
0000
0000
0000
0000
0000
0000
0000
0000
0100
0000
0000
0000
0000
0000
0000
0000
0000
0000
0000
0000
0000
0000
0000
0000
0001
0000
0000
0000
0010
0000
0000
0000
0001
0000
0000
0000
0000
1000
0000
0000
,  // measure 29
0000
0010
0000
0000
0000
0000
0100
0000
0000
0000
0000
0001
0000
0000
0000
0000
1001
0000
0000
0000
0000
0000
0000
0000
0000
0000
0000
0000
0000
0000
0000
0000
,  // measure 30
1000
0000
0000
0000
0000
0000
0000
0000
0000
0100
0000
0000
0000
0000
0000
0000
0000
0000
0010
0000
0000
0000
0000
0000
0001
0000
0000
0000
1000
0000
0000
0000
0000
0000
0000
0000
0010
0000
0000
0000
0000
0000
0000
0000
0000
0100
0000
0000
0001
0000
0000
0000
0000
0000
0000
0000
0000
0000
0000
0000
1000
0000
0000
0000
0000
0000
0000
0000
0000
0000
0000
0000
0001
0000
0000
0000
0000
0000
0000
0000
0010
0000
0000
0000
0000
0000
0000
0000
0000
0000
1000
0000
0000
0000
0000
0000
,  // measure 31
0000
0010
0000
0000
0001
0000
0000
1000
0000
0000
0010
0000
0000
0100
0000
0000
0001
0000
0000
0000
0010
0000
0100
0000
0010
0000
0000
0000
0001
0000
1000
0000
,  // measure 32
0010
0000
0000
0210
0000
0000
0301
1000
0100
0010
0000
1000
0000
0010
0100
0000
,  // measure 33
1000
0000
0010
0000
0100
0000
0001
0010
0100
0000
0010
0001
0000
0001
0000
1000
,  // measure 34
0010
0000
0100
0000
0001
0100
0000
0001
0100
0000
0010
0000
1000
0100
1000
0000
,  // measure 35
0001
0000
0011
0000
0000
1010
0000
0000
2002
0000
0000
0000
0000
0000
3003
0000
,  // measure 36
1000
0100
0010
0100
1000
0010
0100
0000
,  // measure 37
0001
0010
0100
1000
0001
0100
0010
0000
,  // measure 38
1000
0000
1000
0100
0000
0100
0010
0000
0010
0001
0000
0001
1000
0010
1000
0001
,  // measure 39
0020
0200
0300
0000
,  // measure 40
0031
0000
0000
0000
1000
0000
0000
0000
1010
0000
0000
0000
0010
0000
0100
0001
,  // measure 41
1000
0000
0100
0000
0110
0010
0001
0000
,  // measure 42
1000
0000
0000
0000
0010
0000
0000
0000
0110
0000
0000
0000
0100
0000
0001
1000
,  // measure 43
0100
0010
0011
0000
,  // measure 44
0001
0000
0000
0100
0000
0000
0010
0000
0000
1000
0000
0000
0001
0000
0000
1000
,  // measure 45
0100
0000
1000
0001
0000
1000
0010
0000
0100
0010
0100
0010
0100
0001
1000
0100
,  // measure 46
0020
0000
0000
0000
,  // measure 47
0100
0100
0100
0130
,  // measure 48
2002
0000
0000
0000
3003
0000
0000
0000
1010
0000
0000
1001
0000
0000
1100
0000
,  // measure 49
0000
0000
1000
0000
0010
0000
0100
0000
0101
0000
0000
1001
0000
0000
0011
0000
,  // measure 50
0220
0000
0000
0000
0330
0000
0000
0000
1100
0000
0000
1001
0000
0000
0101
0000
,  // measure 51
0000
0000
0000
0000
0000
0000
0000
0000
0100
0010
1000
0001
0010
0000
0100
0000
,  // measure 52
2100
0000
0000
0000
3001
0000
0000
0000
0101
0000
0000
0110
0000
0000
1010
0000
,  // measure 53
0000
0000
1001
0000
1001
0000
0001
0010
0100
0000
0000
0000
0001
0000
0100
0000
,  // measure 54
2100
0000
0000
0000
3010
0000
0100
0000
0101
0000
0000
1001
0000
0000
1100
0000
,  // measure 55
0000
0000
0100
0000
0010
0001
0100
0000
0010
1000
0100
0000
0010
1000
0010
0000
,  // measure 56
0002
0000
0000
0000
0000
0000
0000
0000
0103
0000
0000
0010
0000
0000
1000
0000
0100
0000
0000
0000
0000
0000
0110
0000
0000
0000
0000
0000
0100
0000
1000
0000
,  // measure 57
0010
0000
0100
0000
0001
0000
1000
0000
0100
0000
0000
0110
0000
0000
0010
0001
,  // measure 58
2000
0000
0000
0000
0000
0000
0000
0000
0000
3010
0000
0000
0100
0000
0000
0000
0010
0000
0000
0000
0100
0000
0000
0000
0010
0000
0000
0100
0000
0000
0010
0000
0000
0100
0000
0000
0000
0000
0000
0000
0000
0000
0001
0000
0000
0010
0000
0000
,  // measure 59
0100
0000
0001
0000
0100
0010
0001
0000
2000
0000
0000
0000
0000
0000
0000
0000
,  // measure 60
3010
0000
0000
0100
0000
0000
0001
0000
0000
0000
0000
0000
0011
0000
0000
0000
0000
0000
1000
0000
0010
0000
0100
0000
,  // measure 61
1000
0000
0000
0000
0000
0000
0100
0000
0001
0000
0010
0000
1000
0000
0000
0000
0000
0000
0010
0000
0000
0100
0000
0000
,  // measure 62
1000
0000
0000
0001
0100
0000
0010
0000
0100
0000
1000
0000
0100
0010
0100
0001
,  // measure 63
2000
0000
0000
0000
0000
0000
0000
0000
3100
0000
0010
0001
0100
0001
1000
0010
,  // measure 64
0200
0000
0000
0000
0300
0000
0000
0000
0100
1000
0000
0010
0000
0000
0100
0000
,  // measure 65
0001
0000
0021
0000
0000
0130
1000
0000
0001
0000
0100
0010
0100
0000
0001
0010
,  // measure 66
0100
0000
1100
0000
1000
0000
0001
0100
0010
0100
0000
1000
0000
0100
0010
0100
,  // measure 67
0001
0000
0011
0000
0110
0000
0100
0000
1100
0000
0000
1010
0000
0000
0110
0000
,  // measure 68
0201
0000
0000
0000
1000
0000
0000
0000
0301
1000
0000
0100
0010
0000
1000
0000
,  // measure 69
0010
0000
0110
0000
0011
0000
0001
0000
1000
0000
0000
0010
0000
0000
1000
0000
,  // measure 70
0001
0100
1000
0000
0001
0010
0000
0000
1000
0000
0010
1000
0001
0000
0010
0001
,  // measure 71
2000
0000
0000
0000
,  // measure 72
3000
0000
1100
0000
1001
0000
0001
0010
0100
0010
0000
1000
0000
0010
0100
1000
,  // measure 73
0000
0001
0100
0000
0010
0000
0100
0001
1000
0000
0100
0000
0010
0001
0000
0001
,  // measure 74
1000
0010
0000
0010
0100
0000
0001
0000
0010
0100
0001
0000
0100
0000
0010
0001
,  // measure 75
1000
0000
1010
0000
0000
0110
0000
0000
1002
0000
0000
0010
0000
0010
0000
0013
,  // measure 76
0100
1000
0010
1000
0001
0100
0010
0000
,  // measure 77
1000
0001
0010
0100
1000
0010
1000
0000
,  // measure 78
0001
0000
0001
0010
0000
0010
0100
0000
0100
1000
0000
1000
0010
0100
0001
1000
,  // measure 79
0200
0020
0030
0300
,  // measure 80
2002
0000
0000
0000
,  // measure 81
3003
0000
0000
0000
;

//---------------dance-single - BU+ XO+ SJ+ BR RH- FS----------------
#NOTES:
     dance-single:
     BU+ XO+ SJ+ BR RH- FS-:
     Challenge:
     18:
     0,0,0,0,0:
// measure 0
0000
0000
0000
0000
,  // measure 1
0000
0000
0000
0000
,  // measure 2
0000
0000
0000
0000
,  // measure 3
0000
0000
0000
0000
0000
0000
0001
0100
0010
1000
0000
0000
,  // measure 4
1100
0000
0100
1000
0010
0000
0100
0000
0001
0000
0010
0001
1000
0000
0010
0000
,  // measure 5
1000
0000
0100
0010
0001
0000
0100
0000
0010
0000
1000
0001
0010
0001
1000
0000
,  // measure 6
1010
0000
0000
1001
0000
0000
0011
0000
0000
0110
0000
0000
0100
1000
0010
0100
,  // measure 7
2000
0000
0000
0000
0000
0000
0000
0000
0000
0000
0000
0000
3100
0010
0000
1000
,  // measure 8
2002
0000
0000
0000
0000
0000
0000
0000
0003
0000
0000
0000
3100
0010
0100
0000
1000
0000
0010
0000
0000
0000
0001
0000
0000
0000
0010
0000
0100
0000
0000
0000
,  // measure 9
0001
0000
0010
0000
0101
0000
0000
0000
1010
0000
0000
0000
0001
0000
1000
0000
0010
0100
0010
0000
0000
0000
0001
0000
0000
0000
0010
0000
1000
0000
0000
0000
,  // measure 10
0001
0000
0010
0000
0101
0000
0010
0000
1000
0000
0002
0000
0000
0000
0000
0000
0103
0000
1000
0000
0001
0000
0100
0000
0001
1000
0001
0000
0100
0000
0000
0000
,  // measure 11
0010
1000
0101
0000
1010
0000
0001
0000
0100
0010
1000
0100
0010
0001
0100
0010
,  // measure 12
2020
0000
0000
0000
3030
0000
0000
0000
2002
0000
0000
0000
3003
0000
0000
0000
1000
0010
1000
0000
0000
0000
0100
0000
0000
0000
0001
0000
0100
0000
0000
0000
,  // measure 13
1000
0010
1100
0000
0011
0000
1000
0010
0100
1000
0100
0001
0000
1000
0100
0000
,  // measure 14
1010
0000
0101
0000
1010
0000
0000
0000
0101
0000
1000
0000
0010
0000
0100
0000
0001
0000
0010
0000
0001
0000
0010
0000
0100
1000
0100
0000
1000
0000
0100
0000
,  // measure 15
0010
0000
0000
0001
0000
0000
0000
0000
0000
0001
0000
0000
1000
0000
0000
0000
0000
0000
1000
0000
0000
0010
0000
0000
0000
0000
0000
0010
0000
0000
0100
0000
0000
0000
0000
0000
1000
0000
0000
0000
0100
0000
0000
0000
0001
0000
0000
0000
,  // measure 16
0010
0000
0000
0000
0000
0000
0000
0000
0000
0000
0000
0000
0000
0000
0000
0000
0000
0000
0000
0000
0000
0000
0000
0000
0001
0000
0000
0000
1000
0000
0000
0000
0001
0000
0000
0000
0100
0000
0000
0000
0000
0000
0010
0000
0000
0000
0000
0000
1000
0000
0000
0001
0000
0000
1000
0000
0000
0000
0000
0000
0000
0000
0000
0000
0000
0000
0100
0000
0000
0000
0000
0000
0000
0000
0000
0000
0000
0000
0010
0000
0000
0000
0000
0000
1000
0000
0000
0000
0000
0000
0000
0000
0000
0000
0000
0000
,  // measure 17
0010
0000
0100
0000
1000
0000
0000
0000
0010
0000
0001
0000
0000
0000
0010
0000
0100
0000
0000
0000
0001
0010
0001
0000
0000
0000
1000
0000
0000
0000
0010
0000
,  // measure 18
0100
0000
0000
0000
1000
0000
0000
0000
0100
0000
1000
0000
0000
0000
0000
0000
0100
0000
0001
0000
0010
0000
0000
0000
0001
0000
0100
0000
0010
1000
0010
0000
,  // measure 19
0100
0000
0011
0000
1000
0101
0000
0000
0010
0000
0001
0100
0000
0000
0010
1000
,  // measure 20
2002
0000
3003
0022
0000
0000
0033
0000
0001
0100
0010
0000
0001
0010
0000
0100
,  // measure 21
0001
0010
1000
0000
0010
1000
0000
0000
0010
0000
0001
1000
0010
0100
0000
0010
,  // measure 22
0100
1000
0100
0000
1000
0100
0000
0001
1000
0100
0010
0000
0001
1000
0100
0010
,  // measure 23
0100
0001
0100
0001
0100
0001
0100
0001
0100
0000
0000
0000
0110
0000
0000
0000
,  // measure 24
2002
0000
0000
0000
0000
0000
0000
0000
0000
0000
0000
0000
3003
0000
0000
0000
1001
0000
0000
0000
0000
0000
0000
0000
0220
0000
0000
0000
0000
0000
0000
0000
0000
0000
0000
0000
0330
0000
0000
0000
0110
0000
0000
0000
0000
0000
0000
0000
0001
0000
0000
0000
1000
0000
0000
0000
0100
0000
0000
0000
0000
0010
0000
0000
,  // measure 25
0000
0001
0000
0000
0000
0000
0100
0000
0000
0000
0000
1000
0000
0000
0100
0000
0010
0000
1000
0000
0100
0000
0000
0000
0000
0000
0000
0000
0010
0000
0001
0000
,  // measure 26
1000
0000
0000
0000
0010
0000
0000
0000
1000
0000
0000
0000
0000
0100
0000
0000
0000
0000
0000
0000
0001
0000
0000
0000
0100
0000
0000
0000
0010
0000
0000
0000
0001
0000
0000
0000
1000
0000
0000
0000
0010
0000
0000
0000
0000
0000
0000
0000
0001
0000
0000
0000
0010
0000
0000
0000
0100
0000
0000
0000
0000
0001
0000
0000
,  // measure 27
0000
0000
0000
1000
0000
0000
0000
0000
0000
0000
0000
0000
0000
0000
0000
0000
0000
0000
0100
0000
0000
0000
0000
0000
0000
0000
0000
0000
0000
0000
0000
0000
0000
0010
0000
0000
0000
0000
0000
0000
0000
0000
0001
0000
0000
0000
0000
0000
1000
0000
0000
0000
0000
0000
0010
0000
0000
0100
0000
0000
0010
0000
0000
0000
0100
0000
0000
0000
0001
0000
0000
0000
1000
0000
0000
0000
0000
0000
0100
0000
0000
0000
0000
0000
0010
0000
0000
0000
0000
0000
0000
0000
0000
0000
0000
0000
,  // measure 28
0100
0000
0000
0000
0000
0000
0000
0000
0000
0000
0000
0000
0000
0000
0000
0000
0100
0000
0000
0000
0000
0000
0000
0000
1000
0000
0000
0000
0001
0000
0000
0000
0100
0000
0000
0000
0000
0000
0000
0000
0000
0000
0000
0000
0000
0000
0000
0000
1000
0000
0000
0000
0100
0000
0000
0000
0010
0000
0000
0000
0000
1000
0000
0000
,  // measure 29
0000
0001
0000
0000
0000
0000
0010
0000
0000
0000
0000
1000
0000
0000
0010
0000
0100
0000
1000
0000
0010
0000
0000
0000
0100
0000
0000
0000
1000
0000
0000
0000
,  // measure 30
0100
0000
0000
0000
0000
0000
0000
0000
0000
0001
0000
0000
0000
0000
0000
0000
0000
0000
1000
0000
0000
0000
0000
0000
0100
0000
0000
0000
0010
0000
0000
0000
0000
0000
0000
0000
0001
0000
0000
0000
0000
0000
0000
0000
0000
1000
0000
0000
0010
0000
0000
0000
0000
0000
0000
0000
0000
0000
0000
0000
0100
0000
0000
0000
0000
0000
0000
0000
0000
0000
0000
0000
0001
0000
0000
0000
0000
0000
0000
0000
0010
0000
0000
0000
0000
0000
0000
0000
0000
0000
1000
0000
0000
0000
0000
0000
,  // measure 31
0000
0010
0000
0000
0001
0000
0000
1000
0010
0000
0100
0000
0000
0001
0000
0000
0010
0000
0001
1000
0001
0000
0100
0000
0010
0000
1000
0000
0001
0000
1000
0000
,  // measure 32
1100
0000
0000
0120
0000
0000
1030
0010
0001
0000
0100
0010
0000
0001
0010
1000
,  // measure 33
0001
0000
0010
0000
0100
0000
0000
0000
1000
0000
0010
0000
1000
0000
0001
0010
0001
0000
1000
0000
0001
0100
0001
0000
1000
0000
0010
0000
0100
0000
0001
0000
,  // measure 34
0010
0000
0000
0000
1000
0000
0010
0000
0001
0000
0010
0000
1000
0000
0010
0000
0001
0000
1000
0000
0010
0000
0000
0000
0100
0000
0010
0000
1000
0001
1000
0000
,  // measure 35
0100
0010
0101
0000
1000
0011
0100
0001
2001
0000
0000
0000
0000
0000
3010
1000
,  // measure 36
0001
0000
0010
0000
0001
0000
0100
0000
0010
1000
0001
0000
0010
0000
0100
0000
,  // measure 37
1000
0000
0010
0000
0100
0000
0010
0000
1000
0001
0010
0000
0100
0000
0010
0000
,  // measure 38
0001
1000
0010
1000
0001
0100
0010
1000
0001
1000
0100
0010
0100
1000
0010
0100
,  // measure 39
0002
0000
0020
0000
0030
1000
1000
1000
,  // measure 40
1003
0000
0000
0000
1000
0000
0000
0000
1010
0000
0000
0000
1000
0000
0010
0100
,  // measure 41
0001
0000
0001
0000
0011
0010
0001
0000
,  // measure 42
0100
0000
0000
0000
0000
0000
0100
0000
0000
0000
0000
0000
0110
0000
0000
0000
0000
0000
0100
0000
0000
0010
1000
0010
,  // measure 43
1000
1000
1001
0000
,  // measure 44
0001
0000
0010
0100
0000
0000
1000
0000
0001
0100
0000
0000
0010
0000
0000
1000
,  // measure 45
0001
0000
0000
0000
0000
0000
1000
0000
0000
0100
0000
0000
0000
0000
0000
0010
0000
0000
0100
0000
0000
0000
0000
0000
0010
0000
0000
0001
0000
0000
1000
0000
0000
0010
0000
0000
0100
0000
0001
0000
1000
0000
0100
0000
1000
0000
0001
0000
,  // measure 46
0020
0000
0000
0000
,  // measure 47
0100
0100
0100
0130
,  // measure 48
2002
0000
0000
0000
0000
0000
0000
0000
3003
0000
0001
0100
0001
0000
0000
0000
1001
0000
0000
0000
0000
0000
1100
0000
0000
0000
0000
0000
0110
0000
0000
0000
,  // measure 49
0000
0000
0100
0000
1000
0000
0010
0000
0110
0000
0000
0101
0000
0000
0011
0000
,  // measure 50
2001
0000
0000
0000
3100
0000
0000
0000
0110
0000
0000
1100
0000
0000
1001
0000
,  // measure 51
0001
0000
0000
0000
0000
0000
0000
0000
0100
0000
0000
0000
0000
0000
0010
1000
0010
0000
0100
0000
0001
0000
1000
0000
0100
0000
0010
0000
0001
0000
1000
0000
,  // measure 52
1002
0000
0000
0000
0103
0000
0000
0000
0110
0000
0000
1010
0000
0000
1001
0000
,  // measure 53
0000
0000
0000
0000
0000
0000
0000
0000
0000
0000
0000
0000
0000
0000
0000
0000
0000
0000
0000
0000
0000
0000
0000
0000
0011
0000
0000
0000
0000
0000
0000
0000
0000
0000
0000
0000
0000
0000
0000
0000
0000
0000
0000
0000
0000
0000
0000
0000
0110
0000
0000
0000
0000
0000
0000
0000
0000
0000
0000
0000
0000
0000
0000
0000
0000
0000
0000
0000
0000
0000
0000
0000
0100
0000
0000
0000
0000
0000
0000
0000
0000
0000
0000
0000
1000
0000
0000
0000
0000
0000
0000
0000
0000
0000
0000
0000
2001
0000
0000
0000
0000
0000
0000
0000
0000
0000
0000
0000
0000
0000
0000
0000
0000
0000
0000
0000
0000
0000
0000
0000
0000
0000
0000
0000
0000
0000
0000
0000
0000
0000
0000
0000
0000
0000
0000
0000
0000
0000
0000
0000
0000
0000
0000
0000
3010
0000
0000
0000
0000
0000
0000
0000
0000
0000
0100
0000
0000
0000
0000
0000
0000
0000
0000
0001
0000
0000
0000
0000
0000
0000
0000
0000
0000
1000
0000
0000
0000
0000
0000
0000
0000
0000
0100
0000
0000
0000
0000
0000
0000
0000
0000
0000
,  // measure 54
0020
0000
0000
0000
0031
1000
0100
0000
1100
0000
0000
0110
0001
0000
0011
0000
,  // measure 55
0000
0000
1000
0000
1010
0010
0100
0000
0101
0100
0010
0000
1000
0100
0010
0000
,  // measure 56
0012
0000
0000
0000
0000
0000
0000
0000
1003
0000
0000
0010
0000
0000
0100
0000
0101
0000
0000
0000
0000
0000
0110
0000
0000
0000
0000
0000
1000
0000
0001
0000
,  // measure 57
0011
0000
0110
0000
0010
0001
1000
0000
1010
0000
0000
1001
0000
0000
0001
0010
,  // measure 58
0012
0000
0000
0000
0000
0000
0000
0000
0003
1000
0000
0000
0010
0000
0000
0000
0001
0000
0000
0000
0010
0000
0000
0000
1000
0000
0000
0001
0000
0000
0010
0000
0000
1000
0000
0000
0000
0000
0000
0000
0000
0000
0010
0000
0000
0001
0000
0000
,  // measure 59
1000
0000
0010
0000
0100
1000
0100
0000
0102
0000
0000
0000
0000
0000
0000
0000
,  // measure 60
0013
0000
0000
0100
0000
0000
1000
0000
0000
0000
0000
0000
1001
0000
0000
0000
0000
0000
1010
0000
0010
0000
0100
0000
,  // measure 61
0101
0000
0000
0000
0000
0000
0000
0000
0000
0000
0000
0000
0000
0000
0000
0000
0000
0000
0000
0000
0000
0000
0000
0000
0000
0000
0000
0000
0000
0000
0000
0000
0000
0000
0000
0000
0000
0000
0000
0000
0000
0000
0000
0000
0000
0000
0000
0000
0011
0000
0000
0000
0000
0000
0000
0000
0000
0000
0000
0000
0000
0000
0000
0000
0000
0000
0000
0000
0000
0000
0000
0000
0000
0000
0000
0000
0000
0000
0000
0000
1000
0000
0000
0000
0000
0000
0000
0000
0000
0000
0000
0000
0000
0000
0000
0000
1010
0000
0000
0000
0000
0000
0000
0000
0000
0000
0000
0000
0000
0000
0000
0000
0000
0000
0000
0000
0000
0000
0000
0000
0000
0000
0000
0000
0000
0000
0000
0000
0000
0000
0000
0000
0000
0000
0000
0000
0000
0000
0000
0000
0000
0000
0000
0000
0010
0000
0000
0000
0000
0000
0000
0000
0000
0000
0100
0000
0000
0000
0000
0000
0000
0000
0000
0001
0000
0000
0000
0000
0000
0000
0000
0000
0000
0010
0000
0000
0000
0000
0000
0000
0000
0000
0100
0000
0000
0000
0000
0000
0000
0000
0000
0000
,  // measure 62
1000
0000
0000
0001
0101
0000
1000
0000
1001
0000
0001
0000
0010
0100
1000
0010
,  // measure 63
0002
0000
0000
0000
0000
0000
0000
0000
1003
0100
0001
0010
1000
0010
0001
0100
,  // measure 64
0210
0000
0000
0000
0000
0000
0000
0000
0300
0000
0000
0000
0000
0000
0000
0000
0100
1000
0100
0000
0000
0000
0010
0000
0000
0000
0000
0000
1000
0000
0000
0000
,  // measure 65
0010
0000
0001
0000
2100
0000
0000
0000
0000
0000
3010
0000
0100
0000
0000
0000
0001
0010
0001
0000
0100
0000
0010
0000
0001
0000
0010
0000
0000
0000
1000
0000
,  // measure 66
0001
0000
0010
0000
0101
0000
0000
0000
0010
0000
1000
0000
0010
0000
0100
0000
1000
0000
0010
0000
0000
0000
0100
0000
0001
1000
0001
0000
0010
0000
0000
0000
,  // measure 67
0100
1000
0011
0000
1100
0000
0001
0010
0100
1000
0010
0100
0001
0010
0100
1000
,  // measure 68
2200
0000
0000
0000
3300
0000
0000
0000
2002
0000
0000
0000
3003
0000
0000
0000
0001
0010
0001
0000
1000
0000
0010
0000
0100
0000
0000
0000
1000
0000
0100
0000
,  // measure 69
0010
1000
0101
0000
1010
0000
0001
0000
0100
0000
0010
1000
1001
0000
0001
0000
,  // measure 70
1010
0000
0101
0000
1010
0000
0000
0000
0101
0000
1010
0000
0000
0000
0001
1000
0001
0000
0100
0000
0010
0000
1000
0000
0100
0010
0100
0000
1000
0000
0001
0000
,  // measure 71
2002
0000
0000
0000
,  // measure 72
3003
0000
1001
0000
1010
0000
1000
0100
0001
0000
0100
0010
0001
0100
0010
0001
,  // measure 73
0000
0000
1000
0000
0100
0000
0000
0000
0000
0000
0001
0000
0010
0000
0100
1000
0100
0000
0010
0000
0001
1000
0001
0000
0000
0000
0100
0000
0000
0000
0010
0000
,  // measure 74
0001
0000
0010
0000
0000
0000
1000
0000
0001
0000
0000
0000
0010
0000
0001
1000
0001
0000
0100
0000
0010
0000
0000
0000
0001
0000
0010
0000
1000
0000
0001
0010
,  // measure 75
0001
0000
1010
0000
0001
1100
0010
1000
1200
0000
0000
0010
0000
0001
0000
0310
,  // measure 76
0001
0000
0100
0000
0010
0000
1000
0000
0001
0010
0100
0000
0010
0000
0001
0000
,  // measure 77
1000
0000
0010
0000
1000
0000
0100
0000
0010
0001
1000
0000
0010
0000
0100
0000
,  // measure 78
0001
0010
0001
0100
0010
1000
0001
1000
0100
0010
1000
0010
0100
1000
0001
0100
,  // measure 79
0120
2000
3000
0030
,  // measure 80
2002
0000
0000
0000
,  // measure 81
3003
0000
0000
0000
;
