#TITLE:Orange Road;
#SUBTITLE:;
#ARTIST:Bronze;
#TITLETRANSLIT:;
#SUBTITLETRANSLIT:;
#ARTISTTRANSLIT:;
#GENRE:;
#CREDIT:Evergreen;
#MUSIC:Orange-Road-Edit.ogg;
#BANNER:orange-bn.png;
#BACKGROUND:orange-bg.png;
#CDTITLE:;
#SAMPLESTART:55.168;
#SAMPLELENGTH:17.838;
#SELECTABLE:YES;
#OFFSET:-0.033;
#BPMS:0.000=111.000;
#STOPS:;
#BGCHANGES:;
#FGCHANGES:;

//--------------- dance-single - Everorange ----------------
#NOTES:
     dance-single:
     Everorange:
     Medium:
     11:
     0,0,0,0,0:
0000
0000
0000
0000
,
0000
0000
0000
0000
,
0000
0000
0000
0000
,
0000
0000
0000
0000
,
1000
0010
0000
0010
0000
0000
0000
0100
0001
0000
1000
0000
1001
0000
0000
0000
,
0001
0010
0000
0010
0000
0000
0000
0100
1000
0000
0001
0000
1001
0000
0000
0000
,
1000
0100
0000
0100
0000
0000
0000
0010
0001
0000
1000
0000
1001
0000
0001
0000
,
0010
0000
0000
0100
1000
0000
0010
0000
0100
0000
0001
0000
1000
0000
0100
0000
,
0022
0033
0202
0303
,
2020
3030
0022
0033
1001
0010
0100
1000
,
0001
0000
0000
0100
0001
0000
0000
0000
0010
0000
0100
0000
1000
0000
0010
0000
,
0100
0000
0000
0001
1000
0000
0000
0000
0010
0000
0100
0000
0001
0000
1000
0000
,
0100
0010
0000
0100
1000
0002
0000
0013
,
0100
0000
1000
0000
0010
0000
0000
0100
0001
0000
0010
0000
0100
0000
1000
0000
,
1001
0000
0001
0100
0000
0010
0100
0010
,
1000
0000
0000
0100
0010
0000
0000
0000
0001
0000
0000
0100
0010
0000
1000
0000
,
0001
0000
0010
0001
0000
1000
0010
0100
,
0001
0010
0100
1000
0001
1000
0001
0000
,
1001
0000
0000
1000
0100
0000
0020
0000
0001
0000
0000
0000
0130
0000
1000
0000
,
0010
0100
0001
1000
0001
0010
0100
0000
,
1000
0010
0100
0001
0000
0100
0010
1000
,
0001
0100
0001
1000
0100
1000
0001
1000
,
1001
0000
0010
0100
1000
0001
1000
0020
,
0000
0230
0000
0302
0000
1003
0100
0010
,
0001
0000
0000
1000
0001
0000
0000
0000
1000
0000
0010
0000
0100
0000
0001
0000
,
1000
0000
0000
0001
1000
0000
0000
0000
0001
0000
0010
0100
0000
1000
0001
0000
,
1001
1000
0010
1000
0000
0100
0010
0001
,
0000
0000
0100
0000
0010
0000
1000
0010
1000
0000
0001
0000
0010
0000
0100
0000
,
1000
0001
1000
0200
0000
1300
0001
0020
,
0000
0000
0230
0000
0000
0000
1300
0000
0010
0100
0001
0000
1000
0000
0001
0000
,
1001
1000
0010
0100
0000
0010
1000
0100
,
0000
0000
1000
0000
0001
0000
0010
0100
0010
0000
0001
0000
1000
0000
0010
0000
,
0100
0001
1000
0100
0000
1000
0001
2000
,
0000
3002
0000
0013
0100
1000
0001
1000
,
1002
0000
1003
0100
0020
0000
0031
1000
,
0010
0000
0100
0000
0001
0000
1000
0010
0000
0100
0000
0100
0001
0000
0010
0000
,
0001
0010
0100
1000
0010
0100
0001
1000
,
0100
0000
0010
0000
0001
0000
1000
0100
1000
0000
0000
0001
0000
0000
0100
0000
,
0101
0000
0000
0001
0010
0000
0000
0100
1000
0000
0001
0000
0010
0000
0001
0000
,
1000
0000
0010
0000
0100
0000
0001
0010
0000
0100
0000
0100
1000
0000
0010
0000
,
0100
0000
0000
0001
0100
0000
0000
0001
1000
0000
0100
0010
0001
0000
1000
0000
,
0002
0000
0000
0000
0000
0000
0103
0010
1000
0010
0000
0100
0001
0000
1000
0000
,
1001
0001
0010
0001
0000
0100
0010
1000
,
0000
0000
0100
0000
0010
0000
0001
0010
0001
0000
1000
0000
0010
0000
0100
0000
,
0001
1000
0001
0200
0000
0301
1000
0020
,
0000
0000
0230
0000
0000
0000
0301
0000
0010
0100
1000
0000
0001
0000
1000
0000
,
1001
0001
0010
0100
0000
0010
0001
0100
,
0000
0000
0001
0000
1000
0000
0010
0100
0010
0000
1000
0000
0001
0000
0010
0000
,
0100
1000
0001
0100
0000
0001
1000
0020
,
0100
0000
0130
0010
0100
0001
1000
0001
,
0010
0000
0100
0000
1000
0000
0001
0100
0000
0000
0010
0000
1000
0000
0001
1000
,
0010
0000
0100
0000
0010
0000
1000
0000
0001
0010
0001
0000
1000
0000
0001
0000
,
0020
0000
0000
0000
0130
0000
0020
0000
0000
0000
0031
0000
1000
0000
0010
1000
,
0001
0000
0000
0010
0100
0000
0010
0001
1000
0000
0010
1000
0001
0000
1000
0000
,
0010
0000
0100
0000
0001
0000
1000
0100
0000
0000
0010
0000
0001
0000
1000
0001
,
0010
0000
0100
0000
0010
0000
0001
0000
1000
0010
1000
0000
0001
0000
1000
0000
,
0020
0000
0000
0000
0130
0000
0020
0000
0000
0000
1030
0000
0001
0000
0010
0001
,
1000
0000
0000
0010
0100
0000
0010
1000
0001
0000
0010
0001
1000
0000
0001
0000
,
0010
0000
0100
0000
1000
0000
0001
0100
0000
0000
0010
0000
1000
0000
0001
1000
,
0010
0000
0100
0000
0010
0000
1000
0000
0001
0010
0001
0000
1000
0000
0001
0000
,
0020
0000
0000
0000
0130
0000
0020
0000
0000
0000
0031
0000
1000
0000
0010
1000
,
0002
0000
0000
0000
,
0003
0000
0000
0000
;

//--------------- dance-single - Everorange ----------------
#NOTES:
     dance-single:
     Everorange:
     Hard:
     13:
     0,0,0,0,0:
0000
0000
0000
0000
,
0000
0000
0000
0000
,
0000
0000
0000
0000
,
0000
0000
0000
0000
,
1000
0010
0000
1000
0001
0000
0000
0010
0001
0000
0010
0000
0200
0000
1300
0000
,
0001
0010
0000
0001
1000
0000
0000
0010
1000
0000
0010
0000
0200
0000
0301
0000
,
0010
0001
0000
0010
0100
0000
0000
1000
0010
0000
0100
0000
0002
0000
1003
0000
,
0020
0000
0130
0001
0100
0000
0020
0000
0130
0001
1000
0100
0010
0000
0001
0000
,
1000
0010
0100
0001
1000
0000
0000
0000
0001
0010
0100
1000
0001
0000
0000
0000
,
1000
0010
0100
0001
1000
0000
0001
0000
0010
0000
0100
0000
1000
0000
0001
0000
,
1000
0000
0000
0010
1000
0000
0001
0000
0010
0000
0100
0010
0001
0000
1000
0000
,
0001
0000
0000
0010
0001
0000
1000
0000
0010
0000
0100
0010
1000
0000
0001
0000
,
0100
0000
0000
0001
0010
0000
0001
0000
1000
0000
0010
1000
0100
0000
0010
0000
,
0100
0000
0000
1000
0010
0000
0100
0001
1000
0000
0010
0100
0001
0000
1000
0000
,
0010
0000
0000
1000
0001
0000
0010
0000
0100
0000
0010
0001
1000
0000
0001
0000
,
0010
0000
0000
0001
1000
0000
0010
0000
1000
0000
0001
0100
0010
0000
1000
0000
,
0001
0000
0000
0010
0100
0000
1000
0000
0010
0000
0100
0000
0001
0000
1000
0010
,
0100
0000
0010
0100
0001
0000
1000
0000
0100
0010
0000
0001
0000
1000
0001
0000
,
1000
0000
0000
0010
0100
0000
1000
0000
0100
0000
0001
0000
1000
0000
0000
0000
,
0001
0000
0000
0010
0100
0000
0001
0000
0100
0000
1000
0001
1000
0000
0001
0000
,
0100
0001
1000
0000
0100
1000
0001
0000
,
0010
0001
0010
0001
1000
0010
1000
0010
,
0100
0000
0000
0001
0100
0000
0001
0000
0010
0000
0100
1000
0001
0000
1000
0000
,
0010
0000
0000
0100
0001
0000
0010
0000
0100
0000
1000
0001
1000
0000
0001
0000
,
0100
0000
0000
0010
1000
0000
0000
0000
0100
0000
0010
0000
0001
0000
1000
0000
,
0001
0000
0000
0100
0010
0000
1000
0000
0001
0010
0100
1000
0001
0000
1000
0000
,
0010
0001
0010
0100
0001
0010
0100
1000
,
0001
0000
0000
1000
0100
0000
0010
0001
1000
0000
0010
1000
0100
0000
0010
0000
,
0001
0000
1000
0000
0010
0000
0100
0000
0000
0000
0010
0000
1000
0001
1000
0000
,
0100
0000
0000
0010
0001
0000
1000
0010
0100
0000
0001
0010
0100
0000
1000
0000
,
0100
0001
0100
0010
0001
0100
0010
1000
,
0001
0000
0000
1000
0010
0000
0100
0001
1000
0000
0100
1000
0010
0000
0100
0000
,
0001
0000
1000
0000
0100
0000
0010
0000
0000
0000
0100
0000
1000
0001
1000
0000
,
0010
0000
0000
0100
0001
0000
1000
0100
0010
0001
0000
1000
0010
0000
0100
0001
,
2000
0000
0000
3100
0010
0000
0001
0000
0020
0000
0000
0130
1000
0000
0001
0100
,
0010
0000
1000
0000
0010
0000
0100
0001
1000
0000
0100
0000
0010
0000
0001
0000
,
1000
0000
0000
0010
0100
0000
0001
0000
1000
0000
0100
0000
0010
0000
0000
0000
,
0001
0000
0000
1000
0001
0000
1000
0000
0010
0000
0100
0001
1000
0000
0100
0010
,
0002
0000
0000
1003
0001
0000
0000
0100
0001
0000
0010
0100
1000
0000
0001
0000
,
1000
0000
0010
0000
0100
0000
0001
1000
0001
0000
0010
0000
0100
0000
1000
0010
,
0200
0000
0000
0310
1000
0000
0001
0000
0010
0000
0100
1000
0001
0000
1000
0000
,
0020
0000
0000
0130
0001
0000
1000
0100
0010
0000
0001
0100
0010
0000
1000
0001
,
0010
1000
0010
0100
1000
0010
0100
0001
,
1000
0000
0000
0001
0100
0000
0010
1000
0001
0000
0010
0001
0100
0000
0010
0000
,
1000
0000
0001
0000
0010
0000
0100
0000
0000
0000
0010
0000
0001
1000
0001
0000
,
0100
0000
0000
0010
1000
0000
0001
0010
0100
0000
1000
0010
0100
0000
0001
0000
,
0100
1000
0100
0010
1000
0100
0010
0001
,
1000
0000
0000
0001
0010
0000
0100
1000
0001
0000
0100
0001
0010
0000
0100
0000
,
1000
0000
0001
0000
0100
0000
0010
0000
0000
0000
0100
0000
0001
1000
0001
0000
,
0010
0000
0000
0100
1000
0000
0001
0100
0010
1000
0000
0001
0010
0000
0100
1000
,
0001
0000
1000
0010
1000
0000
0001
0000
0010
0000
0100
0000
1000
0001
1000
0000
,
0001
0000
0010
0001
1000
0000
0010
0100
0010
0100
0001
1000
0001
0000
1000
0000
,
0010
0000
0100
0001
0000
1000
0100
0000
0010
0001
1000
0000
0001
0000
1000
0000
,
0010
0000
0000
0100
0001
0000
1000
0100
0010
0000
0001
1000
0000
0000
0001
0000
,
1000
0000
0001
0010
0001
0000
1000
0000
0010
0000
0100
0000
0001
1000
0001
0000
,
1000
0000
0010
1000
0001
0000
0010
0100
0010
0100
1000
0001
1000
0000
0001
0000
,
0010
0000
0100
1000
0000
0001
0100
0000
0010
1000
0001
0000
1000
0000
0001
0000
,
0010
0000
0000
0100
1000
0000
0001
0100
0010
1000
0100
0010
0001
0000
1000
0000
,
0001
0000
0010
0000
0100
0000
1000
0001
0000
0000
1000
0000
0010
0000
0100
0001
,
1000
0000
0010
1000
0000
0001
0010
0100
0010
0100
1000
0010
0100
0000
0001
0000
,
2000
0000
0000
0000
3100
0000
0020
0000
0000
0000
0130
0000
0000
0000
1000
0010
,
0200
0000
0000
0000
,
0300
0000
0000
0000
;

//--------------- dance-single - Everorange ----------------
#NOTES:
     dance-single:
     Everorange:
     Challenge:
     15:
     0,0,0,0,0:
0000
0000
0000
0000
,
0000
0000
0000
0000
,
0000
0000
0000
0000
,
0000
0000
0000
0000
,
1000
0001
0000
0010
0001
0000
0000
0010
0100
0000
0001
0000
0100
0010
0001
1000
,
0001
0100
0000
0010
1000
0000
0000
0010
0100
1000
0100
0010
1000
0100
0010
0001
,
1000
0010
0000
0100
0001
0000
0000
0010
0001
0000
0010
0100
1000
0000
0010
0000
,
1010
0000
1000
0001
0010
0000
0011
0000
0001
0010
0001
0100
0010
0000
1000
0001
,
1000
0010
0100
0001
1000
0100
0010
0001
0010
0100
1000
0001
0100
0010
1000
0001
,
1000
0010
0100
0001
1000
0100
0010
0001
2000
0000
3020
0000
0230
0000
0302
0000
,
1003
0000
0000
0100
0010
0000
0000
0000
0001
0000
0100
0001
0010
0000
0001
0000
,
0100
0000
0000
0010
1000
0000
0000
0001
1000
0010
1000
0010
0100
0001
0010
0001
,
1000
0000
0000
0001
0100
0000
0001
0010
0100
0000
1000
0000
0010
0000
0100
0001
,
1000
0000
0000
0010
0100
0000
0001
0010
0002
0000
0023
0000
0230
0000
2300
0000
,
3001
0000
0000
0100
0010
0000
0000
0000
1000
0000
0100
1000
0001
0000
1000
0000
,
0100
0000
0000
0010
0001
0000
0000
1000
0001
0100
0001
0100
0010
1000
0100
1000
,
0001
0000
0000
1000
0100
0000
1000
0010
0100
0000
0001
0000
0010
0000
0100
1000
,
0001
0000
0010
0100
1000
0001
1000
0010
0100
0001
0000
1000
0000
0010
0100
0001
,
1000
0000
0000
0100
1000
0000
0020
0000
0000
0000
0130
0000
1000
0000
0100
0000
,
0001
0000
0010
0001
1000
0000
0001
0000
1000
0100
1000
0100
0010
0001
0100
0001
,
1000
0000
0000
0001
0010
0000
0100
1000
0001
0000
1000
0010
0100
0000
0001
0000
,
2000
0000
0100
0000
3002
0000
0100
0000
2003
0000
3010
0100
0001
1000
0000
0100
,
1000
0000
0001
0100
0010
0000
1000
0000
0001
0000
0100
0000
0001
0000
0010
0000
,
0100
0000
0001
0000
0100
0000
0010
0000
0001
0010
0001
0010
0100
1000
0010
1000
,
0001
0000
0000
0100
0001
0000
1000
0000
0100
0000
1000
0000
0001
0000
1000
0000
,
0010
0000
0000
1000
0001
0000
0010
0000
0001
0010
0100
1000
0001
0000
1000
0000
,
0010
0000
0100
0000
0010
0000
0001
0000
0010
0000
1000
0001
0010
0000
0100
0000
,
0001
0000
0100
1000
0001
0000
0100
0001
1000
0100
1000
0010
0200
0000
0302
0000
,
0013
0000
0100
1000
0001
0100
0020
0000
0000
0000
0130
0001
1000
0100
0010
0001
,
1000
0000
0000
0001
1000
0000
0010
0100
0001
1000
0100
0010
0001
1000
0001
0010
,
0100
0000
0010
0000
0100
0000
1000
0010
0100
0000
1000
0000
0100
0000
0001
0000
,
1000
0010
0000
1000
0100
0000
0010
0001
0100
0001
1000
0100
2000
0000
3002
0000
,
0013
0000
0100
1000
0001
0100
0020
0000
0000
0000
0130
0000
0001
1000
0100
0010
,
0001
0000
0000
1000
0010
0000
0100
0001
0010
0100
1000
0001
0100
0010
1000
0001
,
2000
0000
0000
0000
0000
0000
3100
1000
0002
0000
0000
0000
0000
0000
0103
0001
,
0010
0100
1000
0100
0010
0001
1000
0002
0000
0000
0000
0000
1003
0100
0010
0002
,
0000
0003
0010
0100
1000
0010
0100
1000
0100
0010
1000
0001
0010
0100
0001
0100
,
1000
0001
0100
0010
1000
0001
0010
0100
2000
0000
3010
0100
0000
0001
0010
0100
,
2000
0000
0000
3010
0100
0000
0001
0000
1000
0000
0100
0010
0001
0100
0010
0001
,
0010
1000
0000
0001
0000
0010
0000
0100
0001
0100
1000
0010
0000
0000
0100
0001
,
0200
0000
0300
0010
1000
0000
0001
0000
0010
0000
0100
0010
0001
1000
0010
0100
,
0002
0000
0003
1000
0001
0000
0010
0100
1000
0001
0000
1000
0100
0000
1000
0000
,
0001
0000
0100
0000
0010
0000
0001
0000
0010
0000
1000
0001
0010
0000
0100
0000
,
0001
0000
0100
1000
0001
0000
0100
0001
1000
0100
1000
0010
0200
0000
0302
0000
,
0013
0000
0100
1000
0001
0100
0020
0000
0000
0000
0130
0001
1000
0100
0010
0001
,
1000
0000
0000
0001
1000
0000
0010
0100
0001
0010
0100
1000
0002
0000
0023
0000
,
0130
0000
0001
0000
0100
0000
1000
0010
0100
0000
1000
0000
0100
0000
0001
0000
,
1000
0010
0000
1000
0100
0000
0001
0100
0010
0000
0100
1000
0001
0100
0001
0010
,
0200
0000
1300
0001
0100
0001
2000
0000
0000
0000
3001
0100
0010
1000
0100
1000
,
0020
0000
0000
1030
0001
0000
0010
0100
1000
0001
1000
0100
0010
0001
0100
0001
,
1000
0000
0010
0100
0001
1000
0000
0001
0100
0010
0000
0100
1000
0000
0100
0001
,
0010
0000
0100
0010
0000
0100
0000
0001
0100
0010
0000
0001
1000
0010
0100
0001
,
1000
0000
0100
0010
0001
1000
0020
0000
0130
0001
1000
0100
0010
1000
0010
0100
,
1000
0000
0010
0100
0000
0001
1000
0100
0010
0001
0100
0010
1000
0000
0001
0010
,
0200
0000
1300
0010
0100
0001
0020
0000
0031
0100
0010
1000
0001
0010
0100
0001
,
0100
1000
0000
0010
0000
1000
0010
0001
0010
1000
0001
0000
0100
0000
0001
0000
,
1000
0100
0001
0100
0010
0001
0010
0000
0100
0000
1000
0000
0001
0100
1000
0100
,
0010
1000
0001
0010
0001
0000
0010
0001
1000
0010
0100
0001
1000
0100
0010
0001
,
1000
0000
0010
0000
0100
0000
0001
1000
0000
0000
0001
0000
0010
0000
0100
1000
,
0001
0000
0010
0001
0000
1000
0010
0100
0010
0100
0001
0010
0100
0000
1000
0000
,
0002
0000
0000
0000
0103
0000
0020
0000
0000
0000
0130
0000
0000
0000
0001
0010
,
0200
0000
0000
0000
,
0300
0000
0000
0000
;
