#TITLE:One Pound Fish;
#SUBTITLE:;
#ARTIST:£1 Fish Man;
#TITLETRANSLIT:;
#SUBTITLETRANSLIT:;
#ARTISTTRANSLIT:;
#GENRE:;
#CREDIT:azureHaights;
#BANNER:One Pound Fish-bn.png;
#BACKGROUND:One Pound Fish-bg.png;
#LYRICSPATH:One Pound Fish.lrc;
#CDTITLE:;
#MUSIC:One Pound Fish.ogg;
#OFFSET:-0.018000;
#SAMPLESTART:36.941002;
#SAMPLELENGTH:14.769000;
#SELECTABLE:YES;
#DISPLAYBPM:130.000000;
#BPMS:0.000000=130.000000
,108.000000=260.000000
,111.500000=130.000000
,284.000000=260.000000
,287.500000=130.000000
;
#STOPS:108.000000=0.058000,
108.250000=0.058000,
108.500000=0.058000,
108.750000=0.058000,
109.000000=0.058000,
109.250000=0.058000,
109.500000=0.058000,
109.750000=0.058000,
110.000000=0.058000,
110.250000=0.058000,
110.500000=0.058000,
110.750000=0.058000,
111.000000=0.058000,
111.250000=0.058000,
284.000000=0.058000,
284.250000=0.058000,
284.500000=0.058000,
284.750000=0.058000,
285.000000=0.058000,
285.250000=0.058000,
285.500000=0.058000,
285.750000=0.058000,
286.000000=0.058000,
286.250000=0.058000,
286.500000=0.058000,
286.750000=0.058000,
287.000000=0.058000,
287.250000=0.058000
;
#BGCHANGES:0.000=One Pound Fish.mp4=1.000=1=0=1===CrossFade==,
304.000=One Pound Fish-bg.png=1.000=1=0=1===CrossFade==,
99999=-nosongbg-=1.000=0=0=0 // don't automatically add -songbackground-
;
#KEYSOUNDS:;
#ATTACKS:;

//---------------dance-single - XO FS-----------------
#NOTES:
     dance-single:
     :
     Hard:
     14:
     0.566519,0.748110,0.089347,0.137457,0.326460,577.000000,564.000000,13.000000,20.000000,3.000000,0.000000,0.566519,0.748110,0.089347,0.137457,0.326460,577.000000,564.000000,13.000000,20.000000,3.000000,0.000000:
0000
0000
0000
0000
,
0000
0000
0000
0000
,
0000
0000
0000
0000
,
0000
0000
0000
0000
,
1001
0000
0000
0000
0001
0000
0100
0000
1000
0000
0000
0100
0000
0000
0001
0000
,
1001
0000
0000
0000
1000
0000
0100
0000
0001
0000
0000
0100
0000
0000
1000
0000
,
0001
1000
0100
0100
1000
0001
0100
0200
,
0000
0001
0001
0000
0010
0000
0301
0000
,
1000
0100
1000
0000
0001
0000
0000
0000
0100
0000
0001
0000
0100
0000
0000
0000
,
0001
0100
0001
0000
1000
0000
0000
0000
0100
0000
1000
0000
0100
0000
0000
0000
,
1000
0001
1000
0000
0010
0000
0000
0000
0100
0000
0001
0000
0100
0000
0000
0000
,
0001
1000
0001
0000
0010
0000
0000
0000
0100
0000
1000
0000
0001
0000
0000
0000
,
0001
0100
1000
0100
0010
0100
0001
0000
,
1000
0100
0001
0100
0010
0100
1000
0000
,
0001
1000
0001
0000
0100
0000
0001
0000
1000
0001
1000
0000
0100
0000
1000
0000
,
0000
0010
0100
0010
0000
0100
0010
0100
,
0002
0000
0000
0000
1003
0000
0100
0000
0010
0000
0000
0010
0000
0000
0010
0000
,
0000
0000
0100
0000
0000
0000
1000
0000
0010
0000
0000
0010
0000
0000
0010
0000
,
2000
0000
0000
0000
3001
0000
0010
0000
0100
0000
0000
0100
0000
0000
0100
0000
,
0000
0000
0010
0000
0000
0000
0001
0000
0100
0000
0000
0100
0000
0000
0100
0000
,
0100
0001
1000
0001
0100
0001
0010
0001
,
1000
0100
0020
0000
0230
0000
1300
0100
,
0010
0001
1000
0001
0010
0001
0100
0001
,
0020
0000
0000
0030
,
0100
1000
0001
0000
0100
0000
0001
0000
1000
0000
0100
0010
0100
0000
0010
0000
,
0001
0000
01M0
0100
1000
0000
0100
0000
1000
0100
0010
0100
1000
0000
0001
0000
,
0001
0100
0001
0000
0100
0010
0100
0000
0010
0100
0010
0000
1000
0010
1000
0000
,
1000
0001
1000
0001
0100
0001
0100
0001
0100
0010
0100
0010
0100
0001
1000
0000
,
1000
0010
1000
0000
0001
0000
0010
0010
1000
0000
0010
0010
0001
0000
1000
0000
,
0001
0100
0010
0000
1000
0100
0010
0000
0010
0100
1000
0000
0100
0000
0000
0000
,
0010
0100
0010
0000
0100
0010
0100
0000
1000
0100
1000
0000
0001
1000
0001
0000
,
0100
0010
1000
0010
0100
0001
0100
0000
0001
0100
0010
0000
0100
0000
0000
0000
,
0200
0000
0001
0000
0010
0010
0301
0000
,
1000
0000
0000
0000
0010
0000
0100
0000
0001
0000
0000
0001
0000
0000
0001
0000
,
2000
0000
0000
0000
0100
0000
0000
0000
0001
0000
0000
0001
3000
0000
0100
0000
,
1000
0000
0000
0000
0100
0000
1000
0000
0010
0000
0000
0100
0000
0000
0001
0000
,
1000
0100
1000
0000
0100
0000
0000
0000
0010
0000
0010
0000
0010
0000
0000
0000
,
0001
0100
0001
0000
0100
0000
0000
0000
0010
0000
0010
0000
0010
0000
0000
0000
,
1000
0010
0100
0000
0001
0000
0000
0000
1000
0000
1000
0000
1000
0000
0000
0000
,
0001
0010
0100
0000
1000
0000
0000
0000
0001
0000
0001
0000
0001
0000
0000
0000
,
1000
0001
0010
0001
0101
1000
1100
0000
,
0001
1000
0010
1000
1100
0001
0101
0000
,
2002
0000
0000
3003
1001
0000
1001
0000
,
0001
0100
1000
0100
0001
0010
1000
0010
,
0001
0100
0010
0100
1000
0100
0010
0100
,
0001
0000
1000
0000
0100
0000
1000
0000
0001
0000
0000
0100
0000
0000
0001
0000
,
1000
0010
0100
0010
0001
0010
0100
0010
,
1000
0000
0001
0000
0100
0000
0010
0000
1000
0000
0000
0001
0000
0000
1000
0000
,
0100
0010
0001
0010
0100
0010
1000
0010
,
0001
1000
0001
0100
0020
0030
0200
0300
,
0010
0100
1000
0100
0010
0100
0001
0010
,
0200
1000
1000
0000
0010
0000
1300
0000
,
0010
0001
0010
0000
0001
0000
0100
0000
0001
0000
1000
0010
1000
0000
0001
0000
,
1000
0000
01M0
0100
0001
0000
0100
0100
1000
0000
0100
0000
1000
0100
1000
0000
,
0100
0010
0001
0000
0010
0100
1000
0000
0001
0100
0010
0000
1000
0010
0100
0000
,
0001
0001
0100
0100
0010
0010
1000
1000
,
0010
1000
0010
0000
1000
0000
0100
0100
0001
0000
0100
0100
1000
0000
1000
0000
,
0100
0010
0001
0010
0100
0000
0010
0100
1000
0100
0010
0100
1000
0000
0000
0000
,
0010
0100
0010
0000
0100
0010
0100
0000
1000
0100
1000
0000
0001
1000
0001
0000
,
0100
0010
1000
0000
0010
0000
0100
0001
,
1000
0100
0010
0001
0010
0100
1000
0000
,
0100
0010
0001
0000
0100
0010
1000
0000
,
1010
0000
1001
0000
0101
0000
0100
0001
,
0100
0020
1000
0000
1000
0000
1030
0000
,
1000
1000
0100
1000
0001
0010
0100
0000
,
0001
0000
0001
0000
0100
0000
0001
0100
0010
0000
1000
0000
0001
0000
1000
0000
,
0100
0000
0010
0000
0001
0000
1000
0000
0004
4000
0000
0000
3003
0000
0000
0000
,
2002
0000
0000
3003
,
0001
1000
0100
0000
1000
0000
0100
0000
0010
0000
0001
1000
0010
0000
0100
0000
,
0001
0000
01M0
0100
1000
0000
0100
0100
0001
0000
1000
0001
1000
0000
0001
0000
,
0100
0010
1000
0000
0100
0010
1000
0000
0010
0100
1000
0000
0010
0100
0001
0000
,
1000
0001
1000
0001
0010
0001
0010
0001
1000
0100
1000
0100
0010
0100
0010
0000
,
0001
0010
0001
0000
0100
0000
0100
0000
0010
1000
0010
0000
0100
0000
0100
0000
,
0001
1000
0100
0000
0010
0000
0100
0000
2000
0000
3000
0000
0001
0000
0100
0000
,
0010
0100
0010
0000
1000
0000
1000
0000
0010
0100
0010
0000
0100
0000
0100
0000
,
0000
0001
1000
0000
0200
0000
0300
0000
,
0000
1000
0001
0000
0200
0000
0300
0000
,
0000
0001
1000
0000
0200
0000
0300
0000
;

//---------------dance-single - XO-----------------
#NOTES:
     dance-single:
     :
     Medium:
     11:
     0.455572,0.454210,0.020619,0.213058,0.020619,464.000000,461.000000,3.000000,31.000000,0.000000,0.000000,0.455572,0.454210,0.020619,0.213058,0.020619,464.000000,461.000000,3.000000,31.000000,0.000000,0.000000:
// measure 0
0000
0000
0000
0000
,  // measure 1
0000
0000
0000
0000
,  // measure 2
0000
0000
0000
0000
,  // measure 3
0000
0000
0000
0000
,  // measure 4
1001
0000
0000
0000
1000
0000
0100
0000
0010
0000
0000
0010
0000
0000
0000
0000
,  // measure 5
1001
0000
0000
0000
0001
0000
0100
0000
0010
0000
0000
0010
0000
0000
0000
0000
,  // measure 6
1000
0010
0100
0000
0001
0010
0100
0000
,  // measure 7
1000
0001
0100
0000
0100
0000
0100
0000
,  // measure 8
0001
0001
1000
0000
0100
1000
0100
0000
,  // measure 9
1000
1000
0001
0000
0100
0001
0100
0000
,  // measure 10
0010
0010
1000
0000
0010
0100
0001
0000
,  // measure 11
0010
0010
0001
0000
0010
0001
1000
0000
,  // measure 12
0100
1000
0001
0001
1000
0100
1000
0000
,  // measure 13
0001
0010
0001
0001
1000
0010
0100
0000
,  // measure 14
0001
0100
0001
0000
0100
0000
0000
0000
0010
1000
0010
0000
1000
0000
0000
0000
,  // measure 15
0200
0010
0010
0310
,  // measure 16
0001
1000
0100
0100
1000
0001
0100
0100
,  // measure 17
0000
0000
0010
0000
0000
0000
0100
0000
0010
0000
0000
0010
0000
0000
0010
0000
,  // measure 18
0100
0001
1000
1000
0100
1000
0001
0001
,  // measure 19
0000
0000
0010
0000
0000
0000
0001
0000
0100
0000
0000
0100
0000
0000
0100
0000
,  // measure 20
0001
0100
0010
0010
1000
0010
0100
0100
,  // measure 21
0010
1000
0100
0000
1000
0100
1000
0000
,  // measure 22
1000
0100
0010
0010
0001
1000
0001
0001
,  // measure 23
0020
0030
0200
0300
,  // measure 24
0100
1000
0100
0010
0010
0001
0100
0100
,  // measure 25
0010
0100
0001
0100
0010
1000
0001
1000
,  // measure 26
0001
0010
0100
1000
0100
0010
0100
1000
,  // measure 27
0001
0001
1000
1000
0010
0010
0100
0100
,  // measure 28
0001
0010
0001
0010
0100
1000
0010
0100
,  // measure 29
0001
1000
0010
1000
0001
0010
0200
0000
,  // measure 30
1300
0010
0100
1000
0100
0010
1000
0010
,  // measure 31
1000
0100
0010
0000
0001
0100
0010
0000
,  // measure 32
0200
0001
0010
0301
,  // measure 33
1000
0000
0010
0100
0001
0000
0001
0000
,  // measure 34
2000
0100
0001
3100
,  // measure 35
1000
0000
0010
0100
0001
0000
0001
0000
,  // measure 36
1000
1000
0100
0000
1000
0010
1000
0000
,  // measure 37
0001
0001
0100
0000
0001
0010
0001
0000
,  // measure 38
1000
0010
0100
0000
0001
0100
0001
0000
,  // measure 39
0001
0010
0100
0000
1000
0100
1000
0000
,  // measure 40
0010
1000
0100
1000
0001
1000
0100
0000
,  // measure 41
0010
0001
0100
0001
1000
0001
0100
0000
,  // measure 42
2002
0000
0000
3003
,  // measure 43
0001
0100
0001
0001
0010
0100
0010
0010
,  // measure 44
0001
0100
0010
1000
0001
0010
0100
1000
,  // measure 45
0001
1000
0001
0000
0100
0000
0100
0000
,  // measure 46
0001
0100
0010
1000
0001
0100
0010
1000
,  // measure 47
0100
0010
0100
0000
0010
0000
0001
0000
,  // measure 48
0100
0010
1000
0001
0100
0010
1000
0001
,  // measure 49
0100
0010
2000
3000
0200
0300
0020
0030
,  // measure 50
0100
1000
0001
0010
0100
1000
0001
0010
,  // measure 51
0100
1000
0002
0003
2000
3000
0002
0003
,  // measure 52
0010
0001
0100
0010
0010
1000
0100
0100
,  // measure 53
1000
0100
0010
0100
0010
0001
1000
0001
,  // measure 54
0100
0010
0100
0001
1000
0100
0010
0001
,  // measure 55
1000
0001
1000
0001
0010
0100
0010
0100
,  // measure 56
1000
0010
1000
0010
0100
0001
1000
0100
,  // measure 57
0010
0100
1000
0001
1000
0010
0200
0000
,  // measure 58
0301
0100
0001
0001
1000
0100
1000
1000
,  // measure 59
0001
0100
0020
0030
0200
0300
0002
0003
,  // measure 60
1000
0100
1000
0000
0100
0010
0100
0000
,  // measure 61
0010
0100
0010
0000
0001
0010
0001
0000
,  // measure 62
0200
0300
0020
0030
0200
0300
0001
0100
,  // measure 63
0020
0000
1000
0030
,  // measure 64
2000
0000
3000
0001
1000
0010
0100
0000
,  // measure 65
0002
0000
0003
1000
0001
1000
0010
1000
,  // measure 66
0100
0010
0001
1000
0001
0000
1000
0001
,  // measure 67
2000
0000
0000
3000
,  // measure 68
0100
1000
0100
0010
0100
1000
0001
0001
,  // measure 69
0100
0010
1000
0100
1000
0010
0100
0000
,  // measure 70
0001
1000
0100
1000
0010
1000
0001
0010
,  // measure 71
0100
0100
1000
1000
0001
0001
1000
1000
,  // measure 72
0100
0010
0001
0010
0100
1000
0010
1000
,  // measure 73
0100
0010
0002
0003
2000
3000
0002
0003
,  // measure 74
0100
0010
0100
0001
1000
0010
0100
0010
,  // measure 75
1000
0010
1000
0000
2000
0000
3000
0000
,  // measure 76
0001
0010
0001
0000
0002
0000
0003
0000
,  // measure 77
1000
0100
1000
0000
2000
0000
3000
0000
;
