#VERSION:0.83;
#TITLE:Oha-Yo-del!!;
#SUBTITLE:;
#ARTIST:Bakudan Poppy ft. Hatsune Miku;
#TITLETRANSLIT:;
#SUBTITLETRANSLIT:;
#ARTISTTRANSLIT:;
#GENRE:Yodelloid;
#CREDIT:Melody Love;
#MUSIC:Oha-Yo-Del.ogg;
#BANNER:Oha-Yo-Del.png;
#BACKGROUND:Oha-Yo-Del-bg.png;
#CDTITLE:;
#SAMPLESTART:62.521;
#SAMPLELENGTH:13.700;
#SELECTABLE:YES;
#OFFSET:0.099;
#BPMS:0.000=150.000
,124.000=141.000
,125.000=130.000
,126.000=119.000
,127.000=116.000
,128.000=99.000
,139.000=90.000
,140.000=84.000
,142.000=80.000
,145.000=150.000
;
#STOPS:;
#LASTSECONDHINT:136.000;
#JACKET:Oha-Yo-Del-jacket.png;
#BGCHANGES:0.099=Oha-Yo-Del.mp4=1.000=0=0=0=StretchNoLoop==CrossFade_Fastest==,
99999.000=-nosongbg-=1.000=0=0=0=StretchNoLoop====
;
#FGCHANGES:;

//--------------- dance-single - Melody Love ----------------
#NOTEDATA:;
#STEPSTYPE:dance-single;
#DESCRIPTION:Melody Love;
#DIFFICULTY:Beginner;
#METER:3;
#RADARVALUES:0,0,0,0,0;
#CREDIT:Melody Love;
#NOTES:
0000
0000
0000
0000
,
0000
0000
0000
0000
,
0000
0000
0000
0000
,
0000
0000
0000
0000
,
0000
0000
0000
0000
,
0000
0000
0000
0000
,
0000
0000
0000
0000
,
0000
0000
0000
0000
,
0000
0000
0000
0000
,
0000
0000
0000
0000
,
0000
0000
0000
0000
,
0000
0000
0000
0000
,
0001
0000
0000
0000
,
0001
0000
0000
0000
,
1000
0000
0000
0000
,
1000
0000
0000
0000
,
0001
0000
0000
0000
,
0100
0000
0000
0000
,
0001
0000
0000
0000
,
1000
0000
0000
0000
,
1000
0000
0000
0000
,
0100
0000
0000
0000
,
1000
0000
1000
0000
,
1000
0000
0000
0000
,
0001
0000
0000
0000
,
0100
0000
0000
0000
,
0001
0000
0000
0000
,
1000
0000
0000
0000
,
0001
0000
0001
0000
,
0001
0000
0000
0000
,
1000
0000
0000
0000
,
1001
0000
0000
0000
,
0002
0000
0000
0003
,
2000
0000
0000
3000
,
0002
0000
0000
0003
,
0020
0000
0000
0000
0000
0000
0000
0000
0000
0000
0000
0000
0000
0000
0000
0000
0000
0000
0000
0000
0000
0000
0000
0030
,
0000
0000
0000
0001
,
0000
0001
0000
0001
,
0000
0000
0000
1000
,
0000
1000
0000
1000
,
0000
0000
0000
0001
,
0000
0100
0000
0001
,
0000
0000
0000
1000
,
0000
0100
0000
1000
,
0000
0000
0000
0001
,
0000
0000
0000
0001
,
0000
0000
0000
1000
,
0000
0000
0000
1000
,
0000
0000
0000
0001
,
0000
0000
0000
0001
,
0000
0000
0000
0100
,
0000
0000
0000
0100
,
0000
0000
0000
0010
,
0000
0000
0000
0010
,
0000
0000
0000
1000
,
0000
0000
0000
1000
,
0000
0000
0000
0001
,
0000
0000
0000
0001
,
0000
0000
0000
0010
,
0000
0000
0000
0010
,
0000
0000
0000
0100
,
0000
0100
0000
0100
,
0000
0000
0000
1000
,
0000
0001
0000
1000
,
0000
0000
0000
0001
,
0000
0100
0000
0001
,
0000
0000
0000
1000
,
0000
0100
0000
1000
,
0000
0000
0000
0001
,
0000
1000
0000
0001
,
0000
0000
0000
0100
,
0000
0001
0000
0100
,
0000
0100
0000
0001
,
0000
0000
0000
1000
,
0000
0000
0000
0100
,
0000
1000
0000
0100
,
0000
0100
0000
1000
,
0000
1000
0000
0002
,
0000
0003
0000
0001
,
0000
0001
0000
2000
,
0000
3000
0000
1001
;

//--------------- dance-single - Melody Love ----------------
#NOTEDATA:;
#STEPSTYPE:dance-single;
#DESCRIPTION:Melody Love;
#DIFFICULTY:Easy;
#METER:6;
#RADARVALUES:0,0,0,0,0;
#CREDIT:Melody Love;
#NOTES:
0000
0000
0000
0000
,
0000
0000
0000
0000
,
0000
0000
0000
0000
,
0000
0000
0000
0000
,
0000
0000
0000
0000
,
0000
0000
0000
0000
,
0000
0000
0000
0000
,
0000
0000
0000
0000
,
0000
0000
0000
0000
,
0000
0000
0000
0000
,
0000
0000
0000
0000
,
0000
0000
0000
0000
,
0001
0000
1000
0000
,
0001
0000
1000
0100
,
1000
0000
0001
0000
,
1000
0000
0001
0000
,
0100
0000
0001
0000
,
0100
0000
0010
0000
,
1000
0000
0001
0000
,
0010
0000
0100
1000
,
0001
0000
1000
0000
,
0010
0000
0100
0000
,
0001
0001
1000
1000
,
0001
1000
1001
0000
,
1000
0100
1000
1000
,
0001
1000
0001
0001
,
0100
0001
0100
0100
,
0001
1000
0001
0010
,
0010
0100
1000
0001
,
0100
0010
1000
0001
,
2002
0000
0000
0000
,
3003
0002
2003
3002
,
2003
3010
0100
0010
,
0010
1000
0100
0010
,
0010
0001
0100
0001
,
2000
0000
0000
0000
0000
0000
0000
0000
0000
0000
0000
0000
3002
0000
0000
0000
0000
0000
0000
0000
0000
0000
0000
0003
,
0000
0000
0000
0001
,
0001
0100
0001
1000
,
1000
0001
0000
1000
,
1000
0100
1000
0001
,
0001
1000
0000
0010
,
0100
0001
0100
0010
,
1000
0100
0010
0100
,
1000
0010
0100
2002
,
0000
0000
3003
1000
,
0000
0001
0000
0100
,
0000
0001
1000
0100
,
0000
0100
0000
1000
,
0000
1000
0000
0001
,
0000
0001
0000
0100
,
0000
0100
0000
0010
,
0000
0010
0000
1000
,
0000
1000
0000
0001
,
0000
1000
0000
0001
,
0000
1000
0001
1000
,
1000
1000
0000
0001
,
0001
0001
0000
0010
,
0010
0010
0000
0100
,
0100
0100
0000
1000
,
1000
1000
0000
0001
,
0001
0001
0000
1000
,
0000
0001
0000
1000
,
0001
1000
0001
1001
,
1000
0010
0100
0001
,
0010
0001
0100
0001
,
0001
0010
0100
1000
,
0010
1000
0100
1000
,
1000
0001
1000
0001
,
0001
1000
0001
0010
,
0100
0010
0100
2002
,
0000
0000
3003
1000
,
0001
0100
0001
0010
,
0100
0200
0300
0010
,
0010
0001
1000
0001
,
1000
1000
0000
0001
,
1000
0100
1000
0010
,
0100
0200
0300
0010
,
1000
0001
0100
0010
,
0010
1000
1000
0001
,
0001
0010
0010
0100
,
1000
0001
1000
1001
;

//--------------- dance-single - Melody Love ----------------
#NOTEDATA:;
#STEPSTYPE:dance-single;
#DESCRIPTION:Melody Love;
#DIFFICULTY:Medium;
#METER:12;
#RADARVALUES:0,0,0,0,0;
#CREDIT:Melody Love;
#NOTES:
0000
0000
0000
0000
,
0000
0000
0000
0000
,
0000
0000
0000
0000
,
0000
0000
0000
0000
,
0000
0000
0000
0000
,
0000
0000
0000
0000
,
0000
0000
0000
0000
,
0000
0000
0000
0000
,
0000
0000
0000
0000
,
0000
0000
0000
0000
,
0000
0000
0000
0000
,
0000
0000
0000
0000
,
0001
0000
0000
0001
0100
0000
0000
0001
,
1000
0000
0000
0010
0100
0000
0002
0000
,
1003
0000
0000
1000
0100
0000
0000
1000
,
0001
0000
0000
0010
0001
1000
0000
0000
,
1000
0000
0000
0010
0100
0000
0000
0001
,
1000
0000
0000
0100
0010
0000
0100
1000
,
0001
0000
0000
0100
0010
0000
0000
1000
,
0001
0000
0000
0000
0000
0000
0010
0000
0100
0000
0010
0000
0100
0010
0100
0000
,
1000
0000
0000
0001
0100
0000
0001
1000
,
0100
0000
0000
1000
0001
0000
0100
0001
,
0101
0100
0010
0000
1010
1000
0100
0000
,
1100
0100
0010
0000
0110
0100
0000
0000
,
0010
0001
0010
0001
1000
0001
1000
0001
,
1000
0010
1000
0010
1000
0001
1000
0001
,
0100
0010
0100
0000
0010
1000
0010
0000
,
1000
0001
1000
0000
0001
0010
0001
0001
,
1000
0010
1000
0000
0001
0000
0010
0000
0001
0010
0001
0000
1000
0000
0010
0000
,
1000
0010
1000
0000
0001
0000
0010
0000
0100
0000
0010
0000
0001
0000
0000
0000
,
1000
0010
0100
0010
1000
0001
0010
0000
,
0100
2000
3002
2003
,
3002
0000
0103
0000
0010
0000
1000
0001
,
0010
0000
0100
0000
1000
0000
0100
0010
,
0001
0000
0100
0010
1000
0001
0010
0100
,
2000
0000
0000
0000
0000
0000
0000
0000
0000
0000
0000
0000
3002
0000
0000
0000
0000
0000
0000
0000
0000
0000
0000
0003
,
0000
0000
0000
1000
,
1000
0001
0100
0010
0100
0001
0010
0000
,
0001
1000
0100
0010
0100
1000
0010
0000
,
0100
1000
0100
0010
0100
0001
0010
0000
,
0100
0000
0001
0000
0100
0000
0010
0000
0100
0000
1000
0000
0001
1000
0001
0000
,
0100
0000
0010
0000
1000
0001
1000
0000
0100
0000
0010
0000
0001
1000
0001
0000
,
0100
0000
0010
0000
1000
0001
1000
0000
0100
0000
0010
0000
0001
1000
0001
0000
,
0100
0010
1000
0010
0200
0000
0301
0010
,
0001
1000
0010
1000
0001
0100
0001
0000
,
0000
1000
0001
0000
0000
1000
0100
0000
,
0000
1000
0100
1000
0010
0100
0002
0000
,
0203
0320
0130
0120
,
2030
0000
3200
0000
0310
0100
0020
0000
,
0032
0203
0320
2030
,
3002
0000
0023
0000
0130
0010
0200
0000
,
1300
0001
0000
0100
0001
1000
0200
0000
,
1300
0001
0000
0100
0001
1000
0200
0000
,
0320
0032
2003
3020
,
0230
0000
0310
0100
0010
0100
0020
0000
,
2030
3200
0310
0210
,
2300
0000
3020
0000
0130
0010
0200
0000
,
0302
0023
0230
2300
,
3002
0000
0203
0301
0000
1000
0200
0000
,
1300
0001
0000
1001
0000
0001
0200
0000
,
0301
1000
0000
0000
0200
0000
0310
0010
,
0000
0000
0100
0100
0000
0000
0110
0110
,
0110
0000
0100
0000
1000
0000
0001
0000
1000
0000
0001
0000
1000
0000
0000
1000
,
0001
0000
1000
0000
0100
0000
0010
0000
0100
0000
1000
0000
0010
0000
0000
0010
,
1000
0000
0001
0000
0100
0000
0010
0000
0100
0000
0001
0000
0010
0000
0000
0010
,
0100
0000
1000
0000
0100
0000
0010
0000
0100
0000
1000
0000
0010
0000
0000
0010
,
0100
0000
0001
0000
0100
0000
0010
0000
0100
0000
0001
0000
1000
0010
1000
0000
,
0100
0000
0010
0000
0001
0010
0001
0000
0100
0000
0010
0000
1000
0100
1000
0000
,
0100
0000
0010
0000
0001
0100
0001
0000
0100
0000
0010
0000
1000
0001
1000
0000
,
0100
0010
0001
0010
0200
0000
1300
0010
,
1000
0000
0001
0000
0010
0000
0001
0000
1000
0000
0100
0000
1000
0000
0001
1000
,
0000
0001
1000
0000
0001
1000
0000
0001
1000
0000
0010
0000
0100
0000
0010
0100
,
0000
0010
0100
0000
0002
0000
0000
0000
0003
0000
0000
0000
1000
0000
0100
0000
,
0010
0100
1000
0100
0001
0100
1000
0010
,
0100
0000
0000
0100
0002
0000
0000
0000
2003
0000
0000
0000
3001
0000
1000
0001
,
0000
1000
0001
0000
1000
0001
0000
1000
0001
0000
0010
0000
0100
0000
0010
0100
,
0000
0010
0100
0000
2000
0000
0000
0000
3000
0000
0000
0000
0001
0000
0100
0000
,
0010
0100
0001
0100
1000
0100
0001
0100
,
0001
0100
0010
1000
0010
1000
0001
0010
,
0001
0010
0100
1000
0100
1000
0001
1000
,
0001
0000
1000
0000
0010
0000
0100
0000
0010
0100
0001
0000
1000
0000
0000
0000
;

//--------------- dance-single - Melody Love ----------------
#NOTEDATA:;
#STEPSTYPE:dance-single;
#DESCRIPTION:Melody Love;
#DIFFICULTY:Hard;
#METER:15;
#RADARVALUES:0,0,0,0,0;
#CREDIT:Melody Love;
#NOTES:
0000
0000
0000
0000
,
0000
0000
0000
0000
,
0000
0000
0000
0000
,
0000
0000
0000
0000
,
0000
0000
0000
0000
,
0000
0000
0000
0000
,
0000
0000
0000
0000
,
0000
0000
0000
0000
,
0000
0000
0000
0000
,
0000
0000
0000
0000
,
0000
0000
0000
0000
,
0000
0000
0000
0000
,
0001
0000
0000
1000
0100
0000
0000
1000
,
0001
0000
0000
0001
0010
0000
0100
0000
,
1000
0000
0000
0001
0100
0000
0000
0001
,
1000
0000
0000
0100
1000
0001
0000
0000
,
0101
0000
0100
0010
0000
0100
0000
0001
,
1000
0000
0100
0010
0000
0100
0010
0100
,
1000
0000
1000
0100
0000
1000
0000
0010
,
0100
0000
0000
0000
0001
0000
0100
0000
0000
0001
0100
0010
1000
0010
0100
0001
,
0020
0000
0130
0010
0000
0100
1000
0001
,
0100
0000
0100
0010
0000
0100
0001
0010
,
0011
0000
0001
1000
0010
0000
1000
0000
1010
0000
1000
0000
0001
0000
0010
0000
,
0011
0000
0010
0000
0100
0000
1000
0000
0010
0000
0100
0000
0001
1000
0001
1000
,
0010
1000
0010
1000
0001
0010
0001
0010
,
0100
1000
0100
1000
0001
0100
0001
0100
,
1000
0100
0010
0100
0001
1000
0001
0010
,
1000
0010
0100
0010
0001
1000
1000
1000
,
0001
0100
0001
0100
0010
0100
0010
1000
0010
1000
0010
1000
0001
1000
0001
0100
,
0010
0000
0010
1000
0001
0000
0001
0010
0100
0000
1000
0000
0010
0000
0000
0010
,
1000
0100
0001
0100
1000
0010
0100
0001
,
0010
0002
0023
0230
,
2300
0000
3100
0010
0100
1000
0001
0100
,
0020
0000
0230
0000
0302
0000
1003
0001
,
0100
0000
0000
0000
0001
0000
1000
0000
0100
0010
0001
0100
0010
1000
0100
0010
,
0002
0000
0000
0000
0000
0000
0000
0000
0000
0000
0000
0000
2003
0000
0000
0000
0000
0000
0000
0000
0000
0000
0000
3000
,
0000
0000
0000
0000
0000
0000
0000
0000
0000
0000
0000
0000
1000
0000
0000
1000
,
0010
0000
0100
0000
1000
0000
0100
0000
0001
0000
0010
0000
0001
0000
0000
0001
,
0010
0000
0100
0000
0001
0000
0100
0000
1000
0000
0001
0000
0100
0000
0000
0100
,
0010
0000
0100
0000
1000
0000
0100
0000
0001
0000
1000
0000
0100
0000
0000
0100
,
0010
0000
0100
0000
0001
0000
0100
0000
1000
0000
0001
0000
1000
0100
1000
0100
,
1000
0001
1000
0001
0100
0001
0100
0001
1000
0001
1000
0001
1000
0010
1000
0010
,
1000
0001
1000
0001
0010
0001
0010
0001
1000
0001
1000
0001
0100
0010
1000
0001
,
0010
0100
0010
0001
1000
0000
0010
0000
0100
0000
0000
0100
0010
0000
1000
0000
,
0010
1000
0001
0010
0001
0010
0100
0000
,
0000
1000
0100
0000
0000
1000
0001
0000
,
0000
0100
0001
1000
0100
0010
0120
0000
,
0130
0010
0000
0001
1000
0000
1001
0000
,
0001
0200
0000
1300
0100
0001
1000
0000
,
0100
0010
0200
0000
0301
0000
0200
0000
,
0310
0000
0200
0000
1300
0001
0100
0000
,
0001
0100
0000
0100
0001
1000
0100
0000
,
1000
0100
0000
0100
1000
0001
0200
0000
,
1300
0200
0310
0200
,
0301
0000
1000
0001
1000
0001
0010
0000
,
0010
0100
0000
1000
0001
0000
1001
0000
,
1000
0200
0000
0301
0000
0100
1000
0000
,
0010
0100
0020
0000
0031
0000
0020
0000
,
0130
0000
0020
1030
0000
0010
0100
0000
,
0001
0010
0000
0001
0000
0010
0100
0000
,
1000
0010
0000
0000
0100
0000
0101
0101
,
0000
0000
1100
1100
0000
0000
1001
1001
,
1001
0000
1000
0001
1000
0001
1000
0001
1000
0001
1000
0000
0001
0000
0000
0001
,
0010
0000
0100
0000
0001
0000
0100
0000
1000
0000
0010
0000
1000
0000
0000
1000
,
0010
0000
0100
0000
1000
0000
0100
0000
0001
0000
1000
0000
0100
0000
0000
0100
,
0010
0000
0100
0000
0001
0000
0100
0000
1000
0000
0001
0000
0100
0000
0000
0100
,
0010
0000
0100
0000
1000
0000
0100
0000
0001
0000
1000
0000
0001
1000
0001
1000
,
0010
0100
0010
0100
0001
1000
0001
1000
0100
0010
0100
0010
0001
1000
0001
0100
,
0001
0010
0100
1000
0001
1000
0010
1000
0100
0010
0001
0100
0001
1000
0001
0010
,
0100
0010
0100
0010
0001
0000
0001
0000
1000
0000
0000
1000
0001
0000
0010
0000
,
0001
0000
1000
0000
0010
0000
1000
0000
0010
0000
0010
0000
1000
0001
0100
0001
,
1000
0010
1000
0001
0010
0001
1000
0100
1000
0001
0100
0001
0100
0010
0100
1000
,
0100
0001
0010
0100
2000
0000
0000
0000
3001
0000
1000
0000
0100
0001
0100
0010
,
0100
0000
1000
0000
0100
0001
0100
0010
0100
0000
1000
0000
0001
0000
0001
0000
,
0100
0000
0000
0100
0010
0000
0010
0000
1000
0000
0000
1000
0001
1000
0100
1000
,
0001
0010
0001
1000
0010
1000
0001
0100
0001
1000
0100
1000
0100
0010
0100
0001
,
0100
1000
0010
0100
0002
0000
0000
0000
1003
0000
0001
0000
0100
1000
0100
0010
,
0100
0000
0001
0000
0100
1000
0100
0010
0100
0000
0001
0000
1000
0000
0100
0000
,
1000
0100
0001
0100
0001
0100
1000
0010
,
1000
0000
0010
0000
0001
0000
0010
0000
0001
0000
0010
0000
1000
0000
0001
0100
,
0010
0000
1000
0100
0010
0000
0001
0100
0010
1000
0001
0010
0100
0000
0000
0000
;
