#TITLE:オトベアえかきうた;
#SUBTITLE:;
#ARTIST:オトベア+璃音;
#TITLETRANSLIT:OTOBEAR ekaki uta;
#SUBTITLETRANSLIT:;
#ARTISTTRANSLIT:OTOBEAR+Rio;
#GENRE:BEARY GOOD MUSIC;
#CREDIT:;
#BANNER:OTOBEAR ekaki uta.png;
#BACKGROUND:OTOBEAR ekaki uta-bg.png;
#LYRICSPATH:OTOBEAR ekaki uta.lrc;
#CDTITLE:;
#MUSIC:OTOBEAR ekaki uta.ogg;
#OFFSET:-0.020000;
#SAMPLESTART:49.591827;
#SAMPLELENGTH:11.999998;
#SELECTABLE:YES;
#BPMS:0.000000=150.000000
,128.000000=160.000000
,132.000000=170.000000
,178.000000=160.000000
,180.000000=150.000000
,228.000000=170.000000
,288.000000=150.000000
;
#STOPS:
;
#BGCHANGES:0.000=OTOBEAR ekaki uta.mp4=1.000=0=0=0=StretchNoLoop====,
99999=-nosongbg-=1.000=0=0=0 // don't automatically add -songbackground-
;
#KEYSOUNDS:;
#ATTACKS:;

//---------------dance-single - ----------------
#NOTES:
     dance-single:
     :
     Hard:
     13:
     0.575877,0.646626,0.449827,0.579585,0.194637,466.000000,414.000000,52.000000,67.000000,0.000000,0.000000,0.575877,0.646626,0.449827,0.579585,0.194637,466.000000,414.000000,52.000000,67.000000,0.000000,0.000000:
0000
0000
0000
0000
,
0000
0000
0000
0000
,
0000
0000
0000
0000
,
0000
0000
0000
0000
,
0001
0010
0200
0000
1300
0000
1100
0000
,
0001
0000
0001
0000
1000
0010
0100
0001
,
0020
0000
0230
0000
2300
0000
3001
0200
,
0000
0310
1000
0001
2000
0000
3100
0000
,
1100
0000
1100
0000
1002
0000
0103
0020
,
0000
0031
0010
1000
0002
0000
0013
0000
,
0011
0000
0011
0000
2001
0000
3010
0200
,
0000
1300
0100
0001
2000
0000
3100
0000
,
1100
0000
0110
0000
0012
0000
1003
0020
,
0000
0130
1000
0100
0002
0000
1003
0100
,
2100
0000
3001
0103
0102
0000
1003
0010
,
2010
0000
0000
0000
3001
0000
0010
0000
0001
0000
0100
0000
0100
0000
0001
1000
,
0001
0000
0101
0000
2010
0000
3100
0010
,
0100
0010
0001
1000
0010
0100
0100
0000
,
1010
0000
1010
0000
0102
0000
0013
0100
,
0010
0100
1000
0010
0100
0001
0010
0000
,
0011
0000
0110
0000
2100
0000
3001
0200
,
0000
0310
0001
0010
2000
0000
3001
0010
,
0012
0000
1003
3010
2010
0000
3001
0100
,
0102
0000
0000
0000
1003
0000
0100
0000
2100
0000
0000
0000
3001
1000
0001
1000
,
0001
0100
0010
1000
0100
0010
0001
0012
,
0000
1003
0020
0000
0130
0001
1000
2100
,
0000
3001
0010
0001
1000
0010
0100
0020
,
0000
0000
0130
0000
0001
0000
1000
0000
0001
0010
0001
0000
0100
0000
0100
0000
,
0010
1000
0100
0010
0001
0100
0010
2010
,
0000
3001
0100
0010
0200
0000
0301
0012
,
0000
0000
0000
0000
1003
0000
0003
1000
0010
0000
0000
0010
0100
0000
0001
0000
,
1000
1100
0011
0110
,
1001
0000
0000
0000
,
1000
0010
0100
0010
2000
0000
3100
0010
,
0001
0100
0010
0100
0002
0000
0013
0100
,
0020
0000
0031
1000
0010
0001
0010
1000
,
0001
0000
0010
0000
0200
0000
0000
0000
2300
0000
0000
0000
3001
0100
0001
0100
,
0001
1000
0100
2100
0000
3001
0010
0012
,
0000
1003
0010
0000
1010
0000
1001
0000
,
1000
0001
0100
0102
0000
1003
0010
2010
,
0000
0000
3001
0000
0010
0000
0000
0000
0011
0000
0000
0000
1000
0001
1000
0001
,
1000
0100
1000
0000
0001
0100
0001
0000
,
1000
0010
1000
0000
0001
0010
0001
0000
,
1000
1000
0001
0100
0010
0010
1000
0100
,
0010
0010
1001
1001
,
0001
0000
0001
0100
0000
0100
0010
0000
0010
1000
0000
0001
,
1000
0000
1000
0100
0000
0100
0020
0000
0000
0031
0000
0000
,
1000
0000
0001
0100
0000
0001
0200
0000
0000
0310
0000
0000
,
1000
0000
1000
0200
0000
0000
0320
0000
0000
0031
0000
0000
,
1000
1000
1000
0000
,
0001
0000
0001
0000
0000
0001
0100
0000
0000
0000
0000
0000
,
0100
0100
0100
0000
,
0010
0000
0010
0000
0000
0100
0010
0000
0000
0000
0000
0000
,
2010
0000
0000
3001
0010
0001
0020
0000
0000
0230
0000
0000
,
1300
0010
1000
0010
0000
0000
0100
0001
0100
0001
0000
0000
,
1000
0000
1000
0100
0000
0100
0020
0000
0000
0031
0000
1000
,
0010
0000
0010
0100
0000
0100
0002
0000
0000
1003
0000
0000
,
2000
0000
3100
0310
0002
0000
0103
0010
,
0200
0000
0000
0000
0301
0000
0010
0000
0200
0000
0000
0000
1300
0000
0001
1000
,
0001
0100
0010
1000
0001
0010
0100
1000
,
0010
0000
0100
0000
0010
0100
0010
0000
1000
0000
0100
0000
0010
0000
0001
0000
,
2000
3002
0203
0310
,
2002
0000
0000
3003
,
0001
0100
0000
0100
0001
1000
0000
1000
,
0100
0000
0010
0000
0000
0000
0010
0000
0001
0000
1000
0000
0010
0100
0010
0000
,
1000
0000
0100
0000
0000
0000
1000
0001
2000
0000
0000
0000
3020
0000
0000
0000
,
0130
0000
0001
0000
1000
0000
0001
0000
0010
0000
0100
0000
1000
0001
0000
0001
,
1000
0010
0000
0010
1000
0001
0000
0001
,
0010
0000
0000
0100
0010
0000
0000
0100
0010
0000
0000
0100
0010
0000
0000
0000
,
0001
0000
1000
0000
0000
0000
0001
0100
0002
0000
0000
0000
1003
0000
0000
0000
,
1130
0000
0000
0110
0000
0000
0001
0000
2002
0000
0000
0000
3003
0000
0000
0000
,
0001
0100
1000
0100
0001
0010
0100
1000
,
0000
0000
0000
0000
,
0011
1100
1010
0101
,
1001
0000
0200
0300
;

//---------------dance-single - ----------------
#NOTES:
     dance-single:
     :
     Challenge:
     15:
     0.710578,0.775952,0.354671,0.501730,0.484429,575.000000,534.000000,41.000000,58.000000,0.000000,0.000000,0.710578,0.775952,0.354671,0.501730,0.484429,575.000000,534.000000,41.000000,58.000000,0.000000,0.000000:
0000
0000
0000
0000
,
0000
0000
0000
0000
,
0000
0000
0000
0000
,
0000
0000
0000
0000
,
1000
0010
0200
0000
0301
0000
0101
0000
,
1000
0000
1000
0000
0001
0010
0100
1000
,
0020
0000
0230
0000
0332
0000
1003
1200
,
0000
0000
1330
0000
0010
0000
0100
0000
0001
0000
1000
0001
1000
0000
0000
0000
,
0002
0103
0020
0130
2000
3100
0010
0010
,
1000
0100
0001
0100
1000
0010
1010
0000
,
2000
3010
0200
0310
0002
0013
0100
0100
,
0001
0000
0010
0000
1000
0000
0010
0000
0001
0000
1000
0010
0100
0000
0000
0000
,
0002
0103
2000
3100
0002
0013
0100
2000
,
0000
3010
0010
0100
0002
0000
1003
0001
,
2000
0100
3001
0000
0002
0100
1003
0000
,
2000
0000
0010
0000
3001
0000
0000
0000
0002
0000
0010
0000
0013
0000
0001
1000
,
0002
1003
0020
1030
0200
1300
0010
0010
,
0100
1000
0100
0001
1000
0100
1100
0000
,
2000
3001
0020
0031
0200
0301
0010
0010
,
0100
0000
0001
0000
0100
0000
1000
0000
0001
0000
0100
0010
1000
0000
0000
0000
,
0002
0013
0200
0310
2000
3010
0100
0100
,
1000
0010
0010
0100
0002
0000
1003
0001
,
2000
0100
3001
1000
0002
0100
1003
0000
,
2000
0000
0010
0000
3001
0000
1000
0000
1100
0000
0000
0000
0001
0100
0010
1000
,
0001
0000
1000
0100
1000
0000
0001
0000
0100
0000
0010
0100
0010
0000
2000
0000
,
0000
0000
0100
0000
3100
0000
1000
0001
1000
0000
0010
0000
0100
0000
0201
0000
,
0000
0000
0301
0010
0001
0000
1000
0000
0010
0000
0100
0010
0100
0000
0002
0000
,
0000
0000
1003
0000
0100
0000
1000
0001
1000
0001
0100
0000
0010
0000
1000
0100
,
0010
0000
0001
0010
0001
0000
1000
0010
1000
0000
0001
0000
0100
0000
0102
0000
,
0000
0000
1003
0000
0010
0000
0100
0010
0100
0000
0001
0000
1000
0000
1000
0000
,
0001
0000
0000
0001
0010
0000
0000
0010
0100
0000
1000
0000
0010
0000
0010
0000
,
1010
1001
0011
0110
,
1001
0000
0000
0000
,
0001
0100
0001
0100
0010
0000
1000
0000
0001
0000
0010
0000
0100
0000
0000
0000
,
1000
0010
1000
0010
0100
0000
0001
1000
0001
0000
0010
0000
0100
0000
1000
0001
,
0200
0000
0010
0000
0310
0000
1000
0001
0020
0000
0100
0000
0130
0000
1000
0000
,
0001
0000
0100
0000
0101
0000
0000
0000
1013
0000
0000
0000
3031
1000
0001
1000
,
0001
0010
0100
2100
0000
3001
0010
0012
,
0000
0000
1003
0000
0010
0000
1000
0100
1000
0000
0001
0100
0001
0000
1000
0001
,
1000
0100
0010
0012
0000
1003
0100
2100
,
0000
0000
3001
0000
0100
0000
0010
0100
0010
0000
1000
0000
0001
0010
0100
1000
,
0001
0100
0101
0000
1010
1000
1001
0000
,
1000
0100
1100
0000
0011
0001
1001
0000
,
1010
0010
0100
0001
0011
0010
0100
1000
,
0010
0010
0100
0001
0101
0000
1010
0000
,
1001
0000
0001
0010
0000
0010
0100
0000
0100
1000
0000
0001
,
0100
0000
0100
0010
0000
1000
0100
0000
0100
0010
0000
0001
,
1000
0000
0000
0000
0001
0100
0001
0000
0000
0000
1000
0000
0100
0000
0000
0000
0100
0000
0010
0000
0000
0000
0001
0000
,
0100
0000
0100
0020
0000
0000
1030
0000
0001
1000
0001
0100
,
0010
0010
0010
0000
,
0100
0000
0100
0000
0000
0010
0100
0000
0000
0000
0000
0000
,
0001
0100
0001
1000
0100
1000
0001
0010
0001
1000
0010
1000
,
0002
0000
0013
0000
0000
0100
2000
0000
0000
3001
0000
0000
,
0201
0000
0000
0301
0010
0100
1000
0001
1003
0010
0100
0001
,
1000
0100
0001
0100
1000
0001
1000
0010
0001
0010
1000
0001
,
1000
0000
1000
0010
0000
0010
0100
0000
0001
0010
0000
0200
,
0000
0000
1300
0001
0000
0001
0200
0000
0000
0310
0000
0000
,
1000
0000
0001
0100
0001
0000
0000
0000
0001
0000
1000
0100
1000
0000
0000
0000
,
1000
0000
0001
0010
0001
0000
0000
0000
0001
0000
1000
0010
1000
0000
0001
1000
,
0001
0100
0010
0100
1000
0100
0010
0100
,
0001
0000
1000
0100
0010
0001
0100
0010
2000
0000
0000
0000
3001
0000
0010
0100
,
0010
0001
1000
0010
0100
0001
0010
0100
,
2200
0000
0000
0000
0000
0000
0000
0000
0000
0000
3300
0000
0000
0000
0001
1000
,
0001
0000
0010
0000
0000
0010
0001
0000
1000
0000
0010
0000
0000
0010
0100
0000
,
0001
0000
1000
0000
0000
1000
0100
0000
0010
0000
0001
0000
1000
0001
0100
0010
,
1000
0000
0001
0000
0100
0000
0010
1000
0002
0000
0000
0000
0023
0000
0000
0000
,
0130
0000
1000
0000
0001
0000
0100
0010
0100
0000
0001
0000
1000
0100
0010
0001
,
1000
0000
0100
0000
0000
0100
0010
0000
0001
0000
0100
0000
0000
0100
0010
0000
,
1000
0000
0001
1000
0010
0000
1000
0001
0010
0000
0001
1000
0100
0000
1000
0001
,
0203
0000
0000
0000
0310
0000
1000
0100
0020
0000
0000
0000
0031
0000
0000
0000
,
0011
0000
0000
1100
0000
0000
1001
0000
1002
0000
0000
0000
1003
0010
0100
0001
,
1000
1000
0100
0100
0010
0001
0100
0110
,
0000
0000
0000
0030
,
0101
1001
1100
0110
,
1001
0000
0200
0330
;

//---------------dance-single - ----------------
#NOTES:
     dance-single:
     :
     Medium:
     9:
     0.446120,0.517301,0.311419,0.553633,0.069204,361.000000,325.000000,36.000000,64.000000,0.000000,0.000000,0.446120,0.517301,0.311419,0.553633,0.069204,361.000000,325.000000,36.000000,64.000000,0.000000,0.000000:
0000
0000
0000
0000
,
0000
0000
0000
0000
,
0000
0000
0000
0000
,
0000
0000
0000
0000
,
1000
0100
2000
0000
3020
0000
0130
0000
,
0001
0000
0000
0000
1000
0001
1000
0001
,
0020
0000
0230
0000
2300
0000
3001
0200
,
0000
0301
1000
0001
1000
0000
0000
0000
,
0001
0000
0100
0000
0101
0000
0001
0010
,
0000
0010
0000
0100
1000
0000
0001
0000
,
1000
0000
0100
0000
1100
0000
1000
0010
,
0000
1000
0001
1000
0001
0000
0000
0000
,
1002
0000
0023
0000
0230
0000
1300
0010
,
0000
0010
0200
0000
0302
0000
1003
0100
,
2000
0010
3002
0010
,
2003
0100
3001
1001
,
2000
0000
3010
0000
1010
0000
0001
0020
,
0000
0230
0000
1300
0001
0000
0100
0000
,
0002
0000
0013
0000
0011
0000
1000
0010
,
0000
0010
0200
0000
0302
0000
1003
0000
,
2001
0000
3200
0000
0320
0000
0031
0100
,
0000
0001
1000
0001
2030
0000
3001
0010
,
0002
0100
2003
0100
,
3002
0010
1003
1001
,
0102
0000
1003
0200
0000
1300
0001
2000
,
0000
3001
0100
0000
0010
0000
1000
1000
,
0000
0001
0010
0001
0020
0000
0130
1000
,
0001
0000
0100
0000
0010
0100
0010
0100
,
0002
0000
1003
0100
0020
0000
0031
2000
,
0000
3001
0100
0001
0200
0000
0310
0010
,
1000
1010
0001
0011
,
1001
1001
0110
0110
,
1001
0000
0000
0000
,
1000
0100
1000
0100
0000
0000
0000
0000
,
0010
0001
0010
0001
0000
0000
0000
0000
,
2000
0000
3010
0100
0002
3000
1003
0100
,
1000
0100
2000
0000
3010
0000
1001
0000
,
0001
0100
0001
0020
0000
0130
1000
0020
,
0000
0130
0110
1031
,
1000
0010
1000
0200
0000
0310
0001
0200
,
0000
0310
0110
1301
,
0002
0000
0003
0100
0020
0000
0000
0000
,
1030
0200
0320
0032
,
1003
1000
0010
0000
0100
0100
0001
0000
,
1000
0010
1001
1001
,
1000
0000
1000
0100
0000
0000
0100
0000
0100
0010
0000
0000
,
0010
0000
0010
0001
0000
0000
1000
0000
0000
0000
0000
0000
,
0001
0000
0001
0100
0000
0000
0100
0000
0100
0010
0000
0000
,
0010
0000
0010
1000
0000
0000
0001
0000
0000
0000
0000
0000
,
1000
1000
1000
0000
,
0100
0000
0100
0000
0000
1000
0100
0000
0000
0000
0000
0000
,
0010
0010
0010
0000
,
0001
0000
0001
0000
0000
0010
0001
0000
0000
0000
0000
0000
,
2000
3200
0302
0203
,
1300
0000
0010
0100
0000
0100
0001
0000
0001
1000
0000
0000
,
0002
0010
2003
0010
,
3001
0000
0100
0010
0000
0100
0020
0000
0000
0030
0000
0000
,
2000
0100
0001
0100
,
3002
0100
1000
0100
,
2003
3200
0320
0031
,
1000
0001
1000
0000
0001
0100
0001
0000
,
1000
1100
1100
1100
,
2002
0000
0000
3003
,
0001
0010
0000
0001
0100
0001
0000
1000
,
0010
1000
0000
0001
0010
0001
0000
1000
,
0200
0300
1100
0101
,
1000
0001
1000
0000
0001
0100
0010
0000
,
1000
0100
0000
1000
0010
1000
0000
0001
,
0010
0100
0010
0100
0010
0100
0010
0100
,
2000
3000
1010
0101
,
1000
0000
0000
0001
0000
0000
0010
0000
0010
0000
0000
0000
0000
0000
0000
0000
,
0001
1000
0001
1000
0001
1000
0001
0010
,
0000
0000
0000
0000
,
0011
0011
1100
1100
,
1001
0000
0200
0300
;

//---------------dance-single - ----------------
#NOTES:
     dance-single:
     :
     Easy:
     5:
     0.259516,0.355644,0.086505,0.285467,0.017301,210.000000,200.000000,10.000000,33.000000,0.000000,0.000000,0.259516,0.355644,0.086505,0.285467,0.017301,210.000000,200.000000,10.000000,33.000000,0.000000,0.000000:
0000
0000
0000
0000
,
0000
0000
0000
0000
,
0000
0000
0000
0000
,
0000
0000
0000
0000
,
0001
0100
0010
0000
,
0000
0000
1000
0001
,
1000
1000
0100
0100
,
0010
0001
1000
0000
,
0001
0001
0100
0000
,
0001
0010
0100
0000
,
1000
1000
0100
0000
,
1000
0010
0100
0000
,
0010
0010
0100
0100
,
0001
0010
0100
1000
,
0020
0030
0200
0300
,
0002
0003
2000
3000
,
0001
0001
0010
0000
,
0001
0010
0100
0000
,
1000
1000
0010
0000
,
1000
0010
0100
0000
,
0010
0010
0100
0000
,
0100
0100
0001
0000
,
2000
3000
0200
0300
,
0020
0030
0002
0003
,
1000
0001
0100
0010
,
0010
1000
0001
0000
,
1000
0100
0010
0001
,
1000
1000
0001
0000
,
0001
0100
0010
1000
,
0001
0001
0010
0000
,
0001
0100
0010
1000
,
0100
0100
0010
0010
,
1001
0000
0000
0000
,
0001
0100
0000
0100
,
0010
1000
0000
1000
,
0002
0003
1000
0100
,
0010
0010
0010
0000
,
0001
0000
0000
0100
0000
0000
0000
2002
,
0000
0000
3003
0000
,
1000
0000
0000
0100
0000
0000
0000
2002
,
0000
0000
3003
3003
,
0002
0003
0020
0030
,
0100
1000
0001
0100
,
0010
0000
0010
0000
,
1000
0100
0010
0010
,
0001
0000
1000
0000
,
0001
0100
0010
0000
,
1000
0000
0001
0000
,
1000
0100
0010
0000
,
0001
0001
0001
0000
,
1000
0000
1000
0000
0000
0000
1000
0000
0000
0000
0000
0000
,
0010
0010
0010
0000
,
0100
0000
0100
0000
0000
0000
0100
0000
0000
0000
0000
0000
,
0001
0010
0100
0000
,
1000
0000
1000
0000
0000
0000
1000
0000
0000
0000
0000
0000
,
1000
0010
0100
0000
,
0001
0000
0001
0000
0000
0000
0001
0000
0000
0000
0000
0000
,
2000
3000
0200
0300
,
0020
0030
0002
0003
,
2000
3002
0203
0320
,
2030
3002
0023
0230
,
1300
0001
1000
0001
,
0100
0000
0000
0000
,
1001
0000
1000
0000
,
0100
0000
0010
0000
,
0001
1000
0010
0010
,
0100
0001
1000
0000
,
0001
0000
0010
0000
,
0002
2003
3002
2003
,
3010
0000
1000
1000
,
0020
0000
0000
0030
,
1000
0000
0001
0000
0010
0000
0000
1001
,
0000
0000
0000
0000
,
0110
0110
0110
0110
,
1001
0000
0200
0300
;

//---------------dance-single - ----------------
#NOTES:
     dance-single:
     :
     Beginner:
     3:
     0.142116,0.226319,0.000000,0.103806,0.000000,115.000000,115.000000,0.000000,12.000000,0.000000,0.000000,0.142116,0.226319,0.000000,0.103806,0.000000,115.000000,115.000000,0.000000,12.000000,0.000000,0.000000:
0000
0000
0000
0000
,
0000
0000
0000
0000
,
0000
0000
0000
0000
,
0000
0000
0000
0000
,
1000
0000
1000
0000
,
0000
0000
0000
0000
,
0001
0000
0001
0000
,
0001
0000
0000
0000
,
0010
0010
0000
0000
,
0010
0000
0000
0000
,
0100
0100
0000
0000
,
0100
0000
0000
0000
,
1000
1000
0000
0000
,
1000
0000
0000
0000
,
0010
0000
0010
0000
,
0010
0000
0000
0000
,
0100
0100
0000
0000
,
0100
0000
0000
0000
,
0001
0001
0000
0000
,
0001
0000
0000
0000
,
0010
0010
0000
0000
,
0010
0000
0000
0000
,
0001
0000
0001
0000
,
0001
0000
0000
0000
,
1000
1000
0000
0000
,
1000
0000
0000
0000
,
0010
0000
0010
0000
,
0010
0000
0000
0000
,
0100
0100
0000
0000
,
0100
0000
0000
0000
,
0001
0000
0001
0000
,
0010
0010
0010
0010
,
0010
0000
0000
0000
,
0002
0000
0003
0000
,
2000
0000
3000
0000
,
0020
0000
0030
0000
,
0200
0000
0300
0000
,
0001
0000
0001
0000
,
0001
0000
0000
0000
,
1000
0000
1000
0000
,
1000
0000
0000
0000
,
0100
0100
0000
0000
,
0100
0100
0000
0000
,
0020
0000
0000
0000
,
0030
0000
0000
0000
,
0001
0000
0001
0000
,
0001
0000
0000
0000
,
0100
0000
0100
0000
,
0100
0000
0000
0000
,
0010
0010
0010
0000
,
0010
0000
0000
0000
,
1000
1000
1000
0000
,
1000
0000
0000
0000
,
0001
0001
0001
0000
,
0001
0000
0000
0000
,
0010
0010
0010
0000
,
0010
0000
0000
0000
,
0002
0003
0000
0000
,
2000
3000
0000
0000
,
0020
0030
0020
0030
,
0200
0300
0200
0300
,
0001
0000
1000
0000
,
0100
0000
0000
0000
,
1000
0000
1000
0000
,
1000
0000
0000
0000
,
0001
0000
0001
0001
,
0001
0000
0000
0000
,
0010
0000
0000
0000
,
0100
0100
0100
0100
,
0100
0000
0000
0000
,
1000
0000
0000
0000
,
0010
0010
0010
0010
,
0000
0000
0000
0000
,
1000
0001
1000
0001
,
1000
0000
0200
0300
;

//---------------dance-double - ----------------
#NOTES:
     dance-double:
     :
     Challenge:
     15:
     0.682155,0.775952,0.268166,0.570934,0.480104,552.000000,521.000000,31.000000,66.000000,0.000000,0.000000,0.682155,0.775952,0.268166,0.570934,0.480104,552.000000,521.000000,31.000000,66.000000,0.000000,0.000000:
// measure 0
00000000
00000000
00000000
00000000
,  // measure 1
00000000
00000000
00000000
00000000
,  // measure 2
00000000
00000000
00000000
00000000
,  // measure 3
00000000
00000000
00000000
00000000
,  // measure 4
10000000
00010000
02000000
00000000
03301000
00000000
00102000
00000000
,  // measure 5
00013000
00000000
00010000
00000000
00000100
00010000
00000010
00000100
,  // measure 6
00000002
00000000
00000023
00000000
00002030
00000000
00013000
00010020
,  // measure 7
00000000
00000000
00000130
00000000
00001000
00000000
00000100
00000000
00000010
00000000
00010000
00001000
00010000
00000000
00000000
00000000
,  // measure 8
00002000
00103000
02000000
03100000
20000000
30100000
00010000
02000000
,  // measure 9
00000000
03100000
00010000
00001000
00100000
00001000
00001000
00000000
,  // measure 10
00020000
00030010
00000200
00000310
00000002
00000013
00001000
00000200
,  // measure 11
00000000
00000000
00000310
00000000
00001000
00000000
00010000
00000000
00000010
00000000
00010000
00001000
00010000
00000000
00000000
00000000
,  // measure 12
00002000
01003000
00200000
01300000
00002000
00013000
01000000
20000000
,  // measure 13
00000000
30100000
00010000
00100000
02000000
00000000
03010000
00100000
,  // measure 14
00002000
01000000
00013000
00000000
00020000
00000100
00031000
00000000
,  // measure 15
00002000
00000000
00100000
00000000
00013000
00000000
00000000
00000000
00020000
00000000
00000010
00000000
00030010
00000000
00001000
00000001
,  // measure 16
00002000
00003010
00000200
00000310
00000002
00000013
00000100
00000100
,  // measure 17
00000001
00000000
00000010
00000000
00001000
00000000
00010000
00000000
01000000
00000000
00100000
01000000
00100000
00000000
00000000
00000000
,  // measure 18
00020000
01030000
00200000
01300000
20000000
31000000
00100000
00100000
,  // measure 19
10000000
00000000
01000000
00000000
00010000
00000000
00001000
00000000
00000010
00000000
00000100
00001000
00000001
00000000
00000000
00000000
,  // measure 20
00002000
00033010
00000002
00000013
00002000
00003100
00010000
02000000
,  // measure 21
00000000
03100000
00010000
10000000
00200000
00000000
00310000
00001000
,  // measure 22
00020000
00000010
00331000
00000000
00002000
00100000
00013000
00000000
,  // measure 23
00020000
00000000
00000100
00000000
00031000
00000000
00000000
00000000
00011000
00000000
00000000
00000000
00010000
00000010
00001000
00000001
,  // measure 24
00000100
00000000
00000010
00000100
00000010
00000000
00001000
00000000
00000100
00000000
00010000
00000100
00010000
00000000
00002000
00000000
,  // measure 25
00000000
00000000
01000000
00000000
01003000
00000000
00010000
00100000
01000000
00000000
10000000
00000000
00100000
00000000
10200000
00000000
,  // measure 26
00000000
00000000
01300000
00010000
01000000
00000000
00010000
00000000
10000000
00000000
01000000
00000000
00100000
00000000
00120000
00000000
,  // measure 27
00000000
00000000
01030000
00000000
00001000
00000000
00010000
00000000
00001000
00100000
00001000
00000000
00100000
00000000
00010000
10000000
,  // measure 28
00100000
00000000
01000000
00100000
01000000
00000000
00010000
00000000
00100000
00000000
00001000
00100000
00001000
00000000
00020000
00000000
,  // measure 29
00000000
00000000
00000010
00000000
00030010
00000000
00001000
00000100
00000010
00000000
00000001
00000000
00000100
00000000
00000100
00000000
,  // measure 30
00000010
00000000
00000003
00000010
00010000
00000000
00000000
00010000
00000100
00000000
00000010
00000000
00000001
00000000
00001000
00000000
,  // measure 31
00001001
00001001
00011000
00011000
,  // measure 32
10010000
00000000
00000000
00000000
,  // measure 33
00010000
01000000
00010000
01000000
00100000
00000000
10000000
01000000
00100000
00000000
00010000
00000000
01000000
00000000
00000000
00000000
,  // measure 34
00001000
00010000
00001000
00010000
00000100
00000000
00010000
00000010
00000100
00000000
00000001
00000000
00001000
00000000
00000001
00000010
,  // measure 35
00000230
00000000
00000000
00000000
00001300
00000000
00000001
00000100
00000020
00000000
00000000
00000000
00001030
00000000
00000100
00010000
,  // measure 36
00000100
00000000
00010000
00000000
00012000
00000000
00000000
00000000
02003000
00000000
00000000
00000000
03100000
10000000
00010000
10000000
,  // measure 37
01000000
00000000
00100000
01000000
00100000
00000000
00002000
00000000
00000000
00000000
00013000
00000000
00000010
00000000
00002010
00000000
,  // measure 38
00000000
00003001
00000100
00000010
00000100
00001000
00000100
00000001
,  // measure 39
00000010
00000000
00000100
00000010
00000100
00000000
00020000
00000000
00000000
00000000
00031000
00000000
01000000
00000000
01020000
00000000
,  // measure 40
00000000
00000000
10030000
00000000
00100000
00000000
00010000
00000000
00100000
00000000
01000000
00000000
00010000
00100000
01000000
10000000
,  // measure 41
00010000
01000000
01010000
00000000
01001000
00001000
00011000
00000000
,  // measure 42
00010000
00000100
00010100
00000000
00001100
00001000
00001010
00000000
,  // measure 43
00001002
00000013
00002001
00003010
,  // measure 44
00001000
00000001
00000010
00001000
00020000
00000000
00032000
00000000
,  // measure 45
01003000
00000000
01000000
00100000
00000000
00100000
10000000
00000000
10000000
01000000
00000000
01000000
,  // measure 46
00010000
00000000
00001000
00000010
00000000
00000002
00000000
00000000
00000103
00000010
00000000
00000010
,  // measure 47
00001000
00000000
00000000
00000000
00000001
00001000
00000001
00000000
00000000
00000000
00001000
00000000
00000100
00000000
00000000
00000000
00000100
00000000
00010000
00000000
00000000
00000000
00001000
00000000
,  // measure 48
01000000
00000000
01000000
00200000
00000000
00000000
10300000
00000000
00010000
00100000
00010000
00100000
,  // measure 49
00001000
00001000
00001000
00000000
,  // measure 50
00010000
00000000
00010000
00000000
00000000
00001000
00010000
00000000
00000000
00000000
00000000
00000000
,  // measure 51
00010000
00000010
00010000
00001000
00100000
00001000
00010000
00000100
00010000
00001000
01000000
00001000
,  // measure 52
00010000
00000000
00010000
03000000
00000000
00010000
00000200
00000000
00000000
00000310
00000000
00000000
,  // measure 53
00001002
00000000
00000000
00001003
00000010
00001000
00000001
00000010
00000001
00001000
00000100
00000010
,  // measure 54
00000001
00000100
00001000
00000100
00001000
00010000
00001000
00010000
01000000
00010000
01000000
10000000
,  // measure 55
00100000
00000000
00100000
01000000
00000000
01000000
00010000
00000000
00010000
00100000
00000000
01000000
,  // measure 56
10000000
00000000
10000000
00010000
00000000
00010000
01000000
00000000
00001000
03010000
00000000
00000000
,  // measure 57
00001000
00000000
00010000
00000100
00010000
00000000
00000000
00000000
00010000
00000000
00001000
01000000
00001000
00000000
00000000
00000000
,  // measure 58
00001000
00000000
00010000
00000010
00010000
00000000
00000000
00000000
00010000
00000000
00001000
00100000
00001000
00000000
00010000
00001000
,  // measure 59
00010000
00000010
00000100
00000001
00000010
00001000
00000010
00000001
,  // measure 60
00000100
00000000
00000010
00000000
00001000
00000100
00000010
00000001
00001000
00000000
00000010
00000000
00010000
00000000
00001000
00010000
,  // measure 61
00001000
00100000
00010000
10000000
00100000
01000000
00010000
00100000
,  // measure 62
00220000
00000000
00000000
00330000
,  // measure 63
10000000
00000000
00100000
00000000
00000000
00100000
10000000
00000000
00010000
00000000
00100000
00000000
00000000
00100000
00010000
00000000
,  // measure 64
01000000
00000000
00001000
00000000
00000000
00001000
00010000
00000000
00000010
00000000
00000100
00000000
00000001
00000010
00000100
00001000
,  // measure 65
00000020
00000000
00000100
00000300
00000130
00000000
00000001
00000010
00000200
00000000
00000000
00000000
00020300
00000000
00000000
00000000
,  // measure 66
00030010
00000000
00000100
00000000
00001000
00000000
00000100
00000000
00000010
00030000
00000100
00000000
00300001
00001000
00000001
00001000
,  // measure 67
00000001
00000000
00000100
00000000
00000000
00000100
00000001
00000000
00001000
00000000
00000100
00000000
00000000
00000100
00010000
00000000
,  // measure 68
00001000
00000000
00100000
00001000
00010000
00000000
00000010
00010000
00001000
00000000
01000000
00001000
00010000
00000000
00000100
00010000
,  // measure 69
00001000
00000000
01000000
00000000
00010000
00000000
00100000
01000000
00200000
00000000
00000000
00000000
03320000
00000000
00000000
00000000
,  // measure 70
10030000
00000000
00000000
10100000
00000000
00000000
00010000
00000000
00120000
00000000
00000000
00000000
10030000
00100000
01000000
00010000
,  // measure 71
10000000
01000000
00010000
00001000
00000010
00000001
00000100
00000110
,  // measure 72
00000000
00000000
00000000
00000000
,  // measure 73
00001001
00001001
00011000
00011000
,  // measure 74
10010000
00000000
02000000
03000000
;

//---------------dance-double - ----------------
#NOTES:
     dance-double:
     :
     Hard:
     13:
     0.593178,0.646626,0.519031,0.570934,0.181661,480.000000,420.000000,60.000000,66.000000,0.000000,0.000000,0.593178,0.646626,0.519031,0.570934,0.181661,480.000000,420.000000,60.000000,66.000000,0.000000,0.000000:
00000000
00000000
00000000
00000000
,
00000000
00000000
00000000
00000000
,
00000000
00000000
00000000
00000000
,
00000000
00000000
00000000
00000000
,
00001000
00010000
00002000
00000000
00003200
00000000
00000310
00000000
,
00001000
00000000
00001000
00000000
00000001
00000010
00000100
00001000
,
00000020
00000000
00000230
00000000
00000302
00000000
00001003
00000200
,
00000000
00010300
00001000
00100000
00020000
00000000
10030000
00000000
,
10130000
00000000
10100000
00000000
10020000
00000000
01030000
20000000
,
00030000
31000000
00010000
00100000
00002000
00000000
00013000
00000000
,
00010100
00000000
00010100
00000000
00002001
00000000
00003010
00000002
,
00000000
00000000
00000013
00000000
00000100
00000000
00000001
00000000
00001000
00000000
00000100
00000010
00000100
00000000
00000000
00000000
,
00001100
00000000
00011000
00000000
00120000
00000000
10030000
00200000
,
00000000
01300000
10000000
01000000
00020000
00000000
00130000
00001000
,
00102000
00000000
00013000
00000000
00021000
00000000
00030010
00001000
,
00002010
00000000
00003001
00000000
00000012
00001000
00001003
00000000
,
00003101
00000000
00000101
00000000
00002001
00000000
00003010
00000001
,
00003010
00001003
00000100
00010000
00002000
00000000
00133000
00010000
,
00110000
00000000
00110000
00000000
10020000
00000000
01030000
10000000
,
01000000
00000000
30100000
00000000
10000000
00000000
00010000
00000000
00100000
00000000
00010000
10000000
00010000
00000000
00000000
00000000
,
00110000
00000000
00011000
00000000
00002100
00000000
00003001
00000100
,
00001000
00000100
00000001
00000010
00000200
00000000
00013300
00000010
,
00020010
00000000
00031000
00100000
00102000
00000000
00013000
00000100
,
00020100
00000000
00000000
00000000
00031300
00000000
01000000
00000000
01010000
00000000
00000000
00000000
10000000
00010000
10000000
00010000
,
10000000
00100000
01000000
00010000
00100000
00001000
01000000
02000000
,
00000000
03001000
00010000
00000100
00000010
00000000
00000011
00000011
,
00000000
00001000
00000001
00001000
00000020
00000000
00010030
00002000
,
00000000
00000000
00103000
00000000
00010000
00000000
01000000
00000000
00001000
00010000
00001000
00000000
00010000
00000000
00000010
00000000
,
00000110
00000000
00000010
00001000
00000100
00010000
00000010
00000020
,
00000000
00010030
00001000
00100000
01000000
00000000
11000000
11000000
,
20000000
00000000
30200000
00000000
01300000
00010000
00100000
00010000
,
10010000
10010000
00011000
00011000
,
00001001
00000000
00000000
00000000
,
00000001
00000100
00001000
00000100
00000020
00000000
00001030
00000100
,
00010000
00000000
00001000
00000000
00010000
00000000
00001000
00000000
00200000
00000000
00000000
00000000
00310000
00000000
10000000
01000000
,
20000000
00000000
30100000
01000000
10000000
01000000
00100000
10000000
,
00010000
00000000
00100000
00000000
00110000
00000000
00000000
00000000
00101000
00000000
00000000
00000000
00001000
00010000
00001000
00010000
,
00001000
01000000
00010000
00210000
00000000
00301000
00010000
00010020
,
00000300
00001030
00000001
00001000
00000100
00010000
00001000
00000000
,
00010000
00000010
00001000
00001200
00000000
00010300
00001000
02001000
,
00300000
03010000
10000000
00010000
00100000
00001000
00010000
00000000
,
00012000
00103000
00021000
00030010
,
00012000
01003000
00021000
00030100
,
00010000
00001000
00010000
00000000
00001000
00010000
00001000
00000000
,
00010000
00000100
00000010
00000001
00002000
00000000
00003002
00000000
,
00000103
00000000
00000100
00000010
00000000
00000010
00001000
00000000
00001000
00000100
00000000
00000100
,
00010000
00000000
00010000
00001000
00000000
00001000
01000000
00000000
01000000
00100000
00000000
00100000
,
10000000
00000000
00010000
00100000
00000000
00100000
00001000
00000000
00001000
00010000
00000000
00010000
,
00000100
00000000
00001000
00000020
00000000
00000000
00000230
00000000
00000000
00000301
00000000
00000000
,
00001000
00001000
00001000
00000000
,
00000100
00000000
00000100
00000000
00000000
00001000
00000100
00000000
00000000
00000000
00000000
00000000
,
00010000
00001000
00010000
00001000
00000000
00000000
01000000
00010000
01000000
00010000
00000000
00000000
,
20000000
01000000
00020000
30030000
,
10200000
00000000
00000000
01300000
00010000
01000000
00020000
00000000
00000000
00130000
00000000
00000000
,
00001000
00010000
00001000
00010000
00001000
00010000
00000010
00001000
00000010
00001000
00000010
00001000
,
00000002
00000000
00000000
00000013
00000000
00000010
00000200
00000000
00000000
00010300
00000000
00010000
,
00001000
00000000
00001000
01000000
00000000
01000000
00200000
00000000
00000000
10300000
00000000
00000000
,
00010000
10000000
00010000
00100000
00002000
00000000
00013000
00000010
,
00001000
00000001
00001000
00000100
00020000
00000000
00031000
01000000
,
00100000
00010000
00100000
01000000
00100000
10000000
00100000
01000000
,
00010000
00100000
01000000
10000000
00100000
01000000
00001000
00010000
,
00000200
00000320
00000032
00001003
,
00002002
00000000
00000000
00003003
,
00000001
00000100
00000000
00000100
00001000
00010000
00000000
00010000
,
00100000
10000000
00000000
10000000
01000000
00100000
00010000
01000000
,
00200000
00000000
10300000
01000000
11000000
00000000
00110000
00000000
,
10000000
00010000
10000000
00010000
01000000
00100000
10000000
00010000
,
10000000
00100000
00000000
00100000
00010000
00001000
00000000
00001000
,
00000100
00000010
00000100
00001000
00000100
00000001
00000010
00000100
,
00020000
00000000
00031000
01000000
01001000
00000000
01010000
00000000
,
10010000
00000000
00000000
00010000
00000000
00000000
00100000
00000000
00102000
00000000
00000000
00000000
00013000
00000000
00000100
00000000
,
00000010
00000010
00000001
00000001
00001000
00000010
00000100
00000110
,
00000000
00000000
00000000
00000000
,
00001001
00001001
00011000
00011000
,
10010000
00000000
02000000
03000000
;

//---------------dance-double - ----------------
#NOTES:
     dance-double:
     :
     Medium:
     9:
     0.427583,0.549632,0.320069,0.562284,0.047578,346.000000,309.000000,37.000000,65.000000,0.000000,0.000000,0.427583,0.549632,0.320069,0.562284,0.047578,346.000000,309.000000,37.000000,65.000000,0.000000,0.000000:
00000000
00000000
00000000
00000000
,
00000000
00000000
00000000
00000000
,
00000000
00000000
00000000
00000000
,
00000000
00000000
00000000
00000000
,
00001000
00010000
00002000
00000000
02003000
00000000
03100000
00000000
,
10000000
00000000
00000000
00000000
00010000
10000000
00010000
10000000
,
02000000
00000000
03200000
00000000
00320000
00000000
01030000
00002000
,
00000000
00023000
00000000
00030100
00000010
00000000
00000000
00000000
,
00001001
00000000
00001001
00000000
00001001
00000000
00000001
00000200
,
00000000
00002300
00000000
00013000
00001000
00000000
00000000
00000000
,
00011000
00000000
00011000
00000000
00011000
00000000
00001000
00200000
,
00000000
00310000
10000000
00010000
10000000
00000000
00000000
00000000
,
10010000
00000000
10010000
00000000
10010000
00000000
10000000
01000000
,
00000000
01000000
00100000
00000000
00020000
00000000
10030000
00100000
,
02000000
00010000
03002000
00010000
,
00023000
00000100
00030200
00001300
,
00001100
00000000
00001100
00000000
00001001
00000000
00000001
00000200
,
00000000
00002300
00000000
00013000
00001000
00000000
00000000
00000000
,
00011000
00000000
00011000
00000000
00011000
00000000
00001000
00100000
,
00000000
00100000
00020000
00000000
20030000
00000000
30000000
00000000
,
10100000
00000000
10100000
00000000
10100000
00000000
10000000
01000000
,
00000000
10000000
00010000
10000000
00020000
00000000
01030000
00001000
,
00020000
00001000
00030200
00001000
,
00002300
00000010
00003020
00000130
,
00002002
00000000
00003003
00000000
00000001
00000000
00000100
00000010
,
00000000
00000010
00001000
00000000
00000100
00000000
00010000
00001000
,
00000000
00001000
00100000
00000000
00010000
00000000
10000000
00010000
,
01000000
00100000
10100000
10100000
,
10010000
00000000
10010000
00000000
10000000
00000000
00010000
00100000
,
00000000
00100000
00002000
00000000
00023000
00000000
00030010
00000010
,
00001000
00001000
00000001
00000001
,
00000011
00000011
00001100
00001100
,
00001001
00000000
00000000
00000000
,
00000001
00000100
00000001
00000100
00000010
00000000
00000000
00000000
,
00001000
00000100
00001000
00000100
00000010
00000000
00000000
00000000
,
00002002
00000000
00003003
00000000
00001000
00000000
00000010
00001000
,
00000200
00020300
00032000
00203000
,
00310000
01000000
00010000
02000000
00000000
03100000
10000000
00020000
,
00000000
00000000
10000000
10030000
,
10000000
01000000
10000000
02000000
00000000
03100000
00010000
20000000
,
00000000
00000000
00010000
30010000
,
10000000
00010000
01000000
00001000
,
00010000
00000100
00000010
00000001
,
00001000
00000100
00001000
00000000
00000001
00000100
00000001
00000000
,
00000100
00000010
00000220
00000330
,
00000001
00000000
00000001
00000100
00000000
00000000
00000020
00000000
00000000
00001030
00000000
00000000
,
00000200
00010300
00002000
00103000
,
00100000
00000000
00100000
00010000
00000000
00000000
20000000
00000000
00000000
30100000
00000000
00000000
,
02000000
03010000
00200000
00301000
,
00010000
00010000
00010000
00000000
,
00001000
00000000
00001000
00000000
00000000
00010000
00001000
00000000
00000000
00000000
00000000
00000000
,
00010000
00000000
00001000
00010000
00000000
00000000
00000010
00000000
00001000
00000010
00000000
00000000
,
00002000
00003000
00000002
00000003
,
00000020
00000000
00000000
00000030
00000000
00000000
00000001
00000000
00000100
00000001
00000000
00000000
,
00001000
00000000
00000100
00001000
00000000
00000000
00000010
00000000
00010000
00000010
00000000
00000000
,
00010000
00010000
00001000
00001000
,
00100000
00000000
00010000
01000000
00000000
00000000
00200000
00000000
00000000
00300000
00000000
00000000
,
20000000
00100000
00020000
30030000
,
00020000
00100000
20000000
30030000
,
00020000
02030000
03002000
00023000
,
00030100
00000010
00000100
00000010
00000100
00000010
00000100
00000010
,
00000001
00001000
00000001
00001000
00000001
00001000
00000001
00001000
,
00000020
00000000
00000000
00000030
,
00001000
00000100
00000000
00000000
00010000
00001000
00000000
00000000
,
00100000
00010000
00000000
00000000
10000000
00100000
00000000
00000000
,
20000000
00000000
30010000
01000000
00020000
00000000
00230000
00000000
,
00301000
00010000
00001000
00000000
00100000
00010000
00100000
00000000
,
00010000
10000000
00000000
00000000
00010000
01000000
00000000
00000000
,
00001000
00010000
00001000
00010000
00001000
00010000
00001000
00010000
,
00000200
00000300
00001100
00000101
,
00001000
00000000
00000000
00000001
00000000
00000000
00000100
00000000
00000200
00000000
00000000
00000000
00000310
00000000
00000000
00000000
,
00001000
00000100
00001000
00000100
00010000
00001000
00100000
00010000
,
00000000
00000000
00000000
00000000
,
00110000
00110000
11000000
11000000
,
10010000
00000000
02000000
03000000
;

//---------------dance-double - ----------------
#NOTES:
     dance-double:
     :
     Easy:
     5:
     0.258280,0.355644,0.086505,0.259516,0.000000,209.000000,199.000000,10.000000,30.000000,0.000000,0.000000,0.258280,0.355644,0.086505,0.259516,0.000000,209.000000,199.000000,10.000000,30.000000,0.000000,0.000000:
00000000
00000000
00000000
00000000
,
00000000
00000000
00000000
00000000
,
00000000
00000000
00000000
00000000
,
00000000
00000000
00000000
00000000
,
10000000
00010000
02000000
03000000
,
00001000
00000000
00001000
00010000
,
00000100
00000100
00000010
00000001
,
00001000
00000000
00000000
00000000
,
00000001
00000001
00000100
00000010
,
00010000
00001000
00100000
00000000
,
00001000
00001000
00010000
00001000
,
01000000
00100000
10000000
00000000
,
00100000
00100000
10000000
01000000
,
00100000
00010000
10000000
00000000
,
00020000
00030000
02000000
03000000
,
00002000
00003000
00020000
00030000
,
00000100
00000100
00001000
00000100
,
00000010
00000001
00001000
00000000
,
00000010
00000010
00001000
00000010
,
00010000
00001000
00100000
00000000
,
00001000
00001000
00010000
00001000
,
01000000
00100000
10000000
00000000
,
00020000
00030000
00200000
00300000
,
02000000
03000000
20000000
30000000
,
10010000
00000000
00010000
01000000
,
01000000
00000000
00001000
00010000
,
00010000
00000000
00000100
00001000
,
00001000
00000001
00000100
00000000
,
00000001
00000010
00000010
00000000
,
00000100
00010000
00010000
00000000
,
00001000
00001000
01000000
01000000
,
00100000
10000000
00010000
00100000
,
10010000
00000000
00000000
00000000
,
10000000
01000000
00000000
01000000
,
00100000
00010000
00000000
00010000
,
02000000
03000000
00002000
00003000
,
00010000
00010000
00000100
00000100
,
00000010
00000000
00000000
00000010
00000000
00000000
00000000
00000002
,
00000000
00000000
00000003
00000000
,
00001000
00000000
00000000
00001000
00000000
00000000
00000000
00000020
,
00000000
00000000
00000000
00000030
,
00020000
00030000
00002000
00003000
,
00100000
00010000
10000000
00100000
,
02000000
00000000
00000000
03000000
,
00200000
00000000
00000000
00300000
,
10000000
10000000
01000000
01000000
,
00100000
00010000
01000000
00000000
,
00001000
00001000
00010000
00010000
,
00000100
00000010
00000001
00000000
,
00001000
00001000
00001000
00000000
,
00000100
00000000
00000100
00000000
,
00010000
00001000
00010000
00001000
,
02000000
03000000
00200000
00300000
,
20000000
30000000
00010000
01000000
,
00010000
00010000
00100000
00100000
,
00002000
00003000
00020000
00030000
,
00000010
00001000
00000100
00000000
,
00002002
00000000
00003003
00000000
,
00000220
00000000
00000330
00000000
,
00000001
00000001
00000100
00000100
,
00000010
00010000
00001000
00100000
,
02000000
00000000
00000000
03000000
,
02200000
00000000
00000000
03300000
,
00010000
00000000
10000000
00000000
,
00100000
00000000
01000000
01000000
,
00010000
00100000
00001000
00001000
,
00010000
00000100
00000010
00000001
,
00001000
00000000
00000001
00000000
,
00000100
00000100
00000100
00000100
,
00000010
00000000
00001000
00000100
,
00010000
00001000
01000000
00000000
,
00010000
00010000
01000000
00100000
,
00100000
00000000
00000000
00000000
,
01100000
01100000
01100000
10010000
,
10010000
00000000
02000000
03000000
;
