#TITLE:No Rule Adventure;
#SUBTITLE:;
#ARTIST:nora2r;
#TITLETRANSLIT:;
#SUBTITLETRANSLIT:;
#ARTISTTRANSLIT:;
#GENRE:;
#CREDIT:;
#MUSIC:No Rule Adventure.ogg;
#BANNER:No Rule Adventure.png;
#BACKGROUND:No Rule Adventure-bg.png;
#CDTITLE:;
#SAMPLESTART:11.368;
#SAMPLELENGTH:15.270;
#SELECTABLE:YES;
#OFFSET:-0.000;
#BPMS:0.000=190.000
,32.000=95.000
,33.500=190.000
,126.000=95.000
,127.500=190.000
,128.000=95.000
,143.500=190.000
,144.000=95.000
,159.500=190.000
,216.000=95.000
,219.500=190.000
,284.000=95.000
,287.500=190.000
,296.000=95.000
,299.500=190.000
;
#STOPS:33.500=0.158
,127.500=0.158
,143.500=0.158
,159.500=0.158
,219.500=0.158
,287.500=0.158
,299.500=0.158
;
#BGCHANGES:;
#FGCHANGES:;

//--------------- dance-single - Princess Pamela ----------------
#NOTES:
     dance-single:
     Princess Pamela:
     Beginner:
     5:
     0,0,0,0,0:
0000
0000
0000
0000
,
0000
0000
0000
0000
,
0000
0000
0000
0000
,
0000
0000
0000
0000
,
0000
0000
0000
0000
,
1000
0000
0000
0000
,
0001
0000
0000
0000
,
1000
0000
0001
0000
,
0000
0000
1001
0000
,
0000
0000
1000
0000
,
0000
0000
0010
0000
,
0010
0000
1000
0000
,
0000
0000
0001
0000
,
0000
0000
0100
0000
,
0000
0000
0001
0000
,
0001
0000
0010
0000
,
0000
0000
1001
0000
,
0000
0000
1000
0000
,
0000
0000
0100
0000
,
0100
0000
1000
0000
,
0000
0000
1001
0000
,
0000
0000
0001
0000
,
0001
0000
0020
0000
,
0000
0000
0030
0000
,
0000
0000
1001
0000
,
1000
0000
1000
0000
,
0000
0000
0001
0000
,
0001
0000
0001
0000
,
0000
0000
0200
0000
,
0000
0300
0020
0000
,
0000
0030
2002
0000
,
0000
3003
0000
0000
,
1001
0000
0001
0001
,
1000
0000
0010
0000
,
1001
0000
1000
1000
,
0001
0000
0020
0030
,
1001
0001
0001
1000
,
0001
0000
0010
0100
,
0010
0000
0001
0000
,
1000
1000
0000
0000
,
1001
0000
0000
0000
,
0001
0000
0000
0000
,
0010
0000
0000
0000
,
0100
0000
0000
0000
,
1000
0000
0000
0000
,
0001
0000
0000
0000
,
0100
0000
0000
0000
,
0010
0000
0000
0000
,
1000
0000
1000
0000
,
0001
0000
0000
0000
,
0001
0000
0001
0000
,
1000
0000
0000
0000
,
2002
0000
0000
0000
0000
0000
0000
3003
,
0000
0000
0000
0000
,
0020
0030
0200
0300
,
1001
0000
0000
0000
,
0001
0000
0001
0000
,
1000
0000
0001
0000
,
0010
0000
0000
0000
,
0100
0000
1000
0000
,
0100
0000
0000
0000
,
0010
0000
0001
0000
,
0010
0000
0000
0000
,
1001
0000
0000
0000
,
1000
0000
0010
0000
,
0100
0000
0001
0000
,
1000
0000
0001
0000
,
0010
0000
0000
0000
,
0100
0000
1000
0000
,
2002
0000
0000
0000
,
3003
0000
0000
0000
,
0220
0000
0000
0000
0000
0330
0000
0000
,
1000
0000
1000
0000
,
0001
0000
1000
0000
,
1001
0000
0110
0000
,
0001
0000
0001
0000
,
1000
0000
0001
0000
,
1001
0000
0110
0000
,
1000
1000
0001
0000
,
2002
0000
0000
0000
,
0000
0000
0000
3003
;

//--------------- dance-single - Princess Pamela ----------------
#NOTES:
     dance-single:
     Princess Pamela:
     Easy:
     8:
     0,0,0,0,0:
0000
0000
0000
0000
,
0000
0000
0000
0000
,
0000
0000
0000
0000
,
0000
0000
0000
0000
,
0000
0000
0000
0000
,
1001
0000
0010
0000
,
1001
0000
0010
0000
,
1000
0001
1000
0001
,
0200
0000
0000
0300
0010
0000
0010
0000
,
0000
1000
0001
0001
,
0000
1000
0100
0000
,
0010
0001
1000
0001
,
0010
0100
1000
0000
,
0010
0100
0010
0000
,
0100
0001
1000
0000
,
0001
0010
0100
1000
,
0001
0000
1001
0000
,
0001
0010
0001
0000
,
1000
0010
1000
0000
,
0001
0010
0100
1000
,
0010
0100
0002
0000
,
0003
0000
2000
0000
,
3000
0000
2002
0000
,
0000
0000
3003
0000
0001
0000
0000
1000
,
0000
0001
1001
0000
,
1000
1000
0010
0000
,
1000
1000
0100
0000
,
0010
0010
0001
0000
,
0100
0100
0002
1000
,
1003
0000
2000
0001
,
3001
0000
0020
0100
,
0130
0000
0000
0000
0002
0000
0000
0003
,
1000
0010
0010
1000
,
0200
0300
0020
0030
,
0001
1000
1000
0001
,
0100
0000
0010
0100
0010
0000
0110
0000
,
1001
0000
0000
0000
1000
0000
0000
1000
0000
0000
0001
0000
0000
0001
0000
0000
,
0100
0000
0010
0000
0100
0010
0100
0000
,
0001
1000
1000
0001
,
0010
0000
0100
0010
0200
0000
0000
0300
,
1001
0000
0000
0000
,
1000
0000
1000
0000
,
0002
0000
0003
0000
,
0200
0300
0020
0030
,
2000
0000
3000
0000
,
0002
0000
0003
0000
,
0020
0030
0200
0300
,
2000
3000
0002
0003
,
1001
0000
1000
1000
,
0010
0000
1000
0100
,
0010
0000
0001
0001
,
0010
0100
1000
0000
,
2002
0000
0000
0000
3003
0000
0000
0220
,
0000
0000
0330
0000
,
0002
0000
0000
0003
2000
0000
0000
3000
,
0010
0100
0010
0000
,
1000
0001
1000
0000
,
0100
0010
0001
1000
,
0001
0010
0100
0000
,
1000
0001
1000
0010
,
0200
0000
0301
1000
,
0001
0010
0100
1000
,
0010
0000
0000
0010
0000
0000
0100
0000
,
1001
0001
0010
0001
,
1000
0010
1000
0001
,
0100
0010
0010
0100
,
0001
0000
1000
0001
,
2000
0000
3010
0100
,
0002
0000
0013
0100
,
2002
0000
0000
3003
,
0001
0000
1000
0000
,
0220
0000
0000
0000
0000
0000
0000
0330
,
1001
0000
1000
0100
,
0001
0100
1000
0100
,
0020
0001
0001
0130
,
1001
0000
0001
0100
,
1000
0100
0001
0100
,
0010
0010
1000
0010
,
1000
0000
0000
1000
0000
0000
0001
0000
,
2002
0000
0000
0000
,
0000
0000
0000
3003
;

//--------------- dance-single - Princess Pamela ----------------
#NOTES:
     dance-single:
     Princess Pamela:
     Medium:
     12:
     0,0,0,0,0:
0000
0000
0000
0000
,
0000
0000
0000
0000
,
0000
0000
0000
0000
,
0000
0000
0000
0000
,
0000
0000
0000
0000
,
1001
1000
0100
0010
,
1001
0001
0100
0010
,
1000
0100
1000
0000
0001
0100
0001
0000
,
0020
0000
0000
0130
1001
0000
1000
0010
,
0000
1000
0001
1000
0001
0000
1000
0010
,
0000
1000
0001
0100
0002
0000
0013
0000
,
0001
0100
0010
0110
,
1000
0000
1001
0000
0001
0000
0010
0100
,
0000
0010
0001
0010
0001
0000
0100
0000
,
0010
0000
1000
0000
1001
0000
0001
0010
,
0100
0000
1000
0000
0010
0010
0000
0100
,
0100
0000
0110
0000
1001
0000
0001
0010
,
0000
0001
1000
0001
1000
0000
0001
0010
,
0000
0100
1000
0001
1000
0000
0010
0000
,
0100
0000
0002
0000
0000
0003
1000
0001
,
1000
0010
0210
0000
,
0001
0000
0000
0010
0000
0310
0000
0000
,
0001
1000
2002
0000
,
0000
0000
3003
0000
1000
1000
0000
0001
,
0001
1001
1000
1000
,
0001
0001
0100
0010
,
0010
0100
0001
0001
,
1000
1000
0100
0010
,
0010
0100
2000
0001
,
0001
3010
0002
1000
,
1000
0013
0200
1000
,
1000
0000
0320
0000
0000
0000
0000
0130
,
1001
0000
0001
0001
1000
0010
0100
0001
,
1000
0000
0000
0000
0001
1000
0001
0000
0010
0000
0000
0001
2000
0000
0000
0000
,
3020
0000
0000
0000
0130
0000
0100
0000
0001
0000
0100
0010
0100
0000
0010
0000
,
1000
0000
0001
1000
0001
0000
0010
0000
0100
0000
1000
0000
0020
0000
0030
0000
,
1001
0000
0000
0000
0001
0000
0000
1001
0000
0000
0010
0000
0000
0110
0000
0000
,
1001
0000
0000
0000
1000
0000
0001
1000
0001
0000
0010
0000
0100
0000
1000
0000
,
0020
0000
0000
0000
0130
0001
0100
0000
0001
0000
0010
0000
0100
0000
1000
0000
,
0020
0000
0000
0100
0130
0000
0001
0000
2000
0000
0000
0000
0000
0000
3001
0000
,
1001
0000
1000
0010
,
1000
0000
0001
0010
,
0001
0000
1000
0100
,
1000
0001
0100
0010
,
1000
0000
0001
1000
0000
0001
1000
0000
,
0020
0000
0000
0030
0100
0000
0001
0000
,
0010
0000
0100
0010
0100
0000
1000
0000
,
0010
0100
0001
0000
,
1001
0000
0000
0000
1000
0000
0000
0000
0010
0000
0000
0010
0000
0000
1000
0000
,
0001
0000
0000
0000
0100
0000
0000
0000
0001
0000
0000
0001
0000
0000
1000
0000
,
0010
0000
0000
0000
0100
0000
0000
0000
0001
0000
0000
0001
0000
0000
1000
0000
,
0100
0000
0000
0100
0000
0000
1000
0000
0001
0000
0000
0001
0000
0000
0100
0000
,
0020
0000
1030
0001
1000
0001
0000
2002
,
0000
0000
0000
3003
,
0200
0000
0000
0300
0020
0000
0000
0130
,
1001
0000
1000
0010
0000
1000
0001
1000
,
0001
0000
1000
0010
0000
1000
0001
0100
,
0002
0013
0001
0100
,
0010
0110
1000
1001
,
0001
0000
0010
0100
0000
0010
0001
0010
,
0001
0100
0010
1000
,
1001
0000
0001
0010
0100
0000
1000
0000
,
0010
0010
0000
0100
0100
0000
0110
0000
,
1001
0000
0001
0010
0000
0001
1000
0001
,
1000
0000
0001
0010
0000
0100
1000
0001
,
1000
0000
0010
0100
0010
0000
0100
0000
,
0001
0000
1000
0001
1000
0000
0010
0000
,
1001
0000
0001
0000
0010
0100
0010
0001
,
0000
0010
0100
0000
1000
0000
0001
0000
,
2002
0000
0000
3003
,
0001
0000
0000
0010
0000
0000
0100
0000
,
2002
0000
0000
0000
0003
0000
0000
3001
,
2002
0000
3003
0000
1000
0010
1000
0000
,
0001
0010
0001
0000
1000
0100
0010
0000
,
1001
0000
0000
0000
0001
0000
0001
0000
1000
1000
1000
0000
0001
0000
0010
0000
,
2002
0000
3003
0000
1000
0100
1000
0000
,
0001
0100
0001
0000
1000
0010
0100
0000
,
0001
1000
0000
0001
0010
0001
0010
0000
,
0100
0100
0000
0010
0010
0000
0100
0000
,
2002
0000
0000
0000
,
0000
0000
0000
3003
;

//--------------- dance-single - Princess Pamela ----------------
#NOTES:
     dance-single:
     Princess Pamela:
     Hard:
     16:
     0,0,0,0,0:
0000
0000
0000
0000
,
0000
0000
0000
0000
,
0000
0000
0000
0000
,
0000
0000
0000
0000
,
0000
0000
0000
0000
,
1001
0000
0001
0010
0100
0000
1000
0010
,
0100
0000
0001
0100
0010
0000
1000
0100
,
0010
0000
0001
0010
0001
0000
1000
0010
1000
0000
0001
0100
0001
0000
1000
0100
,
2000
0001
0001
3001
1001
0000
1000
0100
,
0010
0001
0100
0001
0010
0000
0100
1000
,
0010
0000
1000
0000
0100
0000
0010
0000
0002
0000
0000
0000
0103
0000
0010
0100
,
0020
0000
0000
0000
1030
0000
0010
1000
0010
0000
0000
0000
0100
0000
0000
0000
,
0001
0000
0000
0000
1001
0000
0000
0000
1000
0000
0000
0100
0000
0000
1000
0000
,
0001
0000
0010
0001
0010
0000
0001
0000
0200
0000
0000
0000
0010
0000
0000
0000
,
0302
0000
1003
0000
0001
0010
0001
1000
,
0010
0000
0100
0000
0001
0000
0000
0000
1000
0100
1000
0100
1000
0000
0001
0100
,
0001
0100
0001
0000
1000
0000
0000
0000
1001
0000
0000
0000
0001
0000
0100
0000
,
0010
1000
0100
0010
0001
0000
1000
0100
,
0010
0001
0100
0001
0010
0100
0100
1000
,
2000
0000
3001
0100
0002
0000
1003
0100
,
0100
0000
1000
0001
1000
0000
0001
0000
0010
0000
0000
0000
0000
0000
0100
0000
,
0020
0000
0000
0001
0000
0031
0000
0000
,
1000
0010
2002
0000
,
0000
0000
0000
0000
3003
0000
0000
0000
0001
0100
0001
0100
0001
0000
1000
0100
,
1000
0100
1000
0000
0001
0000
0000
0000
1000
0000
0000
0000
1000
0000
0000
0000
,
0010
0010
0100
0100
,
0001
0010
0100
0100
,
1000
1000
0001
0001
,
0100
0000
0000
0010
0000
0000
1000
0001
1000
0001
0010
0100
,
1000
0000
0001
0000
0100
0000
0020
0000
0000
0030
0000
0000
1000
0000
0001
0000
1000
0000
0001
0000
0100
0000
0010
0000
,
1000
0000
0001
0000
0010
0000
0200
0000
0000
0300
0000
0000
1000
0000
0001
0000
0100
0000
0001
0000
1000
0000
0100
0000
,
1000
0000
0001
0000
0100
0000
0020
0000
0000
0030
0000
0000
2000
0000
0000
0001
0000
0000
0001
0000
0000
3001
0000
0000
,
1001
0000
0001
0001
0001
1000
0010
0100
,
0001
0000
0010
0010
0100
1000
0001
0100
0010
1000
1000
0000
0002
0000
0003
0000
,
1001
0000
0000
0000
0000
0000
0001
0000
1000
0000
1000
0000
1000
0000
0000
0000
0010
0000
0000
0000
1000
0000
0010
0000
1000
0000
0001
1000
0001
0000
0000
0000
,
0200
0000
0300
0000
0001
1000
0001
0000
1000
0000
0010
0000
0100
0000
0001
0000
0010
0000
0010
0000
0010
0000
0000
0000
0220
0000
0000
0000
0330
0000
0000
0000
,
1001
0000
0000
0001
2000
0000
3010
0020
0000
0130
0200
0000
0301
0002
0000
0013
,
0200
0000
0300
1000
0001
0001
0001
0000
0011
0000
1100
0000
1010
0000
0101
0000
,
2002
0000
0000
0000
3003
0000
0000
0000
0001
0000
0100
0000
0001
1000
0001
0000
1000
0000
0000
0000
0010
0000
0010
0000
0010
0000
1000
0001
1000
0000
0000
0000
,
1001
0000
0000
0001
0010
0000
0100
1000
0002
0000
1000
0000
1000
0000
1003
0000
,
1001
0000
0001
0010
,
0100
0000
1000
0010
,
0100
0000
0001
1000
,
0100
0000
0000
0010
0000
0000
0001
0000
0100
0000
0000
0010
0000
0000
1000
0000
,
0010
0100
0010
0100
0000
0001
0100
0001
,
0010
0200
0000
0000
1300
0000
0001
0000
,
0100
0000
0010
0000
1000
0000
0010
0000
0100
0000
0000
0001
0000
0000
0010
0000
,
0100
0000
0000
1000
0000
0000
0001
0000
0100
0000
0010
0000
1000
0000
0000
0000
,
0110
0000
0000
0000
0001
0000
1000
0000
0001
0000
0000
0010
0000
0000
0100
0000
,
0110
0000
0000
0000
1000
0000
0001
0000
1000
0000
0000
0010
0000
0000
0100
0000
,
0110
0000
0000
0000
0001
0000
1000
0000
0001
0000
0000
0010
0000
0000
0100
0000
,
1000
0000
0000
0010
0000
0000
0100
0000
0001
0000
0000
1000
0000
0000
0100
0000
,
0110
0000
0000
0000
0001
1000
0001
1000
0001
1000
0001
1000
0001
1000
0020
0000
,
0000
0000
0030
0000
,
2000
0001
0001
3001
0002
1000
1000
1003
,
1001
0000
0000
1000
0001
0000
0010
0000
0100
0000
1000
0000
0010
0000
0100
0000
,
0001
0000
0000
0001
1000
0000
0010
0000
0100
0000
0001
0000
0010
0000
0100
0000
,
2000
0000
0000
0000
3010
0000
0100
0010
0100
0000
0000
0001
0000
0000
1000
0001
,
1000
0000
0000
1000
0010
0000
0000
0010
0100
0000
0000
0100
0001
0000
0000
0001
,
0010
0000
0000
0100
0000
0000
0100
0000
1000
0000
0001
1000
0001
0000
0100
0000
,
0020
1000
0230
0301
,
1000
0001
1000
0001
0010
0100
0010
0001
,
1000
0100
1000
0100
1000
0000
0001
0100
0001
0100
0001
0000
1000
0000
0000
0000
,
1001
0000
0000
0001
1000
0000
0010
0000
0100
0000
0001
0000
0010
0000
0100
0000
,
1000
0000
0000
1000
0001
0000
0010
0000
0100
0000
1000
0000
0010
0000
1000
0000
,
0100
0010
0010
0001
0002
0000
1003
0010
,
0100
0000
0000
0001
0000
0000
0020
0000
0000
0000
0000
0000
0130
0000
0000
0000
,
1000
0001
1000
0001
0100
0010
1000
0001
,
0010
0100
0100
1000
0001
0000
1001
0000
,
0220
0000
0000
0330
,
0001
0000
0000
1000
0000
0000
0100
0000
,
2002
0000
3000
0000
1000
1000
1000
1003
,
2002
0000
0000
0000
3000
0000
0000
0000
0103
0010
0100
0000
0001
0000
0010
0000
,
0100
0010
0100
0000
1000
0000
0010
0000
0100
0010
0100
0000
0001
0000
0010
0000
,
1001
0000
0000
0000
0001
0000
0001
0000
1000
0001
1000
0000
0010
0000
0100
0000
0001
1000
0001
0000
0010
0000
0100
0000
1000
0001
1000
0000
0010
0000
0000
0000
,
2002
0000
0000
0000
0003
0000
0000
0000
3100
0010
0100
0000
1000
0000
0010
0000
,
0100
0010
0100
0000
0001
0000
0010
0000
0100
0010
0100
0000
1000
0000
0010
0000
,
0100
0000
0001
0100
0001
0000
0010
0000
0100
0000
1000
0001
0100
0000
0001
0000
,
1000
0100
1000
0100
1000
0000
0001
0100
0001
0100
0001
0000
1000
0000
0000
0000
,
0100
1000
0100
0010
0002
0000
0000
0000
0000
0000
0000
0000
0000
0000
0000
0000
,
0000
0000
0000
0003
;

//--------------- dance-double - Princess Pamela ----------------
#NOTES:
     dance-double:
     Princess Pamela:
     Hard:
     16:
     0,0,0,0,0:
00000000
00000000
00000000
00000000
,
00000000
00000000
00000000
00000000
,
00000000
00000000
00000000
00000000
,
00000000
00000000
00000000
00000000
,
00000000
00000000
00000000
00000000
,
00011000
00000000
00001000
00010000
00100000
00000000
10000000
00100000
,
00010000
00000000
00001000
00010000
01000000
00000000
10000000
01000000
,
00010000
00000000
00001000
00010000
00001000
00000000
00100000
00001000
00100000
00000000
00001000
00010000
00001000
00000000
01000000
00001000
,
02000000
00000000
00010000
00010000
00010000
00010000
03010000
00000000
10010000
00000000
00000000
00000000
10000000
00000000
01000000
00000000
,
00100000
00010000
01000000
00001000
00010000
00000000
00000010
00000100
,
00000010
00000000
00010000
00000000
00001000
00000000
00000010
00000000
00000002
00000000
00000000
00000000
00000103
00000000
00000010
00000100
,
00000020
00000000
00000000
00000000
00010030
00000000
00001000
00010000
00001000
00000000
00000000
00000000
00000010
00000000
00000000
00000000
,
00000001
00000000
00000000
00000000
00000100
00000000
00000000
00000000
00000010
00000000
00000000
00001000
00000000
00000000
00000010
00000000
,
00000000
00000000
00000100
00000001
00000100
00000000
00001000
00000000
00020000
00000000
00000000
00000000
00000010
00000000
00000000
00000000
,
00032000
00000000
00203000
00000000
00310000
01000000
00010000
01000000
,
00100000
00000000
10000000
00000000
01000000
00000000
00000000
00000000
00100000
00010000
00100000
00010000
00100000
00000000
00001000
00010000
,
00001000
00010000
00001000
00000000
01000000
00000000
00000000
00000000
10010000
00000000
00000000
00000000
00010000
00000000
01000000
00000000
,
00100000
10000000
01000000
00010000
00001000
00000000
00000010
00000100
,
00001000
00000001
00000100
00000010
00001000
00000001
00000001
00000100
,
00000200
00000000
00001300
00010000
00002000
00000000
00013000
00100000
,
00100000
10000000
00010000
01000000
00200000
00000000
00000000
00000000
,
10000000
00000000
00000000
00010000
00000000
00310000
00000000
00000000
,
00100000
00010000
00022000
00000000
,
00000000
00000000
00000000
00000000
00033000
00000000
00000000
00000000
00000010
00001000
00000010
00001000
00000010
00000000
00010000
00001000
,
00010000
00001000
00010000
00000000
00000100
00000000
00000000
00000000
00000010
00000000
00000000
00000000
00000010
00000000
00000000
00000000
,
00000001
00000001
00000100
00000100
,
00001000
00010000
00100000
00100000
,
10000000
10000000
01000000
01000000
,
00010000
00000000
00000000
00001000
00000000
00000000
00000010
00000100
00000010
00000100
00001000
00000001
,
00001000
00000000
00000010
00000000
00000100
00000000
00000002
00000000
00000000
00000003
00000000
00000000
00001000
00000000
00000100
00000000
00001000
00000000
00000100
00000000
00010000
00000000
00001000
00000000
,
01000000
00000000
00010000
00000000
01000000
00000000
00200000
00000000
00000000
00300000
00000000
00000000
10000000
00000000
00010000
00000000
10000000
00000000
00010000
00000000
00100000
00000000
01000000
00000000
,
10000000
00000000
00000000
00000000
00010000
00000000
00000000
00000000
01000000
00000000
00000000
00000000
00200000
00000000
00000000
00000000
00000000
00000000
00300000
00000000
00000000
00000000
00000000
00000000
20000000
00000000
00000000
00000000
00000000
00000000
00010000
00000000
00000000
00010000
00000000
00000000
00010000
00000000
00000000
00010000
00000000
00000000
30010000
00000000
00000000
00000000
00000000
00000000
,
10010000
00000000
10000000
10000000
10000000
01000000
00010000
00001000
,
00000010
00000000
00000100
00000100
00000010
00000001
00001000
00000001
00000100
00000010
00000010
00000000
00002000
00000000
00003000
00000000
,
00001001
00000000
00000000
00000000
00000000
00000000
00000001
00000000
00000010
00000000
00000010
00000000
00000010
00000000
00000000
00000000
00000001
00000000
00000000
00000000
00000100
00000000
00000010
00000000
00000100
00000000
00000010
00001000
00000010
00000000
00000000
00000000
,
00020000
00000000
00030000
00000000
00001000
00010000
00001000
00000000
00010000
00000000
00001000
00000000
01000000
00000000
00010000
00000000
00100000
00000000
00100000
00000000
00100000
00000000
00000000
00000000
02200000
00000000
00000000
00000000
03300000
00000000
00000000
00000000
,
10010000
00000000
00000000
00010000
20000000
00000000
31000000
02000000
00000000
03010000
00020000
00000000
00031000
00002000
00000000
00013000
,
00200000
00000000
00300000
10000000
00010000
00010000
00010000
00000000
00110000
00000000
00001000
00000000
01010000
00000000
00001000
00000000
,
00022000
00000000
00000000
00000000
00033000
00000000
00000000
00000000
00010000
00000000
00001000
00000000
00010000
00001000
00010000
00000000
00000100
00000000
00000000
00000000
00000010
00000000
00000010
00000000
00000010
00000000
00000001
00001000
00000001
00000000
00000000
00000000
,
00001001
00000000
00000000
00000001
00000100
00000000
00001000
00000100
00000002
00000000
00001000
00001000
00001000
00001000
00001003
00000000
,
00001001
00000000
00000001
00000100
,
00001000
00000000
00010000
00001000
,
00010000
00000000
00100000
10000000
,
01000000
00000000
00000000
00010000
00000000
00000000
00001000
00000000
00010000
00000000
00000000
01000000
00000000
00000000
10000000
00000000
,
00100000
01000000
00100000
01000000
00000000
00001000
01000000
00001000
,
00100000
00020000
00000000
00000000
10030000
00000000
01000000
00000000
,
00010000
00000000
00001000
00000000
00010000
00000000
00000100
00000000
00010000
00000000
00000000
00001000
00000000
00000000
00000010
00000000
,
00001000
00000000
00000000
00010000
00000000
00000000
00001000
00000000
00000100
00000000
00000010
00000000
00000100
00000000
00000000
00000000
,
00001001
00000000
00000000
00000000
00000001
00000000
00000100
00000000
00001000
00000000
00000000
00001000
00000000
00000000
00010000
00000000
,
00100000
00000000
00000000
00000000
10000000
00000000
01000000
00000000
00010000
00000000
00000000
00010000
00000000
00000000
00001000
00000000
,
00000010
00000000
00000000
00000000
00000001
00000000
00000100
00000000
00001000
00000000
00000000
00001000
00000000
00000000
00010000
00000000
,
01000000
00000000
00000000
00010000
00000000
00000000
00001000
00000000
00010000
00000000
00000000
00100000
00000000
00000000
01000000
00000000
,
01100000
00000000
00000000
00000000
10000000
00010000
10000000
00010000
10000000
00010000
10000000
00010000
10000000
00010000
00200000
00000000
,
00000000
00000000
00300000
00000000
,
00002000
00000000
00010000
00010000
00010000
00010000
00013000
00000000
00020000
00000000
00001000
00001000
00001000
00001000
00031000
00000000
,
00011000
00000000
00001000
00010000
00100000
10000000
01000000
00100000
,
00010000
00000000
10000000
01000000
00010000
00001000
01000000
00010000
,
02000000
00000000
00000000
00000000
03001000
00000000
00010000
00001000
00010000
00000000
00000000
00010000
00000000
00000000
00001000
00000000
,
00000010
00000001
00000100
00001000
,
00010000
00000000
00000000
00100000
00000000
00000000
00100000
00000000
10000000
00000000
00100000
01000000
00100000
00000000
01000000
00000000
,
00020000
00100000
02030000
03002000
,
00013000
00000000
00000010
00001000
00000010
00000100
00000001
00000010
,
00000100
00001000
00000100
00001000
00000100
00000000
00010000
00001000
00010000
00001000
00010000
00000000
00000010
00000000
00000000
00000000
,
00001001
00000000
00000001
00000010
00001000
00010000
00000100
00001000
,
00000010
00000000
00010000
00001000
01000000
00010000
00100000
01000000
,
10000000
00100000
00100000
00010000
00200000
00000000
10300000
01000000
,
00010000
00000000
00000000
00001000
00000000
00000000
00000020
00000000
00000000
00000000
00000000
00000000
00000130
00000000
00000000
00000000
,
00000010
00000001
00000010
00000001
00000100
00000010
00000100
00001000
,
00010000
01000000
01000000
10000000
00010000
00000000
00100000
00000000
,
02200000
00000000
00000000
03300000
,
10000000
00000000
00000000
01000000
00000000
00000000
00010000
00000000
,
00022000
00000000
00000000
00000000
00000000
00000000
00003000
00000000
00000000
00000000
00001000
00001000
00001000
00001000
00031000
00000000
,
00020020
00000000
00000000
00000000
00030000
00000000
00000000
00000000
00010030
00001000
00010000
00000000
00000010
00000000
00000100
00000000
,
00001000
00010000
00001000
00000000
00100000
00000000
01000000
00000000
00010000
00001000
00010000
00000000
00000010
00000000
00000100
00000000
,
00000110
00000000
00000000
00000000
00000001
00000000
00000001
00000000
00000100
00000001
00000100
00000000
00000010
00000000
00010000
00000000
00001000
00010000
00001000
00000000
00100000
00000000
00010000
00000000
10000000
00010000
10000000
00000000
01000000
00000000
00000000
00000000
,
00202000
00000000
00000000
00000000
00003000
00000000
00000000
00000000
00301000
00010000
00001000
00000000
00100000
00000000
01000000
00000000
,
00010000
00001000
00010000
00000000
00000010
00000000
00000100
00000000
00001000
00010000
00001000
00000000
00100000
00000000
01000000
00000000
,
10000000
00000000
00010000
01000000
00010000
00000000
10000000
00000000
01000000
00000000
00100000
01000000
10000000
00000000
01000000
00000000
,
00100000
00010000
00100000
00010000
00100000
00000000
00001000
00010000
00001000
00010000
00001000
00000000
01000000
00000000
00000000
00000000
,
00010000
10000000
01000000
00100000
00020000
00000000
00000000
00000000
00000000
00000000
00000000
00000000
00000000
00000000
00000000
00000000
,
00000000
00000000
00000000
00030000
;
