#TITLE:モニタリング;
#SUBTITLE:;
#ARTIST:DECO*27;
#TITLETRANSLIT:Monitoring;
#SUBTITLETRANSLIT:;
#ARTISTTRANSLIT:;
#GENRE:;
#CREDIT:;
#MUSIC:Monitoring.ogg;
#BANNER:Monitoring.png;
#BACKGROUND:Monitoring-bg.png;
#CDTITLE:;
#SAMPLESTART:41.075;
#SAMPLELENGTH:10.455;
#SELECTABLE:YES;
#OFFSET:0.743;
#BPMS:0.000=132.000;
#STOPS:;
#BGCHANGES:1.635=Monitoring.avi=1.000=0=0=1,
99999.000=-nosongbg-=1.000=0=0=0=StretchNoLoop====
;
#FGCHANGES:;

//--------------- dance-single - ----------------
#NOTES:
     dance-single:
     :
     Beginner:
     2:
     0,0,0,0,0:
0000
0000
0000
0000
,
0000
0000
0000
0000
,
0000
0000
0000
0000
,
0000
0000
0000
0000
,
0000
0000
0000
0000
,
0000
0000
0000
0000
,
0000
0000
0000
0000
,
0001
0000
0000
0000
,
1000
0000
0000
0000
,
0001
0000
0000
0000
,
0100
0000
0000
0000
,
0001
0000
0001
0000
,
0010
0000
0000
0000
,
1000
0000
1000
0000
,
0010
0000
0000
0000
,
1000
0000
0000
0000
,
1000
0000
0000
0000
,
0100
0000
0000
0000
,
0100
0000
0000
0000
,
0010
0000
0010
0000
,
0001
0000
0001
0000
,
1000
0000
0000
0000
,
0000
0000
0000
0000
,
1001
0000
1000
0000
,
0100
0000
0000
0000
,
1001
0000
0001
0000
,
0100
0000
0000
0000
,
0001
0000
0100
0000
,
0010
0000
1000
0000
,
0100
0000
0010
0000
,
0001
0001
0001
0000
,
1000
0000
0000
0000
,
0100
0000
0000
0000
,
1000
0000
0000
0000
,
0001
0000
0000
0000
,
0100
0000
0100
0000
,
0001
0000
0001
0000
,
1000
0000
1000
0000
,
0010
0000
0000
0000
,
0010
0000
0000
0000
,
0000
0000
0000
0000
,
1000
0000
0000
0000
,
0001
0000
0000
0000
,
1000
0000
0000
0000
,
0100
0000
0000
0000
,
1000
0000
1000
0000
,
0001
0000
0001
0000
,
0010
0000
0010
0000
,
0100
0100
0100
0000
,
1001
0000
0001
0000
,
0010
0000
0000
0000
,
1001
0000
1000
0000
,
0010
0000
0000
0000
,
1000
0000
0010
0000
,
0100
0000
0001
0000
,
0010
0000
0100
0000
,
1000
1000
1000
0000
,
0001
0000
0001
0000
,
0010
0000
0010
0000
,
1000
0000
1000
0000
,
0010
0000
0010
0000
,
1000
0000
0100
0000
,
0010
0000
0001
0000
,
0100
0000
0010
0000
,
1000
1000
1000
1000
;

//--------------- dance-single - ----------------
#NOTES:
     dance-single:
     :
     Easy:
     5:
     0,0,0,0,0:
0000
0000
0000
0000
,
0000
0000
0000
0000
,
0000
0000
0000
0000
,
0000
0000
0000
0000
,
0000
0000
0000
0000
,
0000
0000
0000
0000
,
0000
0000
0000
0000
,
1000
0100
1000
0000
,
0001
0100
0001
0000
,
1000
0001
1000
0000
,
0001
1000
0001
1001
,
0000
0000
0000
0000
,
0000
0000
0000
0000
,
0000
0000
0000
0000
,
0000
0000
0000
0000
,
1000
0010
1000
0000
,
0001
0010
0001
0000
,
1000
0001
1000
0000
,
0001
1000
0001
0000
,
0010
0010
0100
0000
,
0100
0100
1000
0000
,
1000
1000
0010
0010
,
0010
0000
0000
0000
0000
0110
0000
0000
,
1001
1000
0100
0010
,
0001
0100
0001
0001
,
1000
1000
0010
1000
,
0100
0010
0001
1000
,
0001
0000
0101
0000
,
1010
0000
1100
0000
,
0010
0010
0100
0100
,
1000
0000
0001
1000
0001
0000
0000
0000
,
0002
0000
0203
0000
,
0320
0000
2030
0000
,
3200
0000
2300
0000
,
3002
0000
0203
0000
,
0302
0000
2003
0000
,
3200
0000
0320
0000
,
0032
0000
2003
0000
,
3010
0000
0100
0110
,
0001
0000
1000
2002
,
3003
0000
0000
0000
,
0000
0000
0000
0000
,
0000
0000
0000
0000
,
0000
0000
0000
0000
,
0000
0000
0000
0000
,
0001
0001
0100
0100
,
1000
1000
0100
0100
,
1000
1000
0010
0010
,
0100
0100
0100
0000
,
1001
0001
0100
0010
,
1000
0100
1000
1000
,
0001
0001
0010
0001
,
0100
0010
1000
0001
,
1000
0000
1100
0000
,
0011
0000
0101
0000
,
0010
0010
0100
0100
,
0001
0000
1000
0001
1000
0000
0000
0000
,
0001
0010
0001
0000
,
1000
0010
1000
0000
,
0001
1000
0001
0000
,
1000
0001
1000
0000
,
0010
0010
0100
0000
,
0100
0100
0001
0000
,
0001
0001
0010
0010
,
0100
0100
0220
0000
,
0330
0000
0000
0000
;

//--------------- dance-single - ----------------
#NOTES:
     dance-single:
     :
     Medium:
     11:
     0,0,0,0,0:
0000
0000
0000
0000
,
0000
0000
0000
0000
,
0000
0000
0000
0000
,
0000
0000
0000
0000
,
0000
0000
0000
0000
,
0000
0000
0000
0000
,
0000
0000
0000
0000
0000
0000
1000
0001
,
0100
0000
0000
0000
0010
0000
0000
0010
0000
0000
0000
0000
0100
0000
0001
0000
,
1000
0000
0000
0000
0100
0000
0000
0100
0000
0000
0020
0000
0230
0000
2300
0000
,
3001
0001
1000
1000
,
0001
0100
0001
0100
0020
1000
1000
0000
,
0030
0000
1000
0000
0001
0000
0000
0000
0010
0000
0000
0010
0000
0000
0100
0000
,
0000
1000
0000
0000
1000
0100
1000
0001
,
0100
0000
0001
0000
1000
0000
0000
0000
0010
0000
0000
0010
0000
0000
0100
0000
,
0000
0200
0000
0001
0301
0000
0001
0010
,
0100
0000
0000
0000
2000
0000
0000
3010
0000
0000
1000
0100
0000
0100
1000
0000
,
0001
0000
0000
0000
2000
0000
0000
3010
0000
0000
2000
0000
3020
0000
0230
0000
,
0301
1000
0100
0000
0100
0010
0001
0000
,
1000
0010
1000
0010
0100
0001
0001
1000
,
0100
0000
1000
0001
0000
0001
0000
0010
0000
0001
1000
0000
0100
0000
0100
0000
,
0010
0000
0001
1000
0000
1000
0000
0010
0000
1000
0001
0000
0020
0000
0000
0000
,
0130
0000
0000
0000
1000
0000
0001
0000
0100
0000
0000
0010
0000
0000
0110
0000
,
0000
0000
0000
0000
0000
1002
0000
0000
,
0013
0001
0100
0010
1000
0100
1000
0001
,
0010
0000
0100
0000
1000
0000
0001
0000
0100
0000
0001
1000
0000
1000
0002
0000
,
0010
0000
0100
0000
0013
0001
0100
0001
,
1000
0000
0100
0000
0010
0000
0001
0000
1000
0000
0010
0100
0000
0100
0010
0000
,
2000
0000
3100
0010
0002
0000
0103
0010
,
2000
0000
0000
0000
3001
0000
0010
0000
0100
1000
0000
1000
0001
0000
1000
0000
,
0010
0000
0000
0010
0000
0000
0100
0000
0001
0000
0000
0001
0000
0000
1000
0000
,
0100
0000
0100
0000
0100
0000
0010
0001
0000
0000
0000
0000
1001
0000
0000
0000
,
1000
0000
1000
0001
0100
0000
0100
0001
,
0010
1000
0010
0001
1000
0010
0200
0000
,
0301
0000
0001
1000
0100
0000
0100
1000
,
0010
0001
0010
1000
0001
0010
0200
0000
,
1300
0000
1000
0100
0010
0000
0010
0001
,
1000
0000
0000
0010
0000
0000
1000
0000
0000
0000
0001
0000
0010
0000
0100
0000
,
1000
0000
0000
1000
0000
0000
1000
0000
0001
0000
0000
0001
0000
0000
0001
0000
,
0100
0000
0101
0000
1000
0000
1010
0000
0000
1001
0000
0000
,
0001
0000
0011
0000
1000
0000
1100
0000
0000
0220
0000
0000
,
0330
0000
0000
0000
,
0001
0001
0100
0100
,
0010
0010
1000
1000
,
0200
0300
0200
0300
0010
0000
0010
0000
,
0001
0001
1000
0010
,
0200
0000
0301
0100
0020
0000
1030
0100
,
0020
0000
0031
1000
0020
0000
0130
0001
,
0010
0000
0000
0010
0000
0000
0010
0000
0100
0000
0000
0100
0000
0000
0100
0000
,
1000
0000
0001
0000
1000
0000
0001
2000
0000
0000
0000
0000
0000
0000
0000
0000
,
3010
1000
0100
0010
0001
0100
0001
1000
,
0100
0000
0010
0000
0100
0000
0001
0000
0100
0000
1000
0001
0000
0001
0200
0000
,
1000
0000
0010
0000
0301
1000
0100
1000
,
0001
0000
0100
0000
0010
0000
1000
0000
0001
0000
0010
0100
0000
0100
1000
0000
,
0002
0000
0103
0010
2000
0000
3100
0010
,
0002
0000
1003
0010
0002
0000
0013
1000
,
0001
0000
0000
0001
0000
0000
1000
0000
0100
0000
0000
0100
0000
0000
0010
0000
,
0001
0000
0001
0000
0001
0000
1000
0020
0000
0000
0130
0000
0001
0000
2000
0000
,
0100
0000
0000
0000
3002
0000
0000
0013
0000
0000
0001
0100
0000
0100
0001
0000
,
1000
0000
0000
0000
0002
0000
0000
0013
0000
0000
0002
0000
0023
0000
0230
0000
,
1300
0001
0100
0000
0100
0010
1000
0000
,
0001
0010
0001
0010
0100
1000
1000
0001
,
0100
0000
0001
1000
0000
1000
0000
0100
0000
1000
0001
0000
0100
0000
0100
0000
,
0010
0000
1000
0001
0000
0001
0000
0010
0000
0001
1000
0000
0020
0000
0000
0000
,
0130
0000
0000
0000
0001
0000
1000
0000
0100
0000
0000
0010
0000
0000
0110
0000
,
0001
0000
1000
0000
0001
0000
1000
0020
0000
0000
0000
0000
0030
0000
0000
0000
;

//--------------- dance-single - ----------------
#NOTES:
     dance-single:
     :
     Hard:
     15:
     0,0,0,0,0:
0000
0000
0000
0000
,
0000
0000
0000
0000
,
0000
0000
0000
0000
,
0000
0000
0000
0000
,
0000
0000
0000
0000
,
0000
0000
0000
0000
,
0000
0000
0000
0000
0000
0000
0000
0000
0000
0000
1000
0000
0010
0100
0001
0000
,
1000
0000
0000
0000
0002
0000
0000
0013
0000
0001
0100
0001
1000
0000
0100
0000
,
1000
0000
0000
0000
0002
0000
0000
0010
0000
0000
2003
0000
3020
0000
0230
0000
,
0300
0001
1000
0000
0100
0010
0000
0010
0001
0000
0001
1000
0000
0010
0000
1000
,
0100
1000
0001
0000
0100
0010
1000
0002
0000
0000
0100
0000
1003
0000
0000
0000
,
1000
0000
0100
0010
0001
0000
0000
0000
0100
0000
0000
0010
0000
0000
1000
0000
,
0000
0000
0001
0000
0000
0000
1000
0000
0100
0010
0000
0010
0100
1000
0000
1000
,
0001
0000
0100
0010
1000
0000
0000
0000
0001
0000
0000
0010
0000
0000
0100
0000
,
0000
0000
1000
0000
0000
0000
0001
0000
1001
0000
0000
0000
1000
0010
0100
0000
,
0001
0000
0000
0000
2001
0000
0000
3010
0000
1000
0100
0010
0000
0001
1000
0001
,
0100
0010
0000
0000
1002
0000
0000
0013
0000
0000
0010
0000
0100
1000
0002
0000
,
0000
0103
0010
0000
0010
1000
0000
1000
0001
0000
0001
0010
0000
0001
1000
0100
,
1000
0100
0020
0000
0031
0100
0010
1000
0000
0100
0010
0000
0110
0000
1001
0000
,
0001
0000
1000
0010
0000
0100
0000
1000
0000
0100
0001
0000
0010
0000
0001
0000
,
1000
0000
0001
0010
0000
0100
0000
0001
0000
0100
1000
0001
0100
0000
0010
0000
,
1001
0000
0000
0000
1000
0000
0100
0000
1100
0000
0000
0101
0000
0000
0110
0000
,
0000
0000
0000
0000
0001
2000
0000
0000
,
3010
0000
1000
0100
1000
0000
0001
0100
0010
0000
1000
0001
0000
0001
0010
0000
,
0100
0000
0001
0000
0100
0000
1000
0001
0100
0000
0010
1000
0000
1000
0100
0000
,
1100
0000
0000
0000
0011
0000
0000
0000
1010
0000
0010
0100
0000
0100
0001
0000
,
1000
0000
0010
0000
0001
0000
0010
0000
1000
0000
0100
1000
0000
1000
0001
0000
,
0020
0000
0000
0031
0100
0010
1000
0002
0000
0000
0000
1003
0100
0010
0001
2000
,
0000
0000
3010
0000
0100
0000
0001
1000
0000
1000
0100
0000
0010
0000
0001
0000
,
0100
0000
0000
0101
0000
0000
0001
0010
0100
0000
0000
0110
0000
0000
0100
0000
,
1100
0000
0101
0000
1001
0000
1000
0020
0000
0000
0000
0000
0130
0000
0000
0000
,
1001
0000
0000
0001
0100
0000
0010
0000
1000
0000
0000
1000
0100
0000
0010
0000
,
0001
0000
0100
0000
1000
0000
0100
0000
0001
0010
0000
0100
1000
0000
0001
0100
,
0010
0000
0000
0010
1000
0000
0100
0000
0010
0000
0000
0010
0001
0000
0100
0000
,
0001
0000
0010
0000
1000
0010
0000
0010
0001
1000
0010
0100
0001
0000
1000
0000
,
0001
0100
1000
0100
0001
1000
0100
0001
,
0100
1000
0010
0001
0010
1000
0001
0010
,
2000
3002
0203
2300
3002
0203
2300
3200
,
0310
0000
0000
0000
0100
0000
0000
0000
0110
0000
0000
0000
0000
0000
0000
0000
0001
0000
0000
0000
1000
0000
0000
0000
1001
0000
0000
0000
0000
0000
0001
0000
0010
0000
0100
0000
1000
0000
0000
0000
0000
0000
0010
0000
0000
0100
0000
0000
,
0001
0000
0000
0000
0010
0000
0000
0000
0011
0000
0000
0000
0000
0000
0000
0000
1000
0000
0000
0000
0100
0000
0000
0000
1100
0000
0000
0000
0000
0000
0001
0000
0000
1000
0000
0000
0001
0000
0000
1000
0000
0000
0010
0000
0000
0100
0000
0000
,
0000
0000
0000
0000
,
1001
0001
0100
0010
,
1000
0000
0000
0000
0100
0000
0000
0000
0010
0000
0001
1000
0000
1000
0010
0000
,
0100
0000
0000
0000
0100
0000
0000
0000
0001
0000
1000
0100
0000
0000
2000
0000
,
0000
0000
3002
0000
0000
0000
0103
0000
0010
0000
1000
0001
0000
0001
0010
0000
,
0200
0000
0000
1300
0100
0010
0001
2000
0000
0000
0000
3001
0100
0010
1000
0002
,
0000
0000
0013
0000
0100
0000
1000
0001
0000
0001
0100
0000
0010
0000
1000
0000
,
0001
0000
0000
0001
0000
0000
1000
0010
0100
0000
0000
0100
0000
0000
0001
0000
,
0010
0000
0110
0000
1001
0000
0001
0100
0000
0000
0020
0000
0000
0000
0000
0000
,
1030
0000
0100
0010
0001
0000
1000
0010
1000
0000
0001
0010
0000
0010
0100
0000
,
1000
0000
0010
0000
0100
0000
1000
0100
0001
0000
1000
0100
0000
0100
0010
0000
,
0110
0000
0000
0000
1001
0000
0000
0000
0011
0000
0010
0100
0000
0100
1000
0000
,
0001
0000
0010
0000
1000
0000
0010
0001
0100
0000
0010
1000
0000
1000
0100
0000
,
0020
0000
0000
0031
0100
0010
1000
0002
0000
0000
0000
1003
0100
0010
0001
2000
,
0000
0000
0000
3001
0100
0010
0100
2000
0000
0000
3100
0000
0001
0000
1000
0000
,
0100
0000
0000
1100
0000
0000
0001
0010
0100
0000
0000
0110
0000
0000
0100
0000
,
1100
0000
0101
0000
1001
0000
0001
0020
0000
0000
0130
0000
1000
0001
0100
0000
,
0010
0000
1000
0000
0002
0000
0013
0100
0000
1000
0001
0100
0001
1000
0100
1000
,
0001
0100
0000
0100
0002
0000
0013
0100
0000
0000
2000
0000
3010
0100
0002
0000
,
0003
1000
0100
0000
1000
0001
0000
0001
0100
0000
0100
0010
0000
1000
0001
0100
,
0001
1000
0100
0000
0010
0001
1000
0100
0000
1000
0010
1000
0001
0010
0100
1000
,
0001
0000
1000
0010
0000
0001
0000
0010
0000
1000
0100
0000
0010
0000
0001
0000
,
0100
0000
0001
0010
0000
1000
0000
0010
0000
0001
1000
0010
0100
0000
0001
0000
,
0101
0000
0000
0000
1100
0000
0100
0010
0001
0000
0001
1000
0000
1000
0010
0000
,
1010
0000
0101
0000
1100
0000
0001
0020
0000
0000
0000
0000
0130
0000
0000
0000
;
