#TITLE:Milk Crown on Sonnetica;
#SUBTITLE:[Bumble Edit];
#ARTIST:Nameless;
#TITLETRANSLIT:;
#SUBTITLETRANSLIT:;
#ARTISTTRANSLIT:;
#GENRE:;
#CREDIT:Bumble;
#BANNER:Milk Crown bg.jpg;
#BACKGROUND:Milk Crown BG.png;
#LYRICSPATH:;
#CDTITLE:cdtitle.png;
#MUSIC:Milk Crown.ogg;
#OFFSET:0.000000;
#SAMPLESTART:56.444000;
#SAMPLELENGTH:13.280000;
#SELECTABLE:YES;
#BPMS:0.000000=254.920013
;
#STOPS:
;
#BGCHANGES:;
#KEYSOUNDS:;
#ATTACKS:;

//---------------dance-single - ----------------
#NOTES:
     dance-single:
     :
     Hard:
     15:
     0.701119,0.881511,0.175280,0.284830,0.000000,672.000000,648.000000,24.000000,39.000000,0.000000,0.000000,0.701119,0.881511,0.175280,0.284830,0.000000,672.000000,648.000000,24.000000,39.000000,0.000000,0.000000:
0000
0000
0000
0000
,
0000
0000
0000
0000
,
0000
0000
0000
0000
,
0000
0000
0000
0000
,
0000
0000
0000
0000
,
0000
0000
0000
0000
,
0000
0000
0000
0000
,
0000
0000
0000
0000
,
2000
3100
0200
0310
,
0020
0031
0002
1003
,
1000
0001
0001
0100
,
0100
0010
1000
0100
,
1000
0100
1000
0001
0100
0000
0001
0000
,
0001
0010
0001
1000
0100
0000
1000
0000
,
0010
0100
0001
1000
,
0010
1000
0010
0100
0002
0000
0010
0000
,
2003
0100
3002
0100
,
2003
0010
3002
0010
,
2003
0001
0100
3002
,
1000
0010
2003
0010
,
3001
1000
0100
1000
0001
0100
0001
0000
,
0001
1000
0010
0100
0010
1000
0100
0000
,
1000
0001
0000
0001
0000
0001
0000
0001
,
1000
0000
0000
0000
0000
1000
0000
0010
,
1000
0000
0001
0000
1000
0100
0010
0000
,
0001
0000
0100
0000
0001
1000
0100
0000
,
1000
0010
1000
0001
0100
0000
0001
0010
,
0000
0000
0001
0000
0000
0001
0100
0001
,
1000
0000
1000
0000
0001
0010
0001
1000
,
0100
0000
0100
0000
1000
0100
1000
0001
,
0100
0000
0100
0001
1000
0000
1000
0002
,
0000
0000
0013
0000
0000
0001
0010
0100
,
1000
0000
0010
0000
1000
0001
1000
0000
,
1000
0001
1000
0100
0000
0100
1000
0001
,
1000
0010
0100
0000
0100
0010
0100
0020
,
0000
0000
1030
0000
0000
1000
0001
0100
,
0001
1000
0100
0000
1000
0100
0010
0000
,
0001
0010
0100
1000
0001
0000
0001
1000
,
0010
0000
0010
0100
0001
0100
0010
1000
,
0000
1000
0000
0000
1000
0000
0000
0000
,
0001
1000
0002
0000
0103
0000
0001
0010
,
0000
0010
0001
0000
1000
0000
0010
0000
,
1000
0001
2000
0000
3100
0000
1000
0010
,
0000
0010
0100
0000
0001
0000
1000
0000
,
0001
1000
0002
0000
0013
0000
0001
0010
,
0000
0010
0100
0000
1000
0000
0010
0000
,
1000
0001
0010
0001
0100
0010
1000
0100
,
0000
1000
0001
1000
0001
0000
0100
0000
,
0001
0000
1000
0100
1000
0100
0000
0010
,
0000
0010
0100
0010
0100
0000
1000
0000
,
0010
0000
1000
0100
0010
0000
0010
0001
,
1000
0010
0100
0001
1000
0000
0010
0000
,
1000
0100
0010
0000
0100
0010
0001
0000
,
0001
1000
0010
0000
1000
0001
0010
0001
,
1000
0000
0010
0100
0010
0000
0100
0001
,
0100
0000
0001
0010
0001
0000
0010
0001
,
0100
0101
0001
1001
,
1000
1010
0010
0110
,
1001
0000
0001
1000
0000
1000
0000
0002
,
0100
2003
0100
3001
,
1000
0000
0010
0000
1000
0010
1000
0000
,
0001
0001
0010
0010
,
0001
0010
0100
1000
,
0001
0000
0000
0001
0200
0000
0300
0000
,
0010
1000
0010
0100
0000
0101
0000
0001
,
0010
0001
1000
0100
0000
1100
0000
0100
,
1000
0010
0100
0001
0000
0001
0000
1000
,
0010
0000
0100
0000
0001
0010
0001
0000
,
1000
1100
0001
0101
,
1000
0000
0100
0010
0001
0000
1001
0000
,
0001
0000
1000
0010
0100
0000
0101
0000
,
0002
0100
1000
0100
,
1003
0000
0001
1000
0010
0000
1000
0010
,
1000
0001
0010
0000
0001
0000
0100
0000
,
0001
0100
0010
1000
0100
1000
0001
0010
,
0001
0100
0010
1000
0010
0000
1000
0100
,
1000
0100
0010
0001
0100
0001
1000
0000
,
0100
0000
1000
0100
1000
0001
0100
0001
,
0010
0100
1000
0001
0100
0010
0100
0000
,
0001
0100
0001
0010
0100
1000
0001
0000
,
1000
0000
1001
0000
1000
0000
0010
0100
,
0010
0100
0001
0000
1000
0000
0100
0000
,
1000
0000
0100
0010
0100
0010
0001
0000
,
1000
0000
0010
0000
1000
0010
0100
0001
,
0010
0100
0010
0001
1000
0100
0010
0001
,
1000
0010
1000
0100
1000
0001
0000
0001
,
0000
0001
0100
0000
0000
0000
0001
0000
,
1000
0002
0000
0000
,
0000
0000
0000
1003
,
0000
2000
0000
0000
,
0000
0000
0000
3001
,
0000
0002
0000
0000
,
0000
0023
0000
0000
,
0000
0230
0000
0000
,
0000
2300
0000
0000
,
0000
3020
0000
0000
,
0000
0000
0000
0130
,
0000
0200
0000
0000
,
0000
0302
0000
0000
,
0000
2003
0001
0001
,
0001
3002
0100
0100
,
0100
0203
0010
0010
,
0310
1010
0000
1001
,
0000
0000
0001
1000
0100
1000
0001
0000
,
0001
0100
0001
0000
0010
0000
0010
0000
,
0001
1000
0001
0000
1000
0000
1000
0000
,
0001
0100
0001
0000
1000
0000
0010
0000
,
0000
0000
1000
0100
1000
0001
0100
0000
,
0001
0010
0100
1000
,
0010
0000
0100
0000
0010
0100
0001
0000
,
1000
0001
0100
0001
1000
0000
0010
0000
,
0000
0000
1000
0000
0010
0100
0001
1000
,
0001
0010
0100
0010
0000
0010
0000
0100
,
1000
0010
0100
0001
1000
0001
0000
0001
,
0000
0001
0100
0000
0010
0000
0110
0000
,
0000
0000
1000
0001
0100
0001
1000
0000
,
1000
0100
0010
0000
0001
1000
0010
0000
,
0100
0000
0001
0000
0001
0000
0010
0001
,
1000
2002
0000
0000
,
0000
0000
0000
3003
,
0000
1000
1010
0010
,
0110
0100
0101
0001
,
0011
0010
0110
0010
,
0100
0000
1000
0000
0000
1000
0010
0000
,
0000
0000
1000
0001
0100
0001
0000
0010
,
0000
0010
0001
1000
0001
0100
0000
0010
,
0000
0010
1000
0001
0010
0001
0000
0100
,
0000
0010
0100
0000
0010
0000
1000
0000
,
0100
0000
1000
0100
1000
0100
0010
0001
,
0100
0010
1000
0010
0100
0001
0010
0001
,
0010
0100
1000
0010
0100
0001
0010
0001
,
1000
0001
0100
0010
1000
0100
1000
0000
,
0001
0100
0002
0000
1000
0000
0203
0000
,
0010
0302
0010
1003
,
0001
0010
0200
0000
1000
0000
0310
0000
,
0010
0100
1000
0001
,
0010
0001
1000
0001
0010
0001
1000
0001
,
0010
0001
1000
0100
1000
0001
1000
0100
,
1000
0001
1000
0100
1000
0001
0000
0101
,
0000
1000
0000
1001
0000
0001
0010
0000
,
0000
0001
0001
0100
,
0100
0000
0010
0000
0000
1000
0000
0000
,
1001
0000
0000
0000
;

//---------------dance-single - ----------------
#NOTES:
     dance-single:
     :
     Medium:
     13:
     0.550879,0.725950,0.029213,0.270223,0.000000,528.000000,524.000000,4.000000,37.000000,0.000000,0.000000,0.550879,0.725950,0.029213,0.270223,0.000000,528.000000,524.000000,4.000000,37.000000,0.000000,0.000000:
0000
0000
0000
0000
,
0000
0000
0000
0000
,
0000
0000
0000
0000
,
0000
0000
0000
0000
,
0000
0000
0000
0000
,
0000
0000
0000
0000
,
0000
0000
0000
0000
,
0000
0000
0000
0000
,
1000
0100
1000
1000
,
0001
0010
0001
0001
,
1000
0001
0100
0010
,
0010
1000
0001
1000
,
0001
1000
0001
1000
0100
0000
1000
0000
,
0001
0010
0001
0010
0100
0000
1000
0000
,
1000
0100
1000
0001
,
0100
0001
0100
0001
1000
0000
0001
0000
,
1000
0000
0100
0000
0020
0000
0000
0030
,
0010
0000
0001
0000
0200
0000
0000
0300
,
0100
0000
0001
0000
2000
0000
0000
3000
,
1000
0000
0010
0000
0200
0000
0000
0300
,
0100
0001
1000
1000
,
0010
0100
0001
0010
,
0100
1000
0000
0001
0000
1000
0000
0001
,
0100
0000
0000
0000
0000
0001
0000
0001
,
1000
0001
1000
1000
,
0001
0100
0001
0001
,
1000
0000
0001
0000
0001
0000
0001
0020
,
0000
0000
0130
0000
0000
1000
0001
1000
,
0001
0000
1000
0000
0001
0000
1000
0010
,
1000
0000
0010
0000
1000
0000
0001
0100
,
0001
0000
0010
0000
0001
0000
0001
2000
,
0000
0000
3010
0000
0000
1000
0010
1000
,
0001
0000
0010
0000
0001
1000
0001
0000
,
1000
0001
0100
0010
0000
0010
1000
0000
,
0001
0000
0010
0000
0001
0000
0001
2000
,
0000
0000
3100
0000
0000
1000
0100
1000
,
0001
0000
0100
0000
0001
0010
0001
0000
,
0001
0000
0100
0000
0010
0000
1000
0010
,
1000
0000
0100
0010
0100
0000
0010
0001
,
0000
0001
0000
0000
1001
0000
0000
0000
,
0001
0000
1000
0000
0100
0000
0010
0001
,
0000
0001
0010
0000
0100
0000
1000
0000
,
0001
0000
0100
0000
0010
0000
1000
0010
,
0000
0010
0100
0000
0001
0000
1000
0000
,
0001
0000
0010
0000
0001
0000
1000
0100
,
0000
0100
1000
0000
0001
0000
0010
0000
,
0001
1000
0001
0100
,
0010
0100
0001
1000
,
2000
0000
0010
3000
0010
1000
0000
1001
,
0000
1000
0001
0100
,
0002
0100
0103
0001
,
1000
0000
0100
1000
0001
0000
0001
0000
,
1000
1000
0100
0100
,
0010
0010
0001
0001
,
1000
0000
0001
0100
0001
0000
0100
0001
,
0100
0010
0010
1000
,
1000
0001
1000
0100
,
0100
0010
0010
0001
,
1000
0000
0000
0000
,
1000
0001
0100
0001
,
1000
1000
0001
0001
,
1000
0010
1000
1000
,
0001
0010
0001
0100
,
0001
0000
0000
0001
2000
0000
0000
0000
,
3010
0000
0010
1000
0000
1000
0000
0001
,
0010
0000
0010
0100
0000
0100
0000
1000
,
0001
0000
1000
0001
0000
0100
0000
0001
,
0010
0100
1000
0001
,
1000
0100
0010
0001
,
1000
0100
1000
0001
,
0100
0001
1000
0001
,
2000
0010
3020
1000
,
1030
0000
1000
0100
1000
0000
0001
0010
,
0001
1000
0001
0000
0100
0000
0100
0000
,
0001
0010
0001
1000
,
0100
0010
0100
0100
,
1000
0010
0100
0001
,
1000
1000
0001
0100
,
0010
0100
0001
1000
,
1000
0001
0010
0100
,
0010
0001
0001
0100
,
0010
0100
0001
1000
,
1000
0100
1000
0001
,
0010
0001
0001
1000
,
0001
0010
0001
1000
,
0001
0000
0001
0000
1000
0001
0000
0010
,
0000
0001
0010
0000
0000
0000
0001
0000
,
1000
0002
0000
0000
,
0000
0000
0000
1003
,
0000
2000
0000
0000
,
0000
0000
0000
3001
,
0000
0002
0000
0000
,
0000
0023
0000
0000
,
0000
0230
0000
0000
,
0000
2300
0000
0000
,
0000
3020
0000
0000
,
0000
0000
0000
0130
,
0000
0200
0000
0000
,
0000
0302
0000
0000
,
0000
2003
0000
0001
,
0000
3002
0000
0100
,
0000
2003
0000
0100
,
0000
3000
0001
0000
0000
0000
1001
0000
,
0000
0001
1000
0100
,
1000
0100
1000
0000
0010
0000
0010
0000
,
1000
0001
1000
0000
0001
0000
0001
0000
,
0010
0100
0010
0000
0001
0000
0001
0000
,
0000
1000
0100
0010
,
0001
0010
0100
1000
,
0010
0000
0100
0000
0001
0100
0001
0000
,
1000
0010
1000
0010
1000
0000
0001
0000
,
0000
0000
1000
0000
1000
0001
0000
0100
,
0000
0001
0010
0001
0000
1000
0000
0100
,
1000
0001
1000
0001
1000
0100
0000
1000
,
0000
0001
0100
0000
0100
0000
0010
0000
,
0000
1000
0100
1000
,
0001
0000
0010
0000
0001
1000
0001
0000
,
0100
0000
0001
0000
0010
0000
0010
0001
,
2000
0002
0000
0000
,
0000
0000
0000
3003
,
0000
2000
3010
0020
,
0130
0200
0301
0002
,
0013
0020
0130
0200
,
1300
0000
1000
0000
0000
1000
0200
0000
,
0000
0300
1000
0000
0001
0010
0000
0001
,
0000
1000
0001
0000
1000
0010
0000
0100
,
0000
0001
1000
0100
1000
0100
0000
1000
,
0000
0001
0010
0000
0001
0000
1000
0000
,
0001
1000
1000
0010
,
0100
0001
1000
0100
,
0100
0010
0001
1000
,
0001
0010
0001
0100
,
0001
1000
0001
0000
2000
0000
3100
0000
,
0200
0310
0020
0031
,
0002
1003
1000
0001
,
0010
0100
1000
0001
,
0100
0001
1000
0001
1000
0000
0001
0100
,
0001
0000
1000
0100
1000
0000
0001
0010
,
0001
0000
1000
0000
1000
0001
0000
0010
,
0000
0001
0000
0100
0000
0100
0001
0000
,
0000
1000
1000
0001
,
0001
0000
0010
0000
0000
0100
0000
0000
,
0110
0000
0000
0000
;

//---------------dance-single - ----------------
#NOTES:
     dance-single:
     :
     Easy:
     11:
     0.437156,0.518536,0.029213,0.335953,0.000000,419.000000,415.000000,4.000000,46.000000,0.000000,0.000000,0.437156,0.518536,0.029213,0.335953,0.000000,419.000000,415.000000,4.000000,46.000000,0.000000,0.000000:
0000
0000
0000
0000
,
0000
0000
0000
0000
,
0000
0000
0000
0000
,
0000
0000
0000
0000
,
0000
0000
0000
0000
,
0000
0000
0000
0000
,
0000
0000
0000
0000
,
0000
0000
0000
0000
,
1000
0000
1000
0000
,
0001
0000
0001
0000
,
0010
0001
0010
0000
,
0001
1000
0001
0100
,
0040
0000
0030
0000
,
4000
0000
3000
0000
,
1000
0100
1000
0000
,
0001
0100
0010
0000
,
1000
0100
0020
0000
,
0130
0010
0002
0000
,
0103
0000
0001
0000
2000
0000
0000
3000
,
0001
0000
0000
0000
0020
0000
0000
0030
,
0001
0100
0010
1000
,
0100
1000
0100
0010
,
0001
0000
0000
0000
,
1001
0000
0000
0000
,
1000
0001
1000
0000
,
0001
0100
0001
0000
,
1000
0000
0001
0000
0100
0000
0010
0200
,
0000
0310
0000
1000
,
0001
1000
0100
0000
,
1000
0100
0010
0000
,
0001
0000
0001
0000
0100
0000
0100
0002
,
0000
1003
0000
1000
,
0001
0010
0001
0000
,
0001
1000
0010
0000
,
1000
0000
1000
0000
0001
0000
0001
2000
,
0000
3100
0000
1000
,
0001
0100
0010
0000
,
1000
0001
0010
0000
,
0001
0000
0100
0000
0001
0000
1000
0100
,
0000
2000
0000
0000
3001
0000
0000
0000
,
1000
0000
0100
0000
0010
0000
0000
0020
,
0000
0130
1000
0001
,
1000
0000
0010
0000
0100
0000
0000
0200
,
0000
0310
1000
0010
,
0100
0000
0010
0000
1000
0000
0000
0200
,
0000
0310
0001
0010
,
0001
0001
0100
0001
,
1000
0001
1000
0100
,
1000
0000
0010
0000
0010
1000
0000
1000
,
0000
0000
1000
0001
,
0010
0001
1000
0001
,
0100
0001
0010
0001
,
1000
1000
0200
0000
,
0310
0010
0002
0000
,
1003
0001
0200
0001
,
0301
0001
1000
0100
,
1000
0001
1000
0001
,
0010
0001
1000
0001
,
0100
0000
0000
0000
,
0001
1000
0100
1000
,
0001
0001
2000
0000
,
3001
0001
0020
0000
,
0130
1000
0001
0100
,
0001
0000
0000
0001
2000
0000
3000
0000
,
1000
0001
0010
0000
,
0001
0100
0001
0000
,
1000
0100
1000
1000
,
0001
0100
0001
1000
,
0010
0000
1000
0000
0002
0000
0000
0003
,
1000
0000
0100
0000
2000
0000
0000
3000
,
0010
0100
0001
0010
,
0002
0000
1003
1000
,
0001
0100
0001
0010
,
0100
1000
0010
0100
,
0001
0010
0001
1000
,
0100
0010
0100
0100
,
1000
0010
0100
0001
,
1000
1000
0001
0100
,
0010
0100
0001
1000
,
1000
0001
0010
0100
,
0010
0001
0001
0100
,
0010
0100
0001
1000
,
1000
0100
1000
0001
,
0010
0001
0001
1000
,
0001
0100
0001
1000
,
0001
0001
0010
0100
,
1000
1001
0000
0001
,
1000
0002
0000
0000
,
0000
0000
0000
1003
,
0000
2000
0000
0000
,
0000
0000
0000
3001
,
0000
0002
0000
0000
,
0000
0023
0000
0000
,
0000
0230
0000
0000
,
0000
2300
0000
0000
,
0000
3020
0000
0000
,
0000
0000
0000
0130
,
0000
0200
0000
0000
,
0000
0302
0000
0000
,
0000
2003
0000
0001
,
0000
3002
0000
0100
,
0000
2003
0000
0100
,
0000
3000
0001
0000
0000
0000
1001
0000
,
0000
0001
1000
0001
,
0000
1000
0010
0010
,
0000
1000
0001
0100
,
0000
0010
1000
1000
,
0000
1000
0100
1000
,
0000
0001
0010
0001
,
1000
1000
0001
0100
,
0001
0010
0100
1000
,
0000
1000
0010
0100
,
0001
1000
1000
0001
,
0000
0001
1000
0010
,
1000
0001
0100
0001
,
0000
1000
0100
1000
,
0001
0010
0001
0100
,
0100
0000
0001
0000
0001
0000
1000
0001
,
2000
0002
0000
0000
,
0000
0000
0000
3003
,
0000
1000
0010
0020
,
0000
0130
0100
0002
,
0000
0013
0100
0010
,
0001
0000
1000
0000
0000
1000
0200
0000
,
0000
0300
1000
0000
0001
0000
0020
0000
,
0000
0031
0010
0200
,
0000
1300
0100
1000
,
1000
0001
0010
0001
,
1000
0010
0010
0200
,
0000
0301
0001
2000
,
0000
3001
0010
0001
,
0010
0200
1000
1300
,
0001
0010
0001
2000
,
0010
3010
0000
1000
,
0002
1003
1000
0001
,
1000
0200
0000
1300
,
0001
0001
0100
0001
,
1000
0100
2000
0001
,
3001
0000
1000
0000
0100
1000
0000
0001
,
0000
1000
0000
0001
0000
1000
0001
0000
,
0000
1000
1000
0001
,
0001
0000
0010
0000
0000
0100
0000
0000
,
0110
0000
0000
0000
;

//---------------dance-single - JA XOLA DS SJ-BR-----------------
#NOTES:
     dance-single:
     :
     Challenge:
     17:
     0.763719,0.881511,0.255616,0.314043,0.000000,732.000000,697.000000,35.000000,43.000000,0.000000,1.000000,0.763719,0.881511,0.255616,0.314043,0.000000,732.000000,697.000000,35.000000,43.000000,0.000000,1.000000:
// measure 0
0000
0000
0000
0000
,  // measure 1
0000
0000
0000
0000
,  // measure 2
0000
0000
0000
0000
,  // measure 3
0000
0000
0000
0000
,  // measure 4
0000
0000
0000
0000
,  // measure 5
0000
0000
0000
0000
,  // measure 6
0000
0000
0000
0000
,  // measure 7
0000
0000
0000
0000
,  // measure 8
1000
1100
0100
0110
,  // measure 9
0010
0011
0001
1001
,  // measure 10
0002
0100
2003
0100
,  // measure 11
3020
0100
2030
3001
,  // measure 12
1000
0100
1000
0001
0100
0000
0001
0000
,  // measure 13
0001
0010
0001
1000
0100
0000
1000
0000
,  // measure 14
0100
0010
0001
1000
,  // measure 15
0010
1000
0010
0100
0001
0000
1000
0000
,  // measure 16
2001
0100
3002
0100
,  // measure 17
2003
0010
3002
0010
,  // measure 18
2003
0001
0100
3002
,  // measure 19
1000
0010
2003
0010
,  // measure 20
3001
1000
0100
1000
0001
0100
0001
1000
,  // measure 21
0100
1000
0010
0100
0010
1000
0001
0100
,  // measure 22
0001
1000
0000
1000
0000
1000
0000
1000
,  // measure 23
0101
0000
0000
0000
0000
1000
0000
0010
,  // measure 24
1000
1000
0001
0100
0001
0001
0010
0001
,  // measure 25
1000
1000
0001
0100
0010
1000
0001
0010
,  // measure 26
0100
0100
1000
0001
0010
0000
0010
0001
,  // measure 27
0000
0000
1001
0000
0000
1000
0001
0001
,  // measure 28
0100
0000
0001
0000
1000
1000
0001
0100
,  // measure 29
0001
0001
0010
0000
0010
0100
1000
1000
,  // measure 30
0100
0010
0001
0100
0010
0000
0010
0200
,  // measure 31
0000
0000
0301
0000
0000
0001
1000
0001
,  // measure 32
0100
0100
0010
0100
0001
0001
0010
0100
,  // measure 33
1000
0001
1000
0010
0000
0010
1000
0100
,  // measure 34
1000
0100
0010
0001
0100
0001
1000
0200
,  // measure 35
0000
0000
1300
0000
0000
0001
1000
0100
,  // measure 36
1000
1000
0001
0010
0001
0001
0100
0010
,  // measure 37
1000
1000
0001
0000
0001
0000
0010
0100
,  // measure 38
0010
0000
0100
0001
0100
0010
0001
0100
,  // measure 39
0000
0001
0000
0000
1001
0000
0000
0000
,  // measure 40
0001
0100
0010
0100
1000
0100
0001
0010
,  // measure 41
0000
0010
0001
0000
1000
0000
0010
0000
,  // measure 42
1000
0100
0010
0100
0001
0100
1000
0010
,  // measure 43
0000
0010
1000
0000
0001
0000
1000
0000
,  // measure 44
0001
1000
0010
0100
0010
0001
1000
0100
,  // measure 45
0000
0100
0001
0000
1000
0000
0001
0000
,  // measure 46
0010
0001
0010
0100
1000
0010
0100
0001
,  // measure 47
0000
0001
1000
0001
0010
0000
0100
0000
,  // measure 48
0010
1000
0010
0100
0010
0001
0100
1000
,  // measure 49
0000
1000
0100
0001
1000
0000
0010
0000
,  // measure 50
0100
0000
1000
0100
0001
0000
0001
0010
,  // measure 51
0100
0001
1000
0001
0100
0000
0100
0000
,  // measure 52
1000
0100
0010
0000
0100
0010
0001
0000
,  // measure 53
0001
1000
0010
0000
1000
0001
0010
0001
,  // measure 54
1000
0000
0010
0100
0010
0000
0100
0001
,  // measure 55
0100
0000
0001
0010
0001
0000
0010
0001
,  // measure 56
0100
0101
1000
1100
,  // measure 57
0010
0110
0001
0110
,  // measure 58
1001
0000
1000
0001
0000
0001
0000
1000
,  // measure 59
0100
0110
0010
1001
,  // measure 60
0001
0010
0001
0100
0001
1000
0100
1000
,  // measure 61
0001
1000
0100
0010
0001
1000
0010
0100
,  // measure 62
0001
0100
0010
1000
0001
0010
0001
0010
,  // measure 63
0100
0000
0000
0100
2000
0000
0000
0000
,  // measure 64
3010
1000
0010
0100
0000
0101
0000
0001
,  // measure 65
0010
0001
1000
0100
0000
1100
0000
0100
,  // measure 66
1000
0001
0100
0010
0000
0010
0000
1000
,  // measure 67
0100
0000
0010
0000
0001
0010
0100
0000
,  // measure 68
1000
1100
0001
0101
,  // measure 69
1000
0000
0100
0010
0001
0000
1001
0000
,  // measure 70
0001
0000
1000
0010
1000
0000
1010
0000
,  // measure 71
2000
0010
0001
3010
,  // measure 72
1001
0000
0001
1000
0010
0000
1000
0010
,  // measure 73
1000
0001
0010
0000
0001
0000
0100
0000
,  // measure 74
0001
0010
0100
0010
1000
0010
0100
0010
,  // measure 75
0001
0100
0010
1000
0010
0000
1000
0001
,  // measure 76
1000
0001
0010
0001
1000
0000
0100
0000
,  // measure 77
1100
0000
1000
0010
0100
0010
0001
0010
,  // measure 78
1000
0010
0100
0001
0100
0010
1000
0000
,  // measure 79
0001
0010
0001
1000
0100
1000
0001
0000
,  // measure 80
0010
0000
0011
0000
0001
0000
1000
0100
,  // measure 81
0010
0100
0002
0000
2003
0000
3020
0000
,  // measure 82
0031
0000
1000
0010
0100
0010
0002
0000
,  // measure 83
2003
0000
3200
0000
1300
0100
1000
0100
,  // measure 84
0010
0001
0010
0100
0001
0010
0100
1000
,  // measure 85
0010
1000
0100
1000
0001
1000
0000
1000
,  // measure 86
0000
1000
0011
0000
0000
0000
1000
0000
,  // measure 87
0100
2000
0000
0000
,  // measure 88
0000
0000
0000
3001
,  // measure 89
0000
0002
0000
0000
,  // measure 90
0000
0000
0000
1003
,  // measure 91
0000
2000
0000
0000
,  // measure 92
0000
3200
0000
0000
,  // measure 93
0000
0320
0000
0000
,  // measure 94
0000
0032
0000
0000
,  // measure 95
0000
0203
0000
0000
,  // measure 96
0000
0000
0000
0310
,  // measure 97
0000
0020
0000
0000
,  // measure 98
0000
2030
0000
0000
,  // measure 99
0000
3000
0002
0000
1000
0000
1000
0000
,  // measure 100
1000
2003
0100
0100
,  // measure 101
0100
3200
0010
0010
,  // measure 102
0310
0110
0000
1001
,  // measure 103
0000
0000
1000
1000
0010
0100
0001
0000
,  // measure 104
0001
0100
0002
0000
0010
0000
1003
0000
,  // measure 105
0001
0100
0010
0000
0100
0000
0001
0000
,  // measure 106
1000
0100
2000
0000
0010
0000
3001
0000
,  // measure 107
0000
0000
1000
0001
0100
0001
1000
0000
,  // measure 108
0001
0010
0010
0001
,  // measure 109
1000
0000
0001
0000
0010
0100
1000
0000
,  // measure 110
1000
0001
0100
0001
1000
0000
0001
0000
,  // measure 111
0000
0000
1000
0000
0001
0100
0001
1000
,  // measure 112
0100
0010
0001
0001
0000
1000
0000
1000
,  // measure 113
0010
0010
0100
0001
1000
0001
0000
0100
,  // measure 114
0000
0010
1000
0000
0001
0000
1001
0000
,  // measure 115
0000
0000
1000
1000
0001
0010
0001
0001
,  // measure 116
0010
0001
1000
0000
0100
0000
0110
0000
,  // measure 117
0100
0000
1000
0000
0001
0000
0100
0010
,  // measure 118
1000
2002
0000
0000
,  // measure 119
0000
0200
0000
3303
,  // measure 120
0000
0000
1000
0100
1000
0100
0010
0001
,  // measure 121
0010
0001
1000
0010
0100
0001
0010
0100
,  // measure 122
1000
0010
0100
0001
1000
0100
1000
0001
,  // measure 123
0010
0001
1000
0000
0000
1000
0002
0000
,  // measure 124
0000
0003
1000
0001
0100
0001
0000
0011
,  // measure 125
0000
0010
0001
1000
0001
0100
0000
0110
,  // measure 126
0000
0010
1000
0001
0010
0001
0000
1000
,  // measure 127
0000
0001
0010
0000
0001
0000
1000
0100
,  // measure 128
1000
0000
0001
0100
0001
0100
0010
1000
,  // measure 129
0100
0010
0001
0010
0001
1000
0010
0100
,  // measure 130
0001
0010
0001
1000
0001
0010
0001
0100
,  // measure 131
0010
1000
0010
0100
0001
1000
0100
0000
,  // measure 132
1000
0010
2000
0000
0001
0000
3200
0000
,  // measure 133
0010
0320
0001
0130
,  // measure 134
0100
1000
0001
0000
1000
0000
0001
0010
,  // measure 135
0001
1000
0100
0000
1000
0000
0010
0000
,  // measure 136
1000
0001
0010
0001
0100
0001
0010
0001
,  // measure 137
0100
0010
1000
0100
1000
0010
1000
0100
,  // measure 138
1000
0010
0100
0001
0010
0001
0000
1001
,  // measure 139
0000
0001
0000
0101
0000
0100
0010
0000
,  // measure 140
0000
0100
0100
0001
,  // measure 141
0001
0000
2000
0000
0000
3100
0000
0000
,  // measure 142
0011
0000
0000
0000
;
