#VERSION:0.83;
#TITLE:メトロシティ;
#SUBTITLE:;
#ARTIST:imase & なとり;
#TITLETRANSLIT:Metrocity;
#SUBTITLETRANSLIT:;
#ARTISTTRANSLIT:imase & natori;
#GENRE:;
#CREDIT:;
#MUSIC:Metrocity.ogg;
#BANNER:Metrocity-bn.png;
#BACKGROUND:Metrocity-bg.png;
#CDTITLE:;
#SAMPLESTART:63.354;
#SAMPLELENGTH:15.360;
#SELECTABLE:YES;
#OFFSET:1.206;
#BPMS:0.000=125.000;
#STOPS:;
#LASTSECONDHINT:101.753;
#BGCHANGES:;
#FGCHANGES:;

//--------------- dance-single - XO FS- JU- ----------------
#NOTEDATA:;
#STEPSTYPE:dance-single;
#DESCRIPTION:XO FS- JU-;
#CREDIT:Talkion;
#DIFFICULTY:Challenge;
#METER:13;
#RADARVALUES:0,0,0,0,0;
#NOTES:
0000
0000
0000
0000
,
0000
0000
0000
0000
,
0000
0000
0000
0000
,
0000
0000
0000
0000
,
0000
0000
0000
0000
,
0000
0000
0000
0000
,
1000
0100
0010
0100
1000
0010
1000
0002
,
0000
0013
0100
1000
0020
0000
0130
0000
,
0001
0100
0010
0100
0001
0010
0100
0002
,
0000
0000
0103
0000
0010
0000
0001
0000
4000
0000
0000
0000
3010
0100
0010
1000
,
0001
0000
0000
0000
0011
0000
0000
0000
2010
0000
0000
3100
0010
0000
0001
0000
,
1000
0010
0100
0000
0001
0000
0100
0010
0000
1000
0001
0000
0010
0100
0010
0001
,
1000
0000
0000
0000
1010
0000
0000
0000
0012
0000
0000
0103
0010
0000
1000
0000
,
0001
0010
0100
0000
1000
0000
0100
0010
0002
0000
0100
0000
2003
0000
0010
0000
,
3001
0000
1000
0100
1000
0000
0100
0010
0000
0000
2010
0000
3001
0000
1000
0000
,
0100
0000
1000
0000
0001
0000
0100
0010
0000
0000
0012
0000
1003
0000
0000
0000
,
0001
0000
1000
0100
1000
0000
0100
0010
0000
0000
2010
0000
3001
0000
0100
0000
,
0010
0000
1000
0001
1000
0000
0100
0000
0020
0000
0001
0000
0230
0300
0000
0000
,
1000
0000
0001
0100
0002
0000
0010
0000
1003
0000
0010
0100
0000
0000
1001
0000
,
0000
1000
0001
0010
0001
0000
1000
0100
2000
0000
0010
0000
3001
0200
0000
2300
,
0000
3100
0001
0010
0100
0010
0001
0100
,
0010
0100
0001
1000
0000
0100
0010
0002
,
0000
0000
0103
0000
0010
0000
1000
0000
0001
0000
0010
0100
0010
0000
0001
0000
,
0000
0000
0100
0000
0010
0000
1000
0000
0001
0000
0010
0000
0100
0000
1000
0001
,
1000
0010
0200
0000
0302
0000
0013
0000
,
0100
0010
0001
0000
1000
0010
0000
1000
0010
0000
0100
0000
0001
0100
00M0
0100
,
2000
0000
0010
0000
3001
0010
0000
0100
1000
0000
0001
0000
1000
0100
00M0
0100
,
0002
0000
0010
0000
1003
0010
0000
0100
0001
0000
1000
0000
0001
0100
00M0
0100
,
1000
0000
0001
0010
0100
0000
1000
0000
0001
0000
0100
0000
1000
0000
0200
0000
,
0000
0000
0301
0000
1000
0100
0010
0000
0001
0000
1000
0000
0001
0100
00M0
0100
,
2000
0000
0001
0000
3010
0002
0000
0013
0100
0000
0001
0000
1000
0000
0001
0010
,
0M00
0010
2000
0000
0001
0000
3100
0002
0000
0103
0010
0000
0000
0000
0001
0000
,
1000
0000
0001
0000
0100
0010
1000
0000
0001
1000
0010
1000
0100
0010
0002
0000
,
0000
0000
4003
0000
0000
0000
3000
0000
0010
0100
0010
1000
0001
0000
0010
0000
,
0001
0000
1000
0010
0100
0000
0010
000M
0010
0000
0001
1000
0010
0100
2000
0000
,
0000
3100
0101
0000
2100
0001
3001
0010
,
0001
0000
1000
0010
0100
0000
0010
000M
0010
0000
0001
1000
0010
0100
0002
0000
,
0000
1003
1100
0000
0102
1000
1003
0100
,
1000
0000
0001
0010
0100
0000
0010
M000
0010
0000
1000
0001
0010
0100
0002
0000
,
0000
0000
0103
0000
1100
0000
0000
0000
0102
0000
1000
0000
1003
0010
0100
0001
,
0020
0000
0000
0030
1010
0000
0000
0000
0020
0000
0000
0030
0011
0000
0000
0000
,
0002
0000
1000
0000
1000
0000
1003
0000
0100
0010
0100
1000
0001
0000
0100
0010
,
1000
0000
0100
0000
1002
0000
0100
0000
1003
0000
0001
0010
0100
1000
0002
0000
,
0000
0000
0103
0000
0010
0100
0001
0000
2000
0000
0100
0000
3100
0000
0000
0000
,
1000
0000
0010
0100
0002
0000
0010
0000
1003
0000
0001
0010
0100
0010
2000
0000
,
0000
0000
3001
0000
0100
0010
0100
0000
1000
0000
0010
0000
0100
0000
0000
0000
,
0001
0000
0100
0000
2001
0000
0100
0000
3001
0000
1000
0010
0100
0001
2000
0000
,
0000
0000
3100
0000
0010
0100
1000
0000
0002
0000
0100
0000
0103
0000
0000
0000
,
0001
0000
0010
0100
2000
0000
0010
0000
3001
0000
1000
0010
0100
0010
0002
0000
,
0000
0000
1003
0000
0100
0010
0100
0000
0001
0000
0010
0000
0100
0000
1000
0000
,
0010
0000
0000
0000
;
