#TITLE:Metaphor On The Floor;
#SUBTITLE:;
#ARTIST:The Art Of Noise;
#TITLETRANSLIT:;
#SUBTITLETRANSLIT:;
#ARTISTTRANSLIT:;
#GENRE:;
#CREDIT:Minxyz;
#MUSIC:Metaphor On The Floor.ogg;
#BANNER:Metaphor On the Floor BN.png;
#BACKGROUND:Metaphor On the Floor BG.png;
#CDTITLE:;
#SAMPLESTART:0.000;
#SAMPLELENGTH:0.000;
#SELECTABLE:YES;
#OFFSET:-0.158;
#BPMS:0.000=269.972
,178.000=269.917
,242.000=270.000
;
#STOPS:;
#BGCHANGES:;
#FGCHANGES:;

//--------------- dance-single - Minxyz ----------------
#NOTES:
     dance-single:
     Minxyz:
     Easy:
     7:
     0,0,0,0,0:
0000
0000
0000
0000
,
0000
0000
0000
0000
,
0000
0000
0000
0000
,
0000
0000
0000
0000
,
0000
0000
0000
0000
,
0000
0000
0000
0000
,
0000
0000
0000
0000
,
0000
0000
0000
0000
,
0000
0000
0000
0000
,
0000
0000
0000
0000
,
0000
0000
0000
0000
,
0000
0000
0000
0000
,
0000
0000
1001
0000
,
1000
0000
0000
0000
0010
0000
0000
1000
,
0000
0000
0000
0000
,
0001
0000
0000
0000
0100
0000
0000
0001
,
0000
0000
1001
0000
,
1000
0000
0000
0000
0100
0000
0000
1000
,
0000
0000
0000
0000
,
0001
0000
0000
0000
0010
0000
0000
0001
,
0000
0000
0110
0000
,
0000
0000
1000
0100
,
0000
0000
0110
0000
,
0000
0010
0001
0000
,
0000
0000
0101
0000
,
0000
0100
0010
0000
,
0000
0000
1010
0000
,
0000
1000
0100
0010
,
0011
0000
1000
0001
,
0100
0000
0001
1000
,
0010
0000
0100
0001
,
0010
0000
0100
1000
,
0010
0000
1000
0001
,
0010
0000
0001
1000
,
0100
0000
0010
0001
,
0100
0000
0010
1000
,
0100
0000
0100
1000
,
0010
0000
0100
0001
,
0010
0000
0001
1000
,
0100
0000
1000
0001
,
0010
0000
0001
0100
,
0000
0000
1000
0100
,
0000
0000
2002
0000
,
0000
0000
0000
0000
,
0000
3003
1000
0000
,
0010
0000
0100
0000
,
0001
0000
0100
0000
,
1000
0000
0100
0000
,
0001
0000
1000
0000
,
0100
0000
0010
0000
,
0001
0000
1000
0000
,
0100
0000
0001
0000
,
0100
0000
1100
0000
,
0001
0000
0010
0000
,
0100
0000
1000
0000
,
0100
0000
0001
0000
,
0100
0000
1000
0000
,
0010
0000
0001
0000
,
0010
0000
1000
0010
,
1000
0010
1000
0000
,
1010
0000
2000
0000
,
0000
0000
0000
0000
,
0000
0000
0000
0000
,
0000
0000
0000
0000
,
0000
0000
3002
0000
,
0000
0000
0000
0000
,
0000
0000
0000
0000
,
0000
0000
0000
0000
,
0000
0000
0023
0000
,
0000
0000
0000
0000
,
0000
0000
0000
0000
,
0000
0000
0000
0000
,
0000
0000
0230
0000
,
0000
0000
0000
0000
,
0000
0000
0000
0000
,
0000
0000
0000
0000
,
0000
0000
0310
0000
,
0000
0000
1000
1000
,
1000
0000
1010
0000
,
0101
0000
0000
0001
,
0001
0000
0110
0000
,
0110
0000
0000
0010
,
0010
0000
1010
0000
,
1010
0000
0000
0001
,
0001
0000
0102
0000
,
1000
0000
0000
1000
,
0000
0000
1000
0000
,
0000
1000
0000
0000
,
1000
0000
0023
0000
,
0100
0000
0000
0100
,
0000
0000
0100
0000
,
0000
0100
0000
0000
,
0130
0000
1001
0000
,
0001
0000
0000
0000
0100
0000
0000
0001
,
0000
0000
0000
0000
,
1000
0000
0000
0000
0010
0000
0000
1000
,
0000
0000
1001
0000
,
0001
0000
0000
0000
0010
0000
0000
0001
,
0000
0000
0000
0000
,
1000
0000
0000
0000
0100
0000
0000
1000
,
0000
0000
1010
0000
,
0000
0000
0000
0000
1000
0000
0000
0010
,
0000
0000
0110
0000
,
0000
0000
0000
0000
0001
0000
0000
0010
,
0000
0000
0110
0000
,
0000
0000
0000
0000
0100
0000
0000
1000
,
0000
0000
1001
0000
,
0000
0000
1000
0000
0010
0000
0000
0010
,
0000
0100
0001
1000
,
0001
0000
0010
0100
,
0010
0000
0001
0010
,
0001
0000
1000
0010
,
1000
0000
0100
0010
,
0100
0000
1000
0001
,
0100
0000
0001
1000
,
0010
0000
0100
0010
,
0100
0000
0001
1000
,
0001
0000
0100
0010
,
0100
0000
0001
0100
,
0001
0000
1000
0100
,
1000
0000
0010
0100
,
0010
1000
0001
1000
,
0100
0010
0110
0000
,
1100
0000
0000
0000
0001
0000
0000
1001
;

//--------------- dance-single - Minxyz ----------------
#NOTES:
     dance-single:
     Minxyz:
     Medium:
     10:
     0,0,0,0,0:
0000
0000
0000
0000
,
0000
0000
0000
0000
,
0000
0000
0000
0000
,
0000
0000
0000
0000
,
0000
0000
0000
0000
,
0000
0000
0000
0000
,
0000
0000
0000
0000
,
0000
0000
0000
0000
,
0000
0000
0000
0000
,
0000
0000
0000
0000
,
0000
0000
0000
0000
,
0000
0000
0000
0000
,
0000
0000
0001
0000
,
1000
0000
0100
0000
0010
0000
0000
0011
,
0000
0000
0000
1000
,
0010
0000
0100
0000
0001
0000
0000
0101
,
0000
0000
1001
0000
,
1000
0000
0010
0000
0100
0000
0000
0101
,
0000
0000
0000
0001
,
0010
0000
0100
0000
1000
0000
0000
1100
,
0000
0000
1001
0000
,
1000
0000
0100
0000
1000
0000
0010
0100
,
0000
0000
0110
0000
,
0001
0000
0100
0000
0001
0000
0010
0100
,
0000
0000
1001
0000
,
1000
0000
0010
0000
1000
0000
0100
0010
,
0000
0000
0110
0000
,
0001
0000
0010
0000
0001
0000
0100
0010
,
0000
0000
1000
0001
1000
0000
0010
0000
,
0100
0000
0000
0100
0001
0000
0010
0000
,
0100
0000
0000
0100
1000
0000
0100
0000
,
0010
0000
0000
0010
0001
0000
0100
0000
,
0010
0000
0000
0010
1000
0000
0001
0000
,
0100
0000
0000
0100
0001
0000
1000
0000
,
0100
0000
0000
0100
1000
0000
0001
0000
,
0010
0000
0000
0010
0001
0000
1000
0000
,
0010
0000
0000
0010
1000
0000
0100
0000
,
0010
0000
0000
0010
0001
0000
0100
0000
,
0010
0000
0000
0010
1000
0000
0010
0000
,
0100
0000
0000
0100
0001
0000
0010
0000
,
0100
0000
0000
0100
1000
0000
0100
0000
,
0001
0100
1000
0010
,
0100
0001
0100
1000
,
0100
0001
0010
0100
,
1000
0000
0100
1000
0100
0000
0000
0000
,
0010
0000
0001
0000
,
0100
0000
0010
1000
,
0010
0000
0000
0100
,
0001
0000
1000
0100
,
1000
0000
0000
0001
,
0010
0000
1000
0010
,
1000
0000
0000
0001
,
0100
0000
0010
1000
,
0010
0000
0000
1000
,
0100
0000
0010
0001
,
0010
0000
0000
0100
,
0010
0000
0011
0000
,
1100
0000
0101
0000
,
1010
0000
0010
1000
,
0100
0000
0010
0000
0001
0000
0100
0001
,
0000
0000
1000
0001
0200
0000
0000
0000
,
0000
0000
0000
0000
,
0000
0000
0000
0000
,
0000
0000
0000
0000
,
0000
0000
0302
0000
,
0000
0000
0000
0000
,
0000
0000
0000
0000
,
0000
0000
0000
0000
,
0000
0000
2003
0000
,
0000
0000
0000
0000
,
0000
0000
0000
0000
,
0000
0000
0000
0000
,
0000
0000
3010
0020
,
0000
0000
0000
0000
,
0000
0000
0000
0000
,
0000
0000
0000
0000
,
0000
0000
1030
0001
,
0100
0000
0000
0001
,
0101
0000
0000
1000
0010
0000
1000
0000
,
0100
0000
0000
0010
,
0011
0000
0000
1000
0100
0000
1000
0000
,
0010
0000
0000
1000
,
1010
0000
0000
0100
0001
0000
1000
0000
,
0100
0000
0000
1000
,
1100
0000
0000
1000
0010
0000
0100
0000
,
0101
0000
0000
1010
,
0000
0000
0011
0000
,
0000
1100
0000
0000
,
1001
0000
0000
0000
,
1010
0000
0000
0101
,
0000
0000
1100
0000
,
0000
0011
0000
0000
,
1001
0000
1000
0000
,
0001
0000
0010
0000
0100
0000
0000
1100
,
0000
0000
0000
0001
,
0100
0000
0010
0000
1000
0000
0000
1010
,
0000
0000
1001
0000
,
0001
0000
0100
0000
0010
0000
0000
1010
,
0000
0000
0000
1000
,
0100
0000
0010
0000
0001
0000
0000
0011
,
0000
0000
1001
0000
,
0000
0000
0000
0000
1010
0000
0000
0101
,
0000
0000
1001
0000
,
0000
0000
0000
0000
0011
0000
0000
1100
,
0000
0000
0110
0000
,
0000
0000
0000
0000
1100
0000
0000
0101
,
0000
0000
0110
0000
,
0000
0000
0010
0000
1000
0000
0000
0100
,
0000
0000
0010
0001
0010
0000
0100
0000
,
1100
0000
0000
0010
0100
0000
0001
0000
,
0101
0000
0000
0100
0010
0000
1000
0000
,
1100
0000
0000
0010
0100
0000
1000
0000
,
1010
0000
0100
0001
,
0011
0000
0000
0100
0010
0000
0001
0000
,
0101
0000
0000
0100
0010
0000
1000
0000
,
1100
0000
0010
0001
,
1001
0000
1000
0100
,
0110
0000
0000
0001
1000
0000
0010
0000
,
0110
0000
0000
0001
1000
0000
0100
0000
,
0110
0000
0000
0001
0100
0000
0010
0000
,
1010
0000
0001
1000
,
1100
0000
0000
0100
0010
0000
0001
0000
,
0100
0000
0000
0010
1000
0000
0100
0000
,
0001
0000
0100
0000
1000
0000
0000
1010
;

//--------------- dance-single - Minxyz ----------------
#NOTES:
     dance-single:
     Minxyz:
     Hard:
     13:
     0,0,0,0,0:
0000
0000
0000
0000
,
0000
0000
0000
0000
,
0000
0000
0000
0000
,
0000
0000
0000
0000
,
0000
0000
0000
0000
,
0000
0000
0000
0000
,
0000
0000
0000
0000
,
0000
0000
0000
0000
,
0000
0000
0000
0000
,
0000
0000
0000
0000
,
0000
0000
0000
0000
,
0000
0000
0000
0000
,
0000
0000
1001
1000
,
0100
0000
0010
0000
0001
0100
0000
0001
,
0000
0000
0000
1000
,
0100
0000
0010
0000
0001
1000
0000
0010
,
0000
1000
1010
1000
,
0010
0000
0100
0000
0001
0010
0000
0001
,
0000
0000
0000
1000
,
0010
0000
0100
0000
0001
1000
0000
0100
,
0000
0110
0011
0001
,
0010
0000
0100
0000
1000
0010
0000
1000
,
0000
0000
0000
0001
,
0010
0000
0100
0000
1000
0001
0000
0100
,
0000
0010
1000
0001
,
0100
0000
0010
0000
1000
0100
0000
1000
,
0000
0000
0000
0001
,
0100
0000
0010
0000
1000
0001
0000
0100
,
0010
0100
0010
0100
0010
0000
1000
0000
,
0001
0000
0100
0010
0100
0000
0001
0000
,
1000
0000
0100
0010
0100
0000
1000
0000
,
0001
0000
0010
0100
0010
0000
1000
0000
,
0010
0001
0100
0010
,
0100
0000
0001
1000
0001
0000
0010
0000
,
0100
0000
1000
0001
1000
0000
0100
0000
,
0010
0000
0001
1000
0001
0000
0100
0000
,
0001
0010
0001
0100
,
0010
0000
1000
0010
1000
0000
0100
0000
,
0010
0000
0001
0010
0001
0000
0100
0000
,
0010
0000
0100
0001
0100
0000
0010
0000
,
1000
0000
0100
0000
0010
0001
0010
0000
,
0100
1000
0100
0000
1000
0010
1000
0000
,
0001
0100
0001
0000
1000
0000
0010
0000
,
0001
0010
1000
0100
,
0010
0100
0010
0100
0010
0000
0100
0000
,
0010
0001
1000
0000
0001
0000
1000
0000
,
0001
0100
0010
0000
0100
0000
0010
0000
,
0100
0001
1000
0000
0001
0000
1000
0000
,
0001
0010
0100
0000
0100
0000
0010
0000
,
0100
1000
0001
0000
1000
0000
0001
0000
,
1000
0010
0100
0000
0010
0000
0100
0000
,
0010
1000
0001
0000
1000
0000
0001
0000
,
1000
0100
0010
0000
0110
0000
0100
0000
,
0010
0001
0100
0010
,
0100
0010
1000
0100
,
0010
0100
0010
0001
,
1000
0010
1000
0000
0100
0000
0001
0000
,
0100
1000
0010
0100
,
0001
0100
1000
0100
,
0001
0010
0100
1000
,
0010
1000
0002
0000
,
1000
0000
0010
0000
,
0100
0000
0010
0000
,
1000
0000
0100
0000
,
0010
0000
0000
0003
2000
0000
0000
0000
,
0001
0000
0100
0000
,
0010
0000
0100
0000
,
0001
0000
0010
0000
,
0100
0000
3020
0000
,
0001
0000
0000
0100
,
0000
0000
0001
0000
,
0000
0100
0000
0000
,
1000
0000
0000
0030
0200
0000
0000
0000
,
1000
0000
0000
0010
,
0000
0000
1000
0000
,
0000
0010
0000
0000
,
0001
0000
0301
0000
,
0000
0010
0001
0100
,
0000
0010
1000
0100
,
0000
1000
0010
0001
,
0000
1000
0100
0001
,
0000
1000
0100
0001
,
0000
1000
0010
0001
,
0000
0100
0001
0010
,
0100
0010
0001
0100
,
0110
0000
0000
1010
,
0000
0000
0101
0000
,
0000
0011
0000
0000
,
1100
0000
1000
0100
,
0110
0000
0000
0011
,
0000
0000
1100
0000
,
0000
1010
0000
0000
,
0101
0000
1001
0001
,
0010
0000
0100
0000
1000
0010
0000
1000
,
0000
0000
1010
0001
,
0010
0000
0100
0000
1000
0001
0000
0100
,
0000
0001
0101
0001
,
0100
0000
0010
0000
1000
0100
0000
1000
,
0000
0000
0011
0001
,
0100
0000
0010
0000
1000
0001
0000
0010
,
0000
0110
1100
0000
,
0000
0000
0000
0000
1000
0100
0000
0110
,
0000
0000
1001
0000
,
0000
0000
0000
0000
0001
0100
0000
0110
,
0000
1000
1010
0000
,
0000
0000
0000
0000
0100
0001
0000
1001
,
0000
0000
0101
0000
,
0000
0000
0001
0010
0001
0000
0100
0000
,
0001
1000
0001
1000
0001
0000
1000
0000
,
0001
0010
0100
1000
,
0010
0000
0100
0000
0001
0100
0001
0000
,
1000
0010
1000
0000
0001
0010
0001
0000
,
1000
0000
0100
0000
0010
0001
0010
0000
,
0100
1000
0100
0000
0010
0100
0010
0000
,
0001
0000
0100
0000
0001
0100
0001
0000
,
1000
0010
1000
0000
0100
0010
0100
0000
,
1000
0010
0100
0001
,
0010
0000
0001
0100
0001
1000
0010
0000
,
0100
0000
0001
0010
0001
1000
0100
0000
,
0010
0000
0100
1000
0100
0010
0001
0000
,
0100
0000
0010
1000
0010
0100
0001
0000
,
1000
0000
0010
0100
0010
1000
0001
0000
,
1000
0000
0010
0100
1000
0100
0001
0010
,
0100
1000
0100
0010
0001
0000
1000
0010
;

//--------------- dance-single - Minxyz ----------------
#NOTES:
     dance-single:
     Minxyz:
     Challenge:
     16:
     0,0,0,0,0:
0000
0000
0000
0000
,
0000
0000
0000
0000
,
0000
0000
0000
0000
,
0000
0000
0000
0000
,
0000
0000
0000
0000
,
0000
0000
0000
0000
,
0000
0000
0000
0000
,
0000
0000
0000
0000
,
0000
0000
0000
0000
,
0000
0000
0000
0000
,
0000
0000
0000
0000
,
0000
0000
0000
0000
,
0000
0000
0000
0000
1001
0000
1000
0100
,
1000
0000
0001
0100
0001
0100
0000
0210
,
0000
0000
0000
0000
0300
0000
0001
0010
,
0001
0000
1000
0010
1000
0010
0000
0110
,
0000
0000
0100
0000
0102
0003
0100
0001
,
0100
0000
0010
1000
0010
1000
0000
1001
,
0000
0000
0001
0010
0100
0000
1000
0010
,
1000
0000
0001
0100
0001
0100
0000
0110
,
0000
0000
0100
0000
2010
3000
0010
1000
,
0010
0000
0100
0010
0100
0010
0100
0000
,
0000
0000
0001
0000
0102
0003
1000
0100
,
1000
0000
0001
0010
0001
0010
0100
0010
,
0000
0000
0001
0000
0021
0030
0100
0010
,
0100
0000
0010
0001
0010
0001
0010
0100
,
0000
0000
0000
0000
0021
0030
0001
1000
,
0001
0000
1000
0001
1000
0100
0010
0001
,
0010
0100
1000
0010
0100
0000
0010
0000
,
1000
0100
0010
0100
1000
0100
0010
0000
,
0001
0100
0010
0100
0001
0100
0010
0000
,
1000
0010
0100
0010
1000
0010
0100
0000
,
0001
0010
0100
0010
0001
0010
0100
0000
,
1000
0010
0100
0010
1000
0010
0100
0000
,
0001
0010
0100
0010
0001
0100
0010
0000
,
0100
0010
1000
0010
0100
0010
1000
0000
,
0100
0010
0001
0010
0100
0010
0001
0000
,
1000
0100
0010
0100
1000
0100
0010
0000
,
0001
0100
0010
0100
0001
0100
0010
0000
,
1000
0100
0010
0100
1000
0010
0100
0000
,
0001
0100
0010
0100
0001
0100
0010
0000
,
1000
0100
0010
0000
0001
0100
0010
0000
,
1000
0010
0100
0000
0001
0010
0100
1000
,
0100
0010
0001
0100
0010
1000
0010
0100
,
0001
0010
0100
1000
0001
0000
0100
0000
,
1000
0100
0001
0010
,
0100
1000
0100
0001
,
0100
1000
0010
0100
,
0001
0010
0100
1000
,
0010
1000
0001
0100
,
0001
0010
1000
0010
,
0001
0100
0010
1000
,
0100
0010
0011
0001
,
0100
1000
0100
0001
,
0100
0010
1000
0010
,
0100
0001
1000
0100
,
0001
0000
0100
0000
1000
0010
0001
0000
,
0001
0010
1000
0000
0001
0100
1000
0000
,
1000
0100
0001
0000
1000
0010
0100
0001
,
1000
0100
0010
0001
0010
1000
0000
0010
,
0000
0000
2001
0000
,
0010
0000
0100
0000
,
0010
0000
0000
0000
3001
1000
0020
0000
,
1000
0000
0100
0000
,
0001
0000
0000
0000
1030
0001
0200
0000
,
0010
0000
1000
0000
,
0301
0010
0100
0000
0100
0010
0002
0000
,
0010
0000
1000
0000
,
0103
0010
1000
0000
1001
0000
0000
0000
,
2020
0000
3030
0202
,
0000
0303
0022
0000
,
0033
2200
0000
3300
,
2002
0000
3003
0000
,
0220
0000
0330
0202
,
0000
0303
2020
0000
,
3030
2200
3300
0002
,
0000
2000
3003
0000
1100
0000
1000
0000
,
0200
0000
0300
0010
,
0001
0100
1000
0100
0001
0000
0001
0000
,
0200
0000
0300
0010
,
1000
0100
0001
0100
1000
0000
1000
0000
,
0020
0000
0030
0100
,
0001
0010
1000
0010
0001
0000
0001
0000
,
0200
0000
0300
0010
,
1000
0010
0001
0010
1000
0000
0000
0000
,
2200
0000
3300
0022
,
0000
0033
1010
1001
,
0000
0202
0000
0303
,
0110
0000
0101
1001
,
2200
0000
3300
0202
,
0000
0303
0011
1001
,
0000
0202
0303
0101
,
0110
0000
0000
0000
1001
0000
0001
0010
,
0001
0000
1000
0010
1000
0010
0000
0220
,
0000
0000
0330
0000
1001
0000
1000
0100
,
1000
0000
0001
0100
0001
0100
0000
0110
,
0000
0000
0010
0000
1010
0000
0010
1000
,
0010
0000
0100
0001
0100
0001
0000
1001
,
0000
0000
1000
0100
0010
0000
0001
0100
,
0001
0000
1000
0010
1000
0010
0000
0110
,
0000
0010
0101
0000
,
0000
0000
0000
0000
1000
0010
0000
0101
,
0000
0000
1001
0000
,
0000
0000
0000
0000
0001
0010
0000
1100
,
0000
0100
0110
0011
,
0000
0000
0000
0000
1000
0100
0000
0011
,
0000
0000
1001
0000
,
0000
0000
0001
1000
0001
0010
0100
1000
,
0100
0010
0001
0100
0010
0000
1000
0000
,
0001
0010
1000
0010
0001
0100
0010
0000
,
0100
0000
0001
0000
1000
0100
1000
0001
,
1000
0100
1000
0001
1000
0100
1000
0001
,
1000
0000
0100
0000
1000
0010
1000
0001
,
1000
0010
1000
0001
1000
0010
0100
0001
,
1000
0000
0010
0000
0100
0001
0100
0010
,
0100
0001
0100
0010
0100
0001
1000
0100
,
1000
0100
0010
0001
,
1000
0100
0001
0100
1000
0010
0100
0000
,
0010
0000
1000
0000
0001
0010
0001
1000
,
0001
0010
0001
1000
0001
0010
0100
1000
,
0001
0000
0010
0000
0001
0100
0001
1000
,
0001
0100
0001
1000
0001
0100
0001
1000
,
0001
0000
0100
0000
0001
0100
0010
1000
,
0001
0010
0100
1000
0100
0001
0000
0100
;

//--------------- dance-double - Minxyz ----------------
#NOTES:
     dance-double:
     Minxyz:
     Hard:
     16:
     0,0,0,0,0:
00000000
00000000
00000000
00000000
,
00000000
00000000
00000000
00000000
,
00000000
00000000
00000000
00000000
,
00000000
00000000
00000000
00000000
,
00000000
00000000
00000000
00000000
,
00000000
00000000
00000000
00000000
,
00000000
00000000
00000000
00000000
,
00000000
00000000
00000000
00000000
,
00000000
00000000
00000000
00000000
,
00000000
00000000
00000000
00000000
,
00000000
00000000
00000000
00000000
,
00000000
00000000
00000000
00000000
,
00000000
00000000
00000000
00000000
00001000
00000000
00100000
00010000
,
00100000
00000000
01000000
00000000
10000000
00100000
00000000
02100000
,
00000000
00000000
00000000
00000000
03000000
00000000
00001000
00010000
,
00001000
00000000
00000010
00000000
00000001
00000100
00000000
00001000
,
00000000
00000000
00010000
00000000
00021000
00000000
00030100
00001000
,
00000100
00000000
00000010
00000000
00000001
00000100
00000000
00000120
,
00000000
00000000
00000000
00000000
00000030
00000000
00010000
00001000
,
00010000
00000000
01000000
00000000
10000000
00100000
00000000
00010000
,
00000000
00000000
00001000
00000000
00011000
00000000
00001000
01000000
,
00010000
00000000
00100000
00000000
01000000
00100000
01000000
00100000
,
00000000
00000000
00110000
00000000
11000000
00000000
10000000
00010000
,
01000000
00000000
00100000
00000000
01000000
00010000
01000000
00010000
,
00000000
00000000
01010000
00000000
01001000
00000000
00010000
00001000
,
00010000
00000000
00000100
00000000
00000010
00000100
00000010
00000100
,
00000000
00000000
00000000
00000000
00000110
00000000
00000010
00000001
,
00001000
00000000
00001000
00000100
00001000
00000100
00010000
00001000
,
00010000
00001000
00100000
00010000
00100000
00000000
01000000
00000000
,
00100000
00000000
00010000
10000000
00010000
00000000
00100000
00000000
,
01000000
10000000
01000000
00100000
00010000
00000000
01000000
00000000
,
00010000
01000000
00100000
10000000
00100000
00000000
10000000
00000000
,
01000000
00100000
00010000
00100000
00001000
00000000
00000100
00000000
,
00000001
00000010
00000100
00001000
00000100
00000000
00000010
00000000
,
00000001
00000100
00000010
00001000
00000010
00000000
00010000
00000000
,
00001000
00100000
00010000
10000000
01000000
00000000
00100000
00000000
,
00010000
00100000
00001000
00010000
00000100
00000000
00000010
00000000
,
00000100
00000000
00001000
00000001
00001000
00000000
00000100
00000000
,
00000010
00000001
00000010
00000100
00001000
00000000
00000010
00000000
,
00001000
00000010
00000100
00000001
00000100
00000000
00000001
00000000
,
00000010
00000100
00001000
00000100
00010000
00001000
00010000
00000000
,
00000010
00001000
00000010
00000000
00010000
00001000
00010000
00000000
,
00000100
00001000
00000100
00000000
00000010
00000001
00001000
00000100
,
00010000
00001000
00100000
00010000
10000000
01000000
10000000
01000000
,
10000000
01000000
10000000
01000000
10000000
00000000
01000000
00000000
,
00010000
00001000
00000100
00000001
,
00000100
00001000
00010000
01000000
,
10000000
00100000
00010000
00001000
,
00000010
00000001
00000100
00000010
,
00010000
00100000
10000000
01000000
,
00010000
00000100
00001000
00000010
,
00010000
00001000
00010000
00000100
,
00001000
01000000
10000000
00100000
,
01000000
00010000
00100000
00001000
,
00000100
00000010
00001000
00000001
,
00000010
00000100
00001000
00000100
,
00010000
00000000
01000000
00000000
10000000
01000000
00010000
00000000
,
00001000
00000010
00000001
00000000
00001000
00000010
00000001
00000000
,
00000001
00000010
00001000
00000000
00000010
00010000
00001000
01000000
,
00010000
10000000
00100000
10000000
00100000
00000000
01000000
00010000
,
00000000
00000000
00002000
00000000
,
00000100
00000000
00000001
00000000
,
00000010
00000000
00000000
00000000
00013000
00100000
00020000
00000000
,
00100000
00000000
10000000
00000000
,
01000000
00000000
00000000
00000000
00130000
00001000
00020000
00000000
,
01000000
00000000
00000100
00000000
,
00000010
00000000
00000000
00000000
00031000
00010000
00002000
00000000
,
00000010
00000000
00100000
00000000
,
01000000
00000000
00103000
00000000
,
00220000
00000000
00330000
22000000
,
00000000
33000000
02020000
00000000
,
03030000
20200000
00000000
30300000
,
10010000
00000000
00011000
00000000
,
00002200
00000000
00003300
00000022
,
00000000
00000033
00002020
00000000
,
00003030
00000202
00000000
00000303
,
00001001
00000000
00011000
00001000
,
00200000
00000000
00300000
01000000
,
00100000
00010000
00100000
00010000
00100000
00000000
00001000
00000000
,
00020000
00000000
00030000
00000100
,
00000010
00000001
00000010
00000001
00000010
00000000
00000100
00000000
,
00002000
00000000
00003000
00000001
,
00001000
00000010
00001000
00000010
00001000
00000000
00000100
00000000
,
00020000
00000000
00030000
00001000
,
01000000
00010000
01000000
00010000
01000000
00000000
00100000
00000000
,
20200000
00000000
30300000
02020000
,
00000000
03030000
00022000
00000000
,
00033000
00002200
00000000
00003300
,
00000022
00000033
00001000
00000001
,
00000202
00000000
00000303
00002020
,
00000000
00003030
00022000
00000000
,
00033000
02020000
00000000
03030000
,
00202000
00000000
00303000
00000000
00010000
00000000
00000100
00001000
,
00000100
00000000
00000010
00000000
00000001
00000100
00000000
00000120
,
00000000
00000000
00000000
00000000
00000030
00000000
00010000
00001000
,
00010000
00000000
01000000
00000000
10000000
00100000
00000000
00010000
,
00000000
00000000
00001000
00000000
00012000
00000000
00103000
00010000
,
00100000
00000000
01000000
00000000
10000000
00100000
00000000
02100000
,
00000000
00000000
03000000
00000000
00011000
00000000
00001000
00010000
,
00001000
00000000
00000010
00000000
00000001
00000100
00000000
00001000
,
00000000
00000000
00010000
00000000
00011000
00000000
01000000
00010000
,
00000000
00000000
00100000
00000000
00001000
00010000
00000000
00000100
,
00000000
00000000
00001000
00000000
00001100
00000000
00000100
00000010
,
00000000
00000000
00000001
00000000
00001000
00000010
00000000
00010000
,
00000000
00000000
00001000
00000000
00011000
00000000
00100000
00010000
,
00000000
00000000
01000000
00000000
00001000
00010000
00000000
00000010
,
00000000
00000000
00000100
00000000
00000101
00000000
00000100
00000010
,
00000000
00000000
00010000
00001000
00010000
00001000
00010000
00000100
,
00001000
00000100
00000010
00000001
00001000
00000000
00000010
00000000
,
00000100
00000000
00000000
00000001
00000100
00000000
00000010
00000000
,
00010000
00000000
00001000
00000000
00010000
00001000
00100000
00001000
,
00010000
00001000
01000000
00001000
00010000
00001000
00100000
00001000
,
00010000
00000000
00010000
00000000
00001000
00010000
00000100
00010000
,
00001000
00010000
00000010
00010000
00001000
00010000
00000100
00010000
,
00001000
00000000
00010000
00000000
01000000
10000000
00010000
10000000
,
00100000
10000000
00010000
10000000
01000000
10000000
00010000
10000000
,
01000000
00100000
00110000
00100000
,
00001000
00000000
00000000
00100000
00010000
00000000
01000000
00000000
,
00001000
00000000
00010000
00000000
00001000
00010000
00000100
00010000
,
00001000
00010000
00000010
00010000
00001000
00010000
00000100
00010000
,
00001000
00000000
00001000
00000000
00010000
00001000
00100000
00001000
,
00010000
00001000
01000000
00001000
00010000
00001000
00100000
00001000
,
00010000
00000000
00001000
00000000
00010000
00000100
00001000
00000100
,
00000010
00000001
00001000
00000100
00010000
00001000
00000000
00011000
;
