#TITLE:MORNINGLOOM;
#SUBTITLE:;
#ARTIST:saaa;
#TITLETRANSLIT:;
#SUBTITLETRANSLIT:;
#ARTISTTRANSLIT:;
#GENRE:Morning Routine;
#CREDIT:;
#BANNER:MORNINGLOOM.png;
#BACKGROUND:MORNINGLOOM-bg.png;
#LYRICSPATH:;
#CDTITLE:cdtitle.png;
#MUSIC:MORNINGLOOM.ogg;
#OFFSET:-1.179000;
#SAMPLESTART:74.119003;
#SAMPLELENGTH:15.000000;
#SELECTABLE:YES;
#DISPLAYBPM:204.000000;
#BPMS:0.000000=102.000000
,20.000000=204.000000
;
#STOPS:
;
#BGCHANGES:-2.000=MORNINGLOOM.avi=1.000=0=0=0=StretchNoLoop==CrossFade_Fastest==,
99999=-nosongbg-=1.000=0=0=0 // don't automatically add -songbackground-
;
#KEYSOUNDS:;
#ATTACKS:;

//---------------dance-single - Daff_4K - 08.00----------------
#NOTES:
     dance-single:
     Daff_4K - 08.00:
     Beginner:
     2:
     0.110703,0.192841,0.063984,0.000000,0.000000,109.000000,100.000000,9.000000,0.000000,0.000000,0.000000,0.110703,0.192841,0.063984,0.000000,0.000000,109.000000,100.000000,9.000000,0.000000,0.000000,0.000000:
// measure 0
0000
0000
0000
0000
,  // measure 1
0000
0000
0000
0000
,  // measure 2
0000
0000
0000
0000
,  // measure 3
0000
0000
0000
0000
,  // measure 4
0000
0000
0000
0000
,  // measure 5
0110
0000
0000
0000
,  // measure 6
0000
0000
0000
0000
,  // measure 7
1001
0000
0000
0000
,  // measure 8
0000
0000
0000
0000
,  // measure 9
0000
0000
1000
0000
,  // measure 10
0000
0000
0100
0000
,  // measure 11
0000
0000
1000
0000
,  // measure 12
0000
0000
1000
0000
,  // measure 13
0000
0000
0001
0000
,  // measure 14
0000
0000
0100
0000
,  // measure 15
0000
0000
0001
0000
,  // measure 16
0000
0000
0001
0000
,  // measure 17
0000
0000
0010
0000
,  // measure 18
0000
0000
0100
0000
,  // measure 19
0000
0000
1000
0000
,  // measure 20
0000
0000
1000
0000
,  // measure 21
0000
0000
0010
0000
,  // measure 22
0000
0000
0100
0000
,  // measure 23
0000
0000
0001
0000
,  // measure 24
0000
0000
0001
0000
,  // measure 25
0001
0000
0000
0000
,  // measure 26
0001
0000
0000
0000
,  // measure 27
1000
0000
0000
0000
,  // measure 28
1000
0000
0000
0000
,  // measure 29
0100
0000
0000
0000
,  // measure 30
0100
0000
0000
0000
,  // measure 31
0010
0000
0000
0000
,  // measure 32
0010
0000
0000
0000
,  // measure 33
0000
0000
0001
0000
,  // measure 34
0000
0000
0100
0000
,  // measure 35
0000
0000
0001
0000
,  // measure 36
0000
0000
0100
0000
,  // measure 37
0000
0000
1000
0000
,  // measure 38
0000
0000
0100
0000
,  // measure 39
0000
0000
1000
0000
,  // measure 40
0000
0000
0100
0000
,  // measure 41
0000
0000
0001
0000
,  // measure 42
0001
0000
0000
0000
,  // measure 43
0000
0000
1000
0000
,  // measure 44
1000
0000
0000
0000
,  // measure 45
0000
0000
0100
0000
,  // measure 46
0100
0000
0100
0000
,  // measure 47
0010
0000
0010
0000
,  // measure 48
0010
0000
0000
0000
,  // measure 49
0110
0000
0000
0000
,  // measure 50
0000
0000
0000
0000
,  // measure 51
0000
0000
0000
0000
,  // measure 52
0000
0000
0000
0000
,  // measure 53
1001
0000
0000
0000
,  // measure 54
0000
0000
0000
0000
,  // measure 55
0000
0000
0000
0000
,  // measure 56
0000
0000
0000
0000
,  // measure 57
0000
0000
0001
0000
,  // measure 58
0000
0000
0010
0000
,  // measure 59
0000
0000
1000
0000
,  // measure 60
0000
0000
0010
0000
,  // measure 61
0000
0000
0001
0000
,  // measure 62
0000
0000
0100
0000
,  // measure 63
0000
0000
1000
0000
,  // measure 64
0000
0000
0100
0000
,  // measure 65
0000
0000
0010
0000
,  // measure 66
0000
0000
1000
0000
,  // measure 67
0000
0000
0100
0000
,  // measure 68
0100
0000
0000
0000
,  // measure 69
0000
0000
0010
0000
,  // measure 70
0000
0000
0001
0000
,  // measure 71
0000
0000
0100
0000
,  // measure 72
0000
0000
0010
0000
,  // measure 73
0010
0000
0000
0000
,  // measure 74
1000
0000
0000
0000
,  // measure 75
0001
0000
0000
0000
,  // measure 76
0010
0000
0000
0000
,  // measure 77
0100
0000
0000
0000
,  // measure 78
0100
0000
0000
0000
,  // measure 79
0010
0000
0000
0000
,  // measure 80
0010
0000
0000
0000
,  // measure 81
0110
0000
0000
0000
,  // measure 82
0110
0000
0000
0000
,  // measure 83
0100
0000
0100
0000
,  // measure 84
0100
0000
0000
0000
,  // measure 85
0010
0000
0000
0000
,  // measure 86
0000
0000
0000
0000
,  // measure 87
1001
0000
0000
0000
,  // measure 88
0000
0000
0000
0000
,  // measure 89
0000
0000
0001
0000
,  // measure 90
0000
0000
0100
0000
,  // measure 91
0000
0000
0001
0000
,  // measure 92
0001
0000
0000
0000
,  // measure 93
0000
0000
1000
0000
,  // measure 94
0000
0000
0100
0000
,  // measure 95
0000
0000
1000
0000
,  // measure 96
1000
0000
0000
0000
,  // measure 97
0000
0000
0001
0000
,  // measure 98
0000
0000
1000
0000
,  // measure 99
0000
0000
0010
0000
,  // measure 100
0010
0000
0000
0000
,  // measure 101
0000
0000
1000
0000
,  // measure 102
1000
0000
1000
0000
,  // measure 103
0001
0000
0001
0000
,  // measure 104
0001
0000
0000
0000
,  // measure 105
1001
0000
0000
0000
,  // measure 106
0000
0000
0000
0000
,  // measure 107
0100
0000
0100
0000
,  // measure 108
0100
0000
0110
0000
;

//---------------dance-single - Daff_4K - 08.21----------------
#NOTES:
     dance-single:
     Daff_4K - 08.21:
     Easy:
     6:
     0.245780,0.385682,0.156406,0.227499,0.000000,242.000000,220.000000,22.000000,32.000000,0.000000,0.000000,0.245780,0.385682,0.156406,0.227499,0.000000,242.000000,220.000000,22.000000,32.000000,0.000000,0.000000:
// measure 0
0000
0000
0000
0000
,  // measure 1
0000
0000
0000
0000
,  // measure 2
0000
0000
0000
0000
,  // measure 3
0000
0000
0000
0000
,  // measure 4
0000
0000
0000
0000
,  // measure 5
0020
0000
0000
0000
,  // measure 6
0000
0000
0030
0000
,  // measure 7
0200
0000
0000
0000
,  // measure 8
0300
0000
1001
0000
,  // measure 9
2000
3000
0001
1000
,  // measure 10
0200
0300
0001
0100
,  // measure 11
1000
0000
0010
0000
,  // measure 12
0001
0010
1000
0000
,  // measure 13
0002
0003
1000
0001
,  // measure 14
0200
0300
1000
0100
,  // measure 15
0001
0000
0010
0000
,  // measure 16
0100
1000
0001
0100
,  // measure 17
0020
0030
0100
0001
,  // measure 18
2000
3000
0100
0010
,  // measure 19
0001
0000
0100
0000
,  // measure 20
0001
1000
0001
0000
,  // measure 21
0020
0030
0100
1000
,  // measure 22
0002
0003
0100
0010
,  // measure 23
1000
0000
0100
0000
,  // measure 24
0010
0001
1000
0001
,  // measure 25
1001
0000
1000
0000
,  // measure 26
1001
0000
0001
0000
,  // measure 27
0110
0000
0100
0000
,  // measure 28
0110
0000
0010
0000
,  // measure 29
1000
0100
1000
0000
,  // measure 30
0001
0100
0001
0000
,  // measure 31
0020
0000
0100
0000
,  // measure 32
0100
0000
0130
0000
,  // measure 33
2000
0000
3001
0000
,  // measure 34
1000
0100
1000
0000
,  // measure 35
0002
0000
1003
0000
,  // measure 36
0001
0100
0001
0000
,  // measure 37
0020
0000
0130
0000
,  // measure 38
1000
0001
1000
0000
,  // measure 39
0020
0000
0130
0000
,  // measure 40
0001
1000
0001
0000
,  // measure 41
2000
0000
3200
0000
,  // measure 42
0010
0000
0310
0000
,  // measure 43
0002
0000
0203
0000
,  // measure 44
0010
0000
0310
0000
,  // measure 45
1000
0000
1001
0000
,  // measure 46
0110
0000
1001
0000
,  // measure 47
1001
0000
0110
0000
,  // measure 48
1001
0000
0220
0000
,  // measure 49
0330
0000
0000
0000
,  // measure 50
0000
0000
0000
0000
,  // measure 51
0000
0000
0000
0000
,  // measure 52
0000
0000
0000
0000
,  // measure 53
0020
0000
0000
0000
,  // measure 54
0000
0000
0030
0000
,  // measure 55
0200
0000
0000
0000
,  // measure 56
0000
0000
0300
0000
,  // measure 57
0001
0000
0010
0000
,  // measure 58
0001
0000
0010
0000
,  // measure 59
0001
0000
0100
0000
,  // measure 60
0010
0000
0010
0000
,  // measure 61
1000
0000
0010
0000
,  // measure 62
1000
0000
0010
0000
,  // measure 63
1000
0000
0100
0000
,  // measure 64
0010
0000
0010
0000
,  // measure 65
0001
0000
0100
0000
,  // measure 66
0010
0000
0100
0000
,  // measure 67
0001
0000
1000
0000
,  // measure 68
0001
0100
0001
0000
,  // measure 69
1000
0000
0100
0000
,  // measure 70
0010
0000
0100
0000
,  // measure 71
1000
0000
0001
0000
,  // measure 72
1000
0100
1000
0000
,  // measure 73
1001
0000
0001
0000
,  // measure 74
1001
0000
1000
0000
,  // measure 75
0110
0000
0010
0000
,  // measure 76
0110
0000
0100
0000
,  // measure 77
0001
0010
0001
0000
,  // measure 78
1000
0010
1000
0000
,  // measure 79
0200
0000
0010
0000
,  // measure 80
0010
0000
0310
0000
,  // measure 81
0001
0002
0003
0000
,  // measure 82
1000
2000
3000
0000
,  // measure 83
0020
0000
0100
0000
,  // measure 84
0130
0000
1001
0000
,  // measure 85
0001
0000
0010
0000
,  // measure 86
1000
0000
0010
0000
,  // measure 87
1001
0000
0000
0000
,  // measure 88
0001
1000
0001
0000
,  // measure 89
2000
0000
3010
0000
,  // measure 90
1000
0001
1000
0000
,  // measure 91
0100
0010
0100
0000
,  // measure 92
0010
0001
0010
0000
,  // measure 93
0002
0000
0013
0000
,  // measure 94
0001
1000
0001
0000
,  // measure 95
0100
0010
0100
0000
,  // measure 96
0010
1000
0010
0000
,  // measure 97
2000
0000
3100
0000
,  // measure 98
1000
0010
1000
0000
,  // measure 99
0002
0000
0103
0000
,  // measure 100
0001
0010
0001
0000
,  // measure 101
0200
0000
0310
0000
,  // measure 102
1000
0000
1001
0000
,  // measure 103
0001
0000
0010
0000
,  // measure 104
0110
0000
0100
0000
,  // measure 105
1001
0000
0000
0000
,  // measure 106
0000
0000
0000
0000
,  // measure 107
0100
0010
0100
0010
,  // measure 108
0100
0000
1001
0000
;

//---------------dance-single - Daff_4K - 08.35----------------
#NOTES:
     dance-single:
     Daff_4K - 08.35:
     Medium:
     11:
     0.371717,0.462818,0.170624,0.568747,0.056875,366.000000,342.000000,24.000000,80.000000,0.000000,0.000000,0.371717,0.462818,0.170624,0.568747,0.056875,366.000000,342.000000,24.000000,80.000000,0.000000,0.000000:
// measure 0
0000
0000
0000
0000
,  // measure 1
0000
0000
0000
0000
,  // measure 2
0000
0000
0000
0000
,  // measure 3
0000
0000
0000
0000
,  // measure 4
0000
0000
0000
0000
,  // measure 5
2002
0000
0000
0000
,  // measure 6
0000
0000
0000
3003
,  // measure 7
0220
0000
0000
0000
,  // measure 8
0000
0330
1001
0000
,  // measure 9
2001
0000
3100
0010
,  // measure 10
0012
0000
1003
0010
,  // measure 11
0100
0010
0001
0010
,  // measure 12
1000
0100
0010
0001
,  // measure 13
1002
0000
0103
0010
,  // measure 14
2010
0000
3001
0010
,  // measure 15
0100
0010
1000
0010
,  // measure 16
0001
1000
0020
0130
,  // measure 17
0102
0000
1003
0100
,  // measure 18
0120
0000
0031
1000
,  // measure 19
0010
0001
0010
1000
,  // measure 20
0001
0100
0010
1000
,  // measure 21
2100
0000
3001
0100
,  // measure 22
0120
0000
1030
0001
,  // measure 23
0010
1000
0010
0001
,  // measure 24
1000
0001
0200
0310
,  // measure 25
2000
0100
0100
0001
,  // measure 26
0001
0010
3010
1000
,  // measure 27
0002
0100
0100
1000
,  // measure 28
1000
0010
0013
0001
,  // measure 29
1000
0010
0001
0010
,  // measure 30
1000
0100
0001
0100
,  // measure 31
0020
0000
0100
0000
,  // measure 32
0230
2300
0002
3003
,  // measure 33
0002
0100
1003
0001
,  // measure 34
0100
0000
0001
0000
1000
0001
1000
0000
,  // measure 35
0200
0010
1300
0001
,  // measure 36
0100
0001
0100
0000
0010
1000
0010
0000
,  // measure 37
2000
0100
3001
1000
,  // measure 38
0100
0000
1000
0000
0001
1000
0001
0000
,  // measure 39
0200
0010
0301
1000
,  // measure 40
0100
1000
0100
0000
0010
0001
0010
0000
,  // measure 41
0002
0100
2003
3010
,  // measure 42
2000
3001
0100
0010
,  // measure 43
2000
0100
3002
0013
,  // measure 44
0002
1003
0100
0010
,  // measure 45
2002
0000
0000
0000
3003
0000
0000
0000
0001
0000
0000
0001
0000
0000
0001
0000
,  // measure 46
1000
0000
0000
1000
0000
0000
1000
0000
0002
0000
0000
0000
0000
0000
0000
0000
,  // measure 47
0103
0000
0000
0100
0000
0000
0100
0000
0010
0000
0000
0010
0000
0000
0010
0000
,  // measure 48
2000
0000
0002
3003
,  // measure 49
2002
0000
0000
0000
,  // measure 50
0000
0000
0000
3000
,  // measure 51
0200
0000
0000
0000
,  // measure 52
0000
0000
0000
0303
,  // measure 53
2002
0000
0000
0000
,  // measure 54
0000
0000
0000
0003
,  // measure 55
0200
0000
0000
0000
,  // measure 56
0000
0000
0000
3300
,  // measure 57
1002
0000
0100
0000
,  // measure 58
1003
0001
0010
0100
,  // measure 59
0020
0000
0001
0000
,  // measure 60
0230
0000
1300
0001
,  // measure 61
2000
0000
0100
0000
,  // measure 62
3001
1000
0010
0100
,  // measure 63
0020
0000
1000
0000
,  // measure 64
0230
0000
0301
1000
,  // measure 65
1002
0000
0010
0000
,  // measure 66
1003
0001
0100
0100
,  // measure 67
0020
0000
1000
0000
,  // measure 68
0130
0001
1000
0001
,  // measure 69
2000
0000
0010
0000
,  // measure 70
3001
1000
0100
0100
,  // measure 71
0020
0000
0001
0000
,  // measure 72
0130
1000
0010
0100
,  // measure 73
0002
0100
0100
1000
,  // measure 74
1000
0010
0013
0001
,  // measure 75
2000
0100
0100
0001
,  // measure 76
0001
0010
3010
1000
,  // measure 77
0001
0010
1000
0010
,  // measure 78
0001
0100
1000
0100
,  // measure 79
0020
0000
0100
0000
,  // measure 80
0230
0302
2000
3003
,  // measure 81
0110
0220
0330
0000
,  // measure 82
1001
2002
3003
0000
,  // measure 83
1000
0000
0001
0000
1000
0000
0001
0000
1000
0000
0001
0000
,  // measure 84
0020
0100
0130
0000
,  // measure 85
2000
3002
0203
0320
,  // measure 86
2030
3002
0023
0130
,  // measure 87
1001
0000
0000
0000
,  // measure 88
0010
0000
0100
0000
0010
0000
0100
0000
0000
0000
0000
0000
,  // measure 89
1002
0000
0000
0000
0000
0000
0000
0000
0013
0000
0000
0010
0000
0000
0010
0000
,  // measure 90
0001
0100
1000
0100
,  // measure 91
0001
0000
1000
0001
1000
0000
0100
0000
,  // measure 92
0001
0000
0000
0000
0100
0000
0000
0000
0010
0000
0000
0010
0000
0000
0010
0000
,  // measure 93
0002
0000
0103
0010
,  // measure 94
0100
1000
0100
0001
,  // measure 95
1000
0000
0001
1000
0001
0000
0010
0000
,  // measure 96
0100
0010
1000
0010
,  // measure 97
0002
0000
0203
0010
,  // measure 98
0301
1000
0100
0010
,  // measure 99
0001
1000
0200
0010
,  // measure 100
1300
0001
0100
0010
,  // measure 101
2000
0000
0000
0000
0001
0000
0000
0000
3100
0000
0000
0100
0000
0000
0100
0000
,  // measure 102
0010
0000
0000
0010
0000
0000
0010
0000
0002
0000
0000
0000
0000
0000
0000
0000
,  // measure 103
0103
0000
0000
0100
0000
0000
0100
0000
0010
0000
0000
0010
0000
0000
0010
0000
,  // measure 104
2000
0000
3001
0010
,  // measure 105
0220
0000
0000
0000
,  // measure 106
0000
0000
0000
0330
,  // measure 107
1000
0001
1000
0001
1000
0001
1000
0001
,  // measure 108
0200
0310
1001
0000
;

//---------------dance-single - Daff_4K - 08.45----------------
#NOTES:
     dance-single:
     Daff_4K - 08.45:
     Hard:
     14:
     0.568747,0.694227,0.476326,0.831793,0.223944,560.000000,493.000000,67.000000,117.000000,0.000000,0.000000,0.568747,0.694227,0.476326,0.831793,0.223944,560.000000,493.000000,67.000000,117.000000,0.000000,0.000000:
// measure 0
0000
0000
0000
0000
,  // measure 1
0000
0000
0000
0000
,  // measure 2
0000
0000
0000
0000
,  // measure 3
0000
0000
0000
0000
,  // measure 4
0000
0000
0000
0000
,  // measure 5
2002
0000
0000
0000
,  // measure 6
0000
0000
0000
3003
,  // measure 7
0220
0000
0000
0000
,  // measure 8
0000
0330
1001
0000
,  // measure 9
2200
0300
3001
1000
,  // measure 10
2020
3000
0130
0010
,  // measure 11
1000
0001
1000
0001
0000
0000
1000
0000
0100
1000
0000
0001
,  // measure 12
1000
0000
0001
0010
0000
0100
2000
0000
0000
3001
0000
0000
,  // measure 13
0202
0300
1003
0001
,  // measure 14
0022
0003
0130
0010
,  // measure 15
0001
1000
0001
1000
0000
0000
0001
0000
0100
0001
0000
1000
,  // measure 16
0001
0000
1000
0010
0000
0100
0002
0000
0000
1003
0000
0000
,  // measure 17
0001
0000
0010
0000
0100
0000
2000
0000
0000
3001
0000
0000
,  // measure 18
2020
3000
0130
0001
,  // measure 19
1000
0100
1000
0100
0000
0010
0001
0000
1000
0001
0000
0100
,  // measure 20
0010
0000
0100
0001
0000
0010
0200
0000
0000
1300
0000
0000
,  // measure 21
1000
0000
0010
0000
0100
0000
0002
0000
0000
1003
0000
0000
,  // measure 22
0022
0003
0130
1000
,  // measure 23
0001
0100
0001
0100
0000
0010
1000
0000
0001
1000
0000
0100
,  // measure 24
0010
0000
0100
1000
0000
0010
0200
0000
0000
0301
0000
0000
,  // measure 25
0012
1003
0012
1003
,  // measure 26
0102
1003
0102
1003
,  // measure 27
2010
3001
2010
3001
,  // measure 28
2100
3001
2100
3001
,  // measure 29
1000
0100
0010
0001
1000
0100
0010
0001
,  // measure 30
0100
0010
1000
0001
0200
0000
0310
0000
,  // measure 31
2002
0000
0000
3003
,  // measure 32
0010
0000
0000
0000
0000
0100
0000
0000
0000
0000
0010
0000
0000
0000
0000
0000
0220
0000
0000
0000
0000
0000
0000
0000
0330
0000
0000
0000
0000
0000
0000
0000
,  // measure 33
2001
0000
3100
0000
1000
0010
0100
0100
,  // measure 34
0010
1000
0100
0100
0010
0001
1000
0000
,  // measure 35
1020
0000
0130
0000
0001
1000
0100
0100
,  // measure 36
1000
0010
0100
0100
0001
1000
0100
0000
,  // measure 37
1002
0000
0103
0000
0001
0010
0100
0100
,  // measure 38
0010
0001
0100
0100
0010
1000
0001
0000
,  // measure 39
0021
0000
0130
0000
1000
0001
0100
0100
,  // measure 40
0001
0010
0100
0100
1000
0001
0100
0000
,  // measure 41
2010
3001
0012
0103
,  // measure 42
0012
0000
0103
0000
0001
1000
0100
0010
,  // measure 43
0012
1003
2010
3100
,  // measure 44
2010
0000
3100
0000
1000
0001
0100
0010
,  // measure 45
2010
0000
0000
0000
3001
0000
0000
0000
1000
0000
0000
1100
0000
0000
0010
0000
,  // measure 46
0001
0000
0000
0101
0000
0000
0010
0000
2000
0000
0000
0000
3001
0000
0000
0000
,  // measure 47
0011
0000
0000
0100
0000
0000
1000
0000
1010
0000
0000
0100
0000
0000
0001
0000
,  // measure 48
0020
0000
0200
0330
,  // measure 49
2002
0000
0000
0000
,  // measure 50
0000
0000
0000
0003
,  // measure 51
0200
0000
0000
0000
,  // measure 52
0000
0000
0000
0000
3300
0000
1000
0001
,  // measure 53
2002
0000
0000
0000
,  // measure 54
0000
0000
0000
3000
,  // measure 55
0200
0000
0000
0000
,  // measure 56
0000
0000
0303
0000
0001
1000
0100
0010
,  // measure 57
0002
0100
2003
0100
,  // measure 58
3001
1000
0020
0000
0100
0000
1000
0000
,  // measure 59
0230
0000
0301
1000
0001
0000
0020
0000
,  // measure 60
0100
0000
0001
0000
0130
1000
0001
0000
,  // measure 61
2000
0100
3002
0100
,  // measure 62
1003
0001
0020
0000
0100
0000
0001
0000
,  // measure 63
0230
0000
1300
0001
1000
0000
0020
0000
,  // measure 64
0100
0000
0000
1000
0000
0000
0130
0000
0001
1000
0000
0001
,  // measure 65
2000
0000
0000
3100
0000
0020
0001
0000
0000
0100
0000
0000
,  // measure 66
0031
1000
0020
0000
0100
0000
1030
0000
,  // measure 67
0002
0000
0000
0013
0000
0001
2000
0000
0000
3020
0000
0000
,  // measure 68
0130
0000
1001
0000
0001
0010
0100
1000
,  // measure 69
0002
0000
0000
0103
0000
0020
1000
0000
0000
0100
0000
0000
,  // measure 70
1030
0001
0020
0000
0100
0000
0031
0000
,  // measure 71
2000
0000
0000
3010
0000
1000
0002
0000
0000
0023
0000
0000
,  // measure 72
0130
0000
1001
0000
1000
0001
0010
0000
,  // measure 73
2100
3001
2100
3001
,  // measure 74
2010
3001
2010
3001
,  // measure 75
0102
1003
0102
1003
,  // measure 76
0012
1003
0012
1003
,  // measure 77
0001
0010
0100
1000
0001
0010
0100
1000
,  // measure 78
0010
0100
0001
1000
0020
0000
0130
0000
,  // measure 79
2002
0000
0000
3003
,  // measure 80
0100
0000
0000
0000
0000
0010
0000
0000
0000
0000
0100
0000
0000
0000
0000
0000
0220
0000
0000
0000
0000
0000
0000
0000
0330
0000
0000
0000
0000
0000
0000
0000
,  // measure 81
1001
0000
0000
1001
0000
0000
1000
0001
1000
0001
0000
0000
,  // measure 82
1001
0000
0000
1001
0000
0000
0001
1000
0001
1000
0000
0000
,  // measure 83
0001
0000
0100
0000
1000
0000
0100
0000
0001
0000
0100
0000
,  // measure 84
0020
1030
2002
3003
,  // measure 85
0002
0023
2030
3200
,  // measure 86
0302
0023
0230
1300
,  // measure 87
1001
0000
0001
0100
1000
0100
0001
1000
,  // measure 88
0001
0000
0010
0000
0100
0000
2000
0000
0000
3001
0000
0000
,  // measure 89
1002
0000
0000
0000
0013
0000
0000
0000
0001
0000
0000
1000
0000
0000
0010
0000
,  // measure 90
0100
0001
1000
0001
0010
0001
1000
0001
,  // measure 91
0200
0000
0310
1000
0001
1000
0100
1000
,  // measure 92
0001
0000
1000
0000
0010
0000
0100
0000
0002
0000
0000
1000
0000
0000
1003
0000
,  // measure 93
0200
0000
0000
0000
0000
0000
0310
0000
0100
0000
0010
0000
0100
0000
0000
1000
0000
0000
0001
0000
0000
1000
0000
0000
,  // measure 94
0010
1000
0100
1000
0001
0010
0100
1000
,  // measure 95
0020
0000
0130
0001
1000
0001
0010
0001
,  // measure 96
0100
0001
1000
0010
0200
0000
0301
0000
,  // measure 97
2001
0000
3100
0020
0001
0000
0100
0000
,  // measure 98
0031
1000
0020
0000
0031
0000
0110
0000
,  // measure 99
1002
0000
0103
0020
1000
0000
0100
0000
,  // measure 100
1030
0001
0020
0000
1030
0010
0001
0100
,  // measure 101
0010
0000
1000
0000
0001
0000
0000
0000
1001
0000
0000
1000
0000
0000
0100
0000
,  // measure 102
0110
0000
0000
0010
0000
0000
0001
0000
1001
0000
0000
0000
0110
0000
0000
0000
,  // measure 103
1001
0000
0000
0001
0000
0000
0100
0000
0110
0000
0000
0010
0000
0000
1000
0000
,  // measure 104
1001
0000
0110
0000
0001
1000
0001
0000
,  // measure 105
2002
0000
0000
0000
,  // measure 106
0000
0000
0000
3003
,  // measure 107
1000
0000
0001
0000
1000
0000
0001
0000
1000
0000
0001
0000
1000
0000
0001
1000
,  // measure 108
0002
0203
1300
0000
;

//---------------dance-single - Daff_4K - 08.46----------------
#NOTES:
     dance-single:
     Daff_4K - 08.46:
     Challenge:
     16:
     0.724137,0.925636,0.881558,0.654059,0.447889,713.000000,589.000000,124.000000,92.000000,0.000000,0.000000,0.724137,0.925636,0.881558,0.654059,0.447889,713.000000,589.000000,124.000000,92.000000,0.000000,0.000000:
// measure 0
0000
0000
0000
0000
,  // measure 1
0000
0000
0000
0000
,  // measure 2
0000
0000
0000
0000
,  // measure 3
0000
0000
0000
0000
,  // measure 4
0000
0000
0000
0000
,  // measure 5
2002
0000
0000
0000
,  // measure 6
0000
0000
0000
3003
,  // measure 7
0220
0000
0000
0000
,  // measure 8
0000
0330
1001
0000
,  // measure 9
2200
3000
0301
1100
,  // measure 10
2020
3000
0031
1010
,  // measure 11
1000
0100
0010
0001
0000
1000
0010
0000
1000
0001
0000
1000
,  // measure 12
0100
0000
1000
0001
0000
0100
0010
0000
0000
1001
0000
0000
,  // measure 13
0202
0003
1300
0101
,  // measure 14
0022
0003
1030
0011
,  // measure 15
0001
0100
0010
1000
0000
0001
0010
0000
0001
1000
0000
0010
,  // measure 16
0100
0010
0100
0001
0010
0100
2000
0000
0000
3001
0000
0000
,  // measure 17
0011
0000
0001
0000
1000
0000
1020
0000
0000
0130
0000
0000
,  // measure 18
2002
0000
0000
0003
0000
0000
3100
0000
0000
0011
0000
0001
,  // measure 19
1000
0001
0100
0010
0000
1000
0001
0000
1000
0100
0000
0010
,  // measure 20
0001
0000
1000
0010
0000
0100
0002
0000
0000
1003
0000
0000
,  // measure 21
1010
0000
1000
0000
0001
0000
0021
0000
0000
0130
0000
0000
,  // measure 22
2002
0000
0000
3000
0000
0000
0103
0000
0000
1010
0000
1000
,  // measure 23
0001
1000
0100
0010
0000
0001
1000
0000
0001
0100
0000
0010
,  // measure 24
1000
0100
0010
0100
0010
0001
2000
0000
0000
3001
0000
0000
,  // measure 25
0011
0110
0011
0110
,  // measure 26
0011
0000
0000
0000
0110
0000
0000
0000
0011
0000
0000
0000
1001
0000
0000
1000
,  // measure 27
0010
0110
1010
0110
,  // measure 28
1010
0000
0000
0000
0110
0000
0000
0000
0010
1000
0010
0000
2000
0000
0000
0000
,  // measure 29
3001
0010
1000
0010
0001
0100
1000
0100
,  // measure 30
0001
0010
0100
1000
0020
0000
0130
0000
,  // measure 31
0001
0000
0000
1000
0000
0000
0001
0000
0000
1000
0000
0000
0001
0000
0000
1000
0000
0000
0001
0000
0000
1000
0000
0000
0100
0000
0000
0010
0000
0000
0100
0000
0000
0010
0000
0000
0001
0000
0000
0000
1000
0000
0000
0000
0001
0000
0000
0000
,  // measure 32
1000
0000
0000
0000
0000
0010
0000
0000
0000
0000
0100
0000
0000
0000
0000
0000
0002
0000
0000
0000
0000
0000
0000
0000
1003
0000
0000
0000
0000
0000
0000
0000
,  // measure 33
2001
0000
3100
0000
1000
0010
0100
0100
,  // measure 34
0010
0000
1000
0001
0010
0000
0100
0000
0100
0000
0010
0000
0001
0000
1000
0000
,  // measure 35
1020
0000
0130
0000
0001
1000
0100
0100
,  // measure 36
1000
0000
0001
0100
0010
0000
0010
0000
1000
0000
0100
0010
0001
0000
1000
0000
,  // measure 37
1002
0000
0103
0000
0001
0010
0100
0100
,  // measure 38
0010
0000
0001
1000
0010
0000
0100
0000
0100
0000
0010
0000
1000
0000
0001
0000
,  // measure 39
0021
0000
0130
0000
1000
0001
0100
0100
,  // measure 40
0001
0000
1000
0100
0010
0000
0010
0000
0002
0000
0000
0000
1003
0000
0000
0000
,  // measure 41
2010
3001
0021
0130
,  // measure 42
0012
0000
0000
0000
0103
0000
0000
0000
0010
0000
1000
0010
1000
0000
0001
0000
,  // measure 43
0012
1003
1020
0130
,  // measure 44
2010
0000
0000
0000
3100
0000
0000
0000
0010
0000
0001
0010
0001
0000
1000
0000
,  // measure 45
1002
0000
0000
0000
0103
0000
0000
0000
0011
0000
0000
1001
0000
0000
0011
0000
,  // measure 46
0011
0000
0000
1001
0000
0000
0101
0000
0201
0000
0000
0000
0310
0000
0000
0000
,  // measure 47
1010
0000
0000
1001
0000
0000
1010
0000
1010
0000
0000
1001
0000
0000
1100
0000
,  // measure 48
1200
0310
2002
3003
,  // measure 49
0202
0000
0000
0000
,  // measure 50
0000
0000
0000
0003
,  // measure 51
0020
0000
0000
0000
,  // measure 52
0000
0000
0000
0000
0330
0000
0010
1000
,  // measure 53
2200
0000
0000
0000
,  // measure 54
0000
0000
0000
3000
,  // measure 55
0020
0000
0000
0000
,  // measure 56
0000
0000
0000
0000
0330
0000
0000
0000
0010
0001
0010
0000
0001
0000
1000
0000
,  // measure 57
1020
0000
0130
0002
1000
0000
0013
0100
,  // measure 58
1000
0001
0200
0000
0310
0000
1010
0000
,  // measure 59
1002
0000
0013
0100
2000
0000
3001
0100
,  // measure 60
1000
0100
0001
0010
0100
1000
0001
0000
,  // measure 61
0021
0000
0130
2000
0001
0000
3010
0100
,  // measure 62
0001
1000
0200
0000
0310
0000
0011
0000
,  // measure 63
2001
0000
3010
0100
0002
0000
1003
0100
,  // measure 64
0001
0000
0000
0100
0000
0000
1000
0000
0000
0001
0000
0000
0100
0000
0010
0000
0100
0000
0010
0000
0000
0000
1000
0000
,  // measure 65
0002
0000
0000
0103
0000
0020
1000
0000
0000
0100
0000
0000
,  // measure 66
1030
0000
0001
1000
0002
0000
0000
0000
0013
0000
0000
0000
1100
0000
0000
0000
,  // measure 67
1002
0000
0000
0000
0000
0000
0000
0000
0000
0000
0000
0000
0103
0000
0000
0000
0000
0000
0000
0000
0010
0000
0000
0000
2000
0000
0000
0000
0000
0000
0000
0000
0000
0000
0000
0000
3100
0000
0000
0000
0000
0000
0010
0000
0000
0100
0000
0000
,  // measure 68
0020
0000
0001
0000
0130
1000
0001
0000
,  // measure 69
2001
0000
0000
3100
0000
0020
0001
0000
0000
0100
0000
0000
,  // measure 70
0031
0000
1000
0001
2000
0000
0000
0000
3010
0000
0000
0000
0101
0000
0000
0000
,  // measure 71
2001
0000
0000
0000
0000
0000
3100
0000
0000
0000
0010
0000
0002
0000
0000
0000
0000
0000
0103
0000
0000
0010
0000
0000
,  // measure 72
2000
0000
0000
0000
3100
0010
0100
0000
0010
0000
0001
0000
1000
0000
0000
0000
,  // measure 73
1010
0110
1010
0110
,  // measure 74
1010
0000
0000
0000
0110
0000
0000
0000
1010
0000
0000
0000
1001
0000
0000
0001
,  // measure 75
0010
0110
0011
0110
,  // measure 76
0011
0000
0000
0000
0110
0000
0000
0000
0010
0001
0010
0000
0002
0000
0000
0000
,  // measure 77
1003
0010
0001
0010
1000
0100
0001
0100
,  // measure 78
1000
0010
0100
0001
0020
0000
0130
0000
,  // measure 79
1000
0000
0000
0001
0000
0000
1000
0000
0000
0001
0000
0000
1000
0000
0000
0001
0000
0000
1000
0000
0000
0001
0000
0000
0100
0000
0000
0010
0000
0000
0100
0000
0000
0010
0000
0000
1000
0000
0000
0000
0001
0000
0000
0000
1000
0000
0000
0000
,  // measure 80
0001
0000
0000
0000
0000
0010
0000
0000
0000
0000
0100
0000
0000
0000
0000
0000
2000
0000
0000
0000
0000
0000
0000
0000
3001
0000
0000
0000
0000
0000
0000
0000
,  // measure 81
1001
0000
0000
1001
0000
0000
0001
0100
0010
1000
0000
0000
,  // measure 82
1001
0000
0000
1001
0000
0000
1000
0100
0010
0001
0000
0000
,  // measure 83
0101
0000
0110
0000
1010
0000
1100
0000
0110
0000
0011
0000
,  // measure 84
1001
0020
0200
0330
,  // measure 85
1001
0000
1000
0100
0000
0100
0001
0000
0001
1000
0000
1000
,  // measure 86
0010
0000
0010
0001
0000
0001
0200
0000
0000
0310
0000
0000
,  // measure 87
1001
0000
1000
0100
0001
0100
1000
0001
,  // measure 88
0101
0000
0110
0000
1010
0000
2002
0000
0000
3003
0000
0000
,  // measure 89
0021
0000
0000
0000
1030
0000
0000
0000
0110
0000
0000
1001
0000
0000
0001
0000
,  // measure 90
1000
0010
0001
0010
1000
0010
0001
1000
,  // measure 91
0200
0000
0000
0000
0310
0000
1000
0001
1000
0000
0001
0000
0010
0000
1000
0000
,  // measure 92
0010
0000
0001
0000
0010
0000
1000
0000
0010
0000
0000
0110
0000
0000
1001
0000
,  // measure 93
0001
0000
0000
0000
0000
0000
1000
0000
0000
0001
0000
0000
1000
0000
0000
0000
0100
0000
0000
0000
0010
0000
0000
0000
0001
0000
0000
0000
0000
0000
0100
0000
0000
0000
0000
0000
1000
0000
0000
0000
0000
0000
0100
0000
0000
0000
0000
0000
,  // measure 94
0001
0000
0100
0000
1000
0000
0100
0000
0002
0000
1000
0000
1003
0000
0100
0010
,  // measure 95
0200
0000
0000
0000
0310
0000
0001
1000
0001
0000
1000
0000
0100
0000
0001
0000
,  // measure 96
0100
0000
1000
0000
0001
1000
0001
0000
0200
0000
0000
0000
0310
0000
0000
0000
,  // measure 97
1002
0000
0013
0200
1000
0000
0010
0000
,  // measure 98
1300
0000
0001
1000
0002
0000
0000
0000
0103
0000
0010
0000
1000
0000
0000
0000
,  // measure 99
2001
0000
3010
0200
0001
0000
0010
0000
,  // measure 100
0301
0000
1000
0001
2000
0000
0000
0000
3100
0000
0010
0000
0001
0000
0100
0000
,  // measure 101
0010
0000
0000
1000
0000
0000
0001
0000
0000
1000
0000
0000
0001
0000
0000
0000
0010
0000
0000
0000
0100
0000
0000
0000
1000
0000
0000
0000
0000
0000
0000
0000
0000
1001
0000
0000
0000
0000
0000
0000
0000
0000
1100
0000
0000
0000
0000
0000
,  // measure 102
1100
0000
0000
1001
0000
0000
0101
0000
0201
0000
0000
0000
0310
0000
0000
0000
,  // measure 103
0101
0000
0000
1001
0000
0000
0101
0000
0101
0000
0000
1001
0000
0000
1100
0000
,  // measure 104
1200
0000
0000
0000
0310
0001
1000
0001
1000
0000
0010
0000
0100
0000
0000
0000
,  // measure 105
2002
0000
0000
0000
,  // measure 106
0000
0000
0000
3003
,  // measure 107
0001
0000
1000
0000
0001
0000
1000
0000
0001
1000
0001
1000
0001
1000
0001
1000
,  // measure 108
0001
0201
1300
0000
;
