#VERSION:0.83;
#TITLE:MAGICAL VOICE SHOWER;
#SUBTITLE:;
#ARTIST:ウッチーズ;
#TITLETRANSLIT:;
#SUBTITLETRANSLIT:;
#ARTISTTRANSLIT:Ucchies;
#GENRE:A CAPPELLA;
#CREDIT:;
#MUSIC:MAGICAL VOICE SHOWER.ogg;
#BANNER:MAGICAL VOICE SHOWER.png;
#BACKGROUND:MAGICAL VOICE SHOWER-bg.png;
#CDTITLE:;
#SAMPLESTART:9.500;
#SAMPLELENGTH:15.000;
#SELECTABLE:YES;
#OFFSET:0.000;
#BPMS:0.000=120.000;
#STOPS:;
#TIMESIGNATURES:0.000=4=4;
#BGCHANGES:;
#FGCHANGES:;

//--------------- dance-single - Extraordiberry ----------------
#NOTEDATA:;
#STEPSTYPE:dance-single;
#DESCRIPTION:Extraordiberry;
#DIFFICULTY:Beginner;
#METER:2;
#RADARVALUES:0,0,0,0,0;
#CREDIT:Extraordiberry;
#NOTES:
0000
0000
0000
0000
,
0000
0000
0000
0000
,
0000
0000
0000
0000
,
1000
0000
0000
0000
,
0001
0000
0000
0000
,
1000
0000
1000
0000
,
0001
0000
0001
0000
,
0100
0000
0000
0000
,
0010
0000
0000
0000
,
1000
0000
1000
0000
,
0001
0000
0001
0000
,
0010
0000
0000
0000
,
0100
0000
0000
0000
,
1000
0000
0000
0000
,
0001
0000
0000
0000
,
0100
0000
0000
0000
,
0010
0000
0000
0000
,
1000
0000
1000
0000
,
0001
0000
0000
0000
,
1000
0000
1000
0000
,
0001
0000
0000
0000
,
1000
1000
1000
0000
,
0000
0000
1000
0000
,
0001
0001
0001
0000
,
0000
0000
0001
0000
,
1000
0000
0000
0000
,
0100
0000
0000
0000
,
0010
0000
0000
0000
,
0001
0000
0000
0000
,
1001
0000
0000
0000
,
1000
0000
0000
0000
,
1001
0000
0000
0000
,
0001
0000
0000
0000
,
1001
0000
0000
0000
,
1000
0000
0000
0000
,
1001
0000
0000
0000
,
0000
0000
0000
0000
,
0001
0001
0001
0000
,
0100
0100
0100
0000
,
0010
0010
0010
0000
,
1000
0000
0000
0000
,
1000
1000
1000
0000
,
0100
0100
0100
0000
,
0010
0010
0010
0000
,
0001
0000
0000
0000
,
1000
0000
0000
0000
,
0001
0000
0000
0000
,
0100
0000
0000
0000
,
0010
0000
0000
0000
,
1000
1000
1000
0000
,
0001
0001
0001
0000
,
1000
0000
0000
0000
,
0002
0000
0000
0000
,
0000
0000
0000
0003
,
0000
0000
0000
0000
,
1001
0000
0000
0000
;

//--------------- dance-single - Extraordiberry ----------------
#NOTEDATA:;
#STEPSTYPE:dance-single;
#DESCRIPTION:Extraordiberry;
#DIFFICULTY:Easy;
#METER:6;
#RADARVALUES:0,0,0,0,0;
#CREDIT:Extraordiberry;
#NOTES:
0000
0000
0000
0000
,
0000
0000
0000
0000
,
0000
0000
0000
0000
,
1000
1000
0001
0001
,
1000
0001
1000
0000
,
0001
1000
1001
0000
,
0010
0100
0110
0000
,
1000
0100
0010
0000
,
0001
0100
0010
0000
,
1000
0001
1001
0000
,
0100
0010
0110
0000
,
0001
0001
0100
0100
,
0020
0000
0000
0030
,
1000
1000
0001
0001
,
1000
0000
0100
0000
,
1000
1000
0001
0001
,
1000
0000
0010
0000
,
1000
1000
0100
0100
,
0010
0000
0100
0000
,
1000
0000
0001
0000
,
2002
0000
0000
3003
,
1000
0100
0110
0000
,
0001
0010
0100
1000
,
0001
0100
0110
0000
,
1000
0100
0010
0001
,
1000
1000
0001
0001
,
0100
0000
0010
0000
,
1000
0000
0001
1000
,
2002
0000
0000
3003
,
1100
0000
0000
0000
,
0011
0000
0000
0000
,
0110
0000
0000
0000
,
1001
0000
0001
0100
,
0101
0000
0000
0000
,
1010
0000
0000
0000
,
0110
0000
1001
0000
,
0000
0000
0000
0000
,
1000
0100
1100
0000
,
0001
0010
0011
0000
,
0001
0100
0101
0000
,
1010
0000
1000
1000
,
0001
0010
0011
0000
,
1000
0010
1010
0000
,
1000
0100
1100
0000
,
0002
0000
1003
0000
,
0002
0000
0013
0000
,
0200
0000
1300
0000
,
0001
0001
0100
0100
,
0020
0000
0000
0030
,
1000
0010
1010
0000
,
0001
0010
0011
0000
,
1000
1000
0001
0001
,
0200
0000
0000
0300
,
0020
0000
0000
0030
,
1000
1000
0001
0001
,
1001
0000
0000
0000
0000
0000
0000
1001
;

//--------------- dance-single - Extraordiberry ----------------
#NOTEDATA:;
#STEPSTYPE:dance-single;
#DESCRIPTION:Extraordiberry;
#DIFFICULTY:Medium;
#METER:12;
#RADARVALUES:0,0,0,0,0;
#CREDIT:Extraordiberry;
#NOTES:
0000
0000
0000
0000
,
0000
0000
0000
0000
,
0000
0000
0000
0000
,
1000
0000
0000
0001
0000
0000
1000
0000
0000
0000
0001
0000
0000
1000
0000
0000
,
0001
0100
0000
0010
0000
1000
0000
0001
0000
1000
0000
0100
0010
0000
0001
0000
,
0101
0000
0000
0000
0110
0000
0000
1010
0000
0000
0000
0000
0000
0000
1000
0000
,
1100
0000
0000
0100
0000
0010
0000
0001
0000
0000
0000
0000
0000
0000
0001
0000
,
0101
0000
0000
0100
0000
0010
0000
2000
0000
0000
0000
0000
3001
0000
1000
0000
,
0200
0000
0000
0320
0000
0000
0031
0000
2000
0000
0000
0000
3001
0000
0100
0000
,
0101
0000
0000
0000
0110
0000
0000
1010
0000
0000
0000
0000
0000
0000
0001
0000
,
0011
0000
0000
0010
0000
0100
0000
0000
1100
0000
0000
0000
1000
0000
0001
0000
,
0200
0000
0000
0320
0000
0000
1030
0000
0002
0000
0000
0013
0000
0100
0000
0000
,
2000
0010
0001
3100
,
1000
0000
0000
0100
0000
0000
0010
0000
0100
0000
0000
1000
0000
1000
0000
0000
,
0001
0000
0100
0010
0000
0010
1000
0000
0002
0000
0000
0000
1003
0000
0000
0000
,
0001
0000
0000
0010
0000
0000
0100
0000
0010
0000
0000
0001
0000
0001
0000
0000
,
1000
0000
0010
0100
0000
0100
0001
0000
2000
0000
0000
0000
3001
0000
0000
0000
,
2000
0000
0000
0100
0000
0000
3001
0000
1000
0000
0000
0010
0000
0010
0000
0000
,
1000
0000
0001
0010
0000
0010
0100
0000
2000
0000
0000
0000
3001
0000
0000
0000
,
1000
0000
0000
0010
0000
0000
0100
0000
0001
1000
0001
0000
1000
0001
1000
0000
,
0200
0000
0310
1001
,
0002
0000
0000
0010
0000
0010
0000
2003
0000
0000
0000
0000
3001
0000
1000
0000
,
0001
0000
0000
0010
0001
1000
0000
1000
0000
0000
0001
0000
0100
0000
0010
0000
,
2000
0000
0000
0010
0000
0010
0000
3002
0000
0000
0000
0000
1003
0000
0001
0000
,
1000
0000
0000
0010
1000
0001
0000
0001
0000
0000
1000
0000
0100
0000
0010
0000
,
0001
0000
0000
0100
0000
0000
0010
0000
1000
0000
0000
0001
0000
0000
1000
0000
,
0100
0000
0010
0001
0000
0001
1000
0000
0002
0000
0000
0000
0103
0000
0001
0000
,
1000
0000
0000
0100
0000
0000
0010
0000
0011
0000
0000
0000
0110
0000
0000
0000
,
2002
0000
0000
3003
,
0201
0000
0000
0010
0000
0000
0000
0301
0000
0000
0000
0000
0000
0000
0000
0000
,
1200
0000
0000
0010
0000
0000
0000
1300
0000
0000
0000
0000
0000
0000
0000
0000
,
1020
0000
0000
0100
0000
0000
0000
1030
0000
0000
0000
0000
0000
0000
0000
0000
,
2002
0000
0000
3003
,
0210
0000
0000
1000
0000
0000
0000
0301
0000
0000
0000
0000
0000
0000
0000
0000
,
0210
0000
0000
0001
0000
0000
0000
1300
0000
0000
0000
0000
0000
0000
0000
0000
,
1002
0000
0000
0000
2000
0000
0000
3003
,
0000
0001
0000
1000
0001
1000
0000
0001
1000
0000
0000
0001
0000
0000
0000
0000
,
2010
0000
0000
0010
0000
0010
0000
0001
0000
0001
0000
3100
0000
1000
0000
0002
,
0000
0000
0000
0010
0000
0010
0000
1000
0000
1000
0000
0103
0000
0001
0000
2000
,
0000
0000
0000
0010
0000
0010
0000
0001
0000
0001
0000
3100
0000
1000
0000
0000
,
0002
0000
1003
1001
,
1200
0000
0000
0001
0000
0001
0000
0010
0000
0010
0000
1300
0000
0001
0000
0200
,
0000
0000
0000
1000
0000
1000
0000
0010
0000
0010
0000
0301
0000
1000
0000
0200
,
0000
0000
0000
0001
0000
0001
0000
0010
0000
0010
0000
1300
0000
0000
0000
0000
,
0001
0000
1000
0001
0000
0001
1000
0000
0002
0000
0000
0000
0000
0000
0000
0000
,
2003
0000
0001
0000
,
3200
0000
1000
0000
,
0320
0000
0032
0000
,
2000
0000
0000
3003
,
2010
0000
0010
0010
0001
0001
3100
0000
,
0012
0000
0010
0010
1000
1000
0103
0000
,
0001
0000
0000
0100
0000
0000
0010
0000
1000
0000
0000
0001
0000
0000
1000
0000
,
2000
0000
3200
0000
,
0320
0000
0032
0000
,
1003
0000
0000
0001
0000
0000
1000
0000
0000
0000
0001
0000
0000
1000
0000
0000
,
1100
0000
0000
1100
0000
0000
0000
0000
0000
0100
0000
0010
0000
0000
2002
0000
,
0000
0000
3003
0000
;

//--------------- dance-single - Extraordiberry ----------------
#NOTEDATA:;
#STEPSTYPE:dance-single;
#DESCRIPTION:Extraordiberry;
#DIFFICULTY:Hard;
#METER:15;
#RADARVALUES:0,0,0,0,0;
#CREDIT:Extraordiberry;
#NOTES:
0000
0000
0000
0000
,
0000
0000
0000
0000
,
0000
0000
0000
0000
,
1000
0000
0000
1000
0000
0000
1000
0000
0000
0000
1000
0000
0000
1000
0000
0000
,
0001
0001
1000
0001
1000
0001
0000
1000
0000
0001
0000
1000
0001
0000
0100
0000
,
0101
0000
0000
0000
0110
0000
0000
1010
0000
0000
1000
0000
0001
0000
0010
0000
,
0011
0000
0000
0110
0000
1100
0000
1001
0000
1000
0001
0000
0100
0000
0010
0000
,
1010
0000
0000
0110
0000
0101
0000
2001
0000
0000
0000
0000
3100
0000
0010
0000
,
0110
0000
0000
0011
0000
0000
0101
0000
0120
0000
0000
0000
1030
0000
0100
0000
,
1100
0000
0000
0000
0110
0000
0000
0011
0000
0000
0001
0000
1000
0000
0010
0000
,
1010
0000
0000
0110
0000
0101
0000
0000
2001
0000
0000
0000
3100
0000
0010
0000
,
0012
0000
0000
1000
0000
0000
0103
0000
0201
0000
0000
0001
0000
0310
0000
0000
,
2010
0010
0001
3100
,
1000
0000
0100
0010
0000
0010
0001
0000
1000
0010
0000
0010
0100
0001
1000
0000
,
0100
0000
0010
0001
0000
0001
1000
0000
1020
0000
0000
0000
0130
0000
0000
0000
,
0001
0000
0100
0010
0000
0010
1000
0000
0001
0010
0000
0010
0100
1000
0001
0000
,
0100
0000
0010
1000
0000
1000
0001
0000
0021
0000
0000
0000
0130
0000
0000
0000
,
1000
0000
0200
0010
0000
1300
0001
0000
2000
0010
0000
3001
1000
0100
0010
0000
,
0001
0000
1000
0010
0000
0010
0100
0000
0102
0000
0000
0000
1003
0000
0000
0000
,
0200
0000
0000
0320
0000
0000
0032
0000
1003
0010
0100
0000
0100
0010
1000
0000
,
2100
3001
0110
1001
,
1000
0100
0020
0001
0000
0130
0010
0002
0000
1000
0000
1003
0001
0000
0100
0000
,
0010
0000
1000
0001
0020
0100
0000
0032
0000
0000
1003
0000
0010
0000
0100
0000
,
0001
0100
0020
1000
0000
0130
0010
2000
0000
0001
0000
3001
1000
0000
0100
0000
,
0010
0000
0001
1000
0020
0100
0000
2030
0000
0000
3001
0000
0010
0000
0100
0000
,
1000
0000
0100
0010
0000
0010
0001
0000
1000
0010
0000
0010
0100
0001
1000
0000
,
0100
0000
0010
0001
0000
0001
0100
0000
0102
0000
0000
0000
0103
0000
0010
0000
,
2000
0000
0000
0001
0000
0000
3100
0000
1100
0000
0000
0000
0110
0000
0000
0000
,
2002
0000
0000
0000
0000
0000
3003
0000
0000
1000
0000
0001
0100
0000
1000
0000
,
1100
0000
0000
0000
,
0011
0000
0000
0000
,
0110
0000
0000
0000
,
1001
0000
0000
0001
0000
1000
0000
0001
0010
0100
0000
0100
0010
0100
0001
0000
,
0101
0000
0000
0000
,
1010
0000
0000
0000
,
2000
3020
0032
2003
,
3000
0001
0000
0100
0010
1000
0000
1000
0100
0000
0000
1001
0000
0000
0000
0000
,
1000
0010
0100
1000
0000
1000
0001
0010
0000
0010
0100
1000
0000
0100
0000
0010
,
0000
1000
0001
0010
0000
0010
0100
1000
0000
1000
0001
0010
0000
0001
0000
1000
,
0000
0100
0010
1000
0000
1000
0001
0100
0000
0100
0010
1000
0000
0002
0000
0000
,
0103
0000
1000
0001
0000
0001
0100
0000
0110
0000
0000
0000
1001
0000
0000
0000
,
1000
0010
0200
1000
0000
0310
0002
1000
0000
0013
0100
1000
0000
0100
0000
0010
,
0000
1000
0002
0010
0000
1003
0200
0010
0000
1300
0001
0010
0000
0001
0000
1000
,
0000
0100
0020
1000
0000
0130
0002
1000
0000
0103
0010
2000
0000
0000
0000
0000
,
3010
0000
0100
1000
0000
1000
0001
0000
1001
0000
0000
0000
0001
0000
0100
0000
,
0020
0000
0000
2030
0000
0000
0001
0000
3001
0000
0000
0000
1000
0000
0100
0000
,
0020
0000
0000
0032
0000
0000
1000
0000
1003
0000
0000
0000
0001
0000
1000
0000
,
0020
0000
0000
0100
0000
0000
1030
0000
0002
0000
0000
0010
0000
0000
1003
0000
,
2001
0000
0000
0000
0000
0000
3001
1000
,
0001
0010
0200
0001
0000
0310
2000
0001
0000
3010
0100
0001
0100
0000
1000
0000
,
0001
0100
0020
0001
0000
0130
2000
0001
0000
3100
0010
0001
0010
0000
1000
0000
,
0002
0000
0000
0010
0000
0000
1003
0000
0020
0000
0000
0100
0000
0000
1030
0000
,
0002
0000
0020
0003
,
0200
0030
2000
0300
,
3001
0000
0000
0001
0000
0000
0001
0000
0000
0000
0001
0000
0000
0001
0000
0000
,
0101
0000
0000
0101
0000
0000
0000
0000
0000
0110
0000
1010
0000
0000
2002
0000
,
0000
0000
3003
0000
;

//--------------- dance-double - Extraordiberry ----------------
#NOTEDATA:;
#STEPSTYPE:dance-double;
#DESCRIPTION:Extraordiberry;
#DIFFICULTY:Easy;
#METER:7;
#RADARVALUES:0,0,0,0,0;
#CREDIT:Extraordiberry;
#NOTES:
00000000
00000000
00000000
00000000
,
00000000
00000000
00000000
00000000
,
00000000
00000000
00000000
00000000
,
00010000
00010000
00001000
00001000
,
00010000
00001000
00010000
00000000
,
00001000
00010000
00000100
00000000
,
00001000
00000001
00000100
00000000
,
00000001
00000100
00000010
00000100
,
00001000
00010000
00001000
00000000
,
00010000
00001000
01000000
00000000
,
00010000
10000000
01000000
00000000
,
10000000
01000000
00010000
00001000
,
00020000
00000000
00031000
00000000
,
00010000
00000000
00001000
00000000
,
00000010
00000001
00001000
00000000
,
00000001
00000000
00000100
00000000
,
00001000
00010000
00001000
00000000
,
00010000
00100000
10000000
00000000
,
00010000
10000000
01000000
00000000
,
00010000
00001000
00010000
00100000
,
20000000
00000000
30010000
00000000
,
10000000
01000000
00100000
01000000
,
00010000
00001000
00010000
00000000
,
00001000
00000010
00000100
00000010
,
00000001
00001000
00000001
00000000
,
00000100
00000000
00001000
00000000
,
00010000
00001000
00010000
00000000
,
00001000
00001000
00000010
00000001
,
00002002
00000000
00000000
00003003
,
00010010
00000000
00000000
00000000
,
00011000
00000000
00000000
00000000
,
01001000
00000000
00000000
00000000
,
10010000
00000000
00000000
00000000
,
00101000
00000000
00000000
00000000
,
00011000
00000000
00000000
00000000
,
00010100
00000000
00001100
00000000
,
00000000
00000000
00000000
00000000
,
00000100
00010000
00010100
00000000
,
00001000
00010000
00011000
00000000
,
01000000
00001000
01001000
00000000
,
00002000
00000000
00013000
00001000
,
00100000
00001000
00101000
00000000
,
00010000
00001000
00011000
00000000
,
00000010
00010000
00010010
00000000
,
00002000
00000000
00013000
00000000
,
00002000
00000000
00013000
00000000
,
00200000
00000000
10300000
00000000
,
00010000
10000000
01000000
00000000
,
00020000
00000000
00031000
00000000
,
00100000
00001000
00101000
00000000
,
00000010
00010000
00010010
00000000
,
00020000
00000000
00032000
00000000
,
00023000
00000000
00000000
00000000
,
00002000
00000000
00000000
00033000
,
00001000
00001000
00010000
00010000
,
00011000
00000000
00000000
00000000
00000000
00000000
00000000
00011000
;

//--------------- dance-double - Extraordiberry ----------------
#NOTEDATA:;
#STEPSTYPE:dance-double;
#DESCRIPTION:Extraordiberry;
#DIFFICULTY:Medium;
#METER:12;
#RADARVALUES:0,0,0,0,0;
#CREDIT:Extraordiberry;
#NOTES:
00000000
00000000
00000000
00000000
,
00000000
00000000
00000000
00000000
,
00000000
00000000
00000000
00000000
,
00010000
00000000
00000000
00001000
00000000
00000000
00010000
00000000
00000000
00000000
00001000
00000000
00000000
00010000
00000000
00000000
,
00001000
00010000
00000000
00001000
00000000
00010000
00000000
00001000
00000000
00010000
00000000
00001000
00010000
00000000
00001000
00000000
,
00020000
00000000
00000000
00000000
00230000
00000000
00000000
10300000
00000000
00000000
00010000
00000000
10000000
00000000
00010000
00000000
,
20000000
00000000
00000000
32000000
00000000
00010000
00000000
03010000
00000000
00000000
00001000
00000000
00010000
00000000
00001000
00000000
,
00000020
00000000
00000000
00000032
00000000
00001000
00000000
00002003
00000000
00000000
00000000
00000000
00003010
00000000
00000100
00000000
,
00002000
00000000
00000000
00023000
00000000
00000000
00031000
00000000
00000020
00000000
00000000
00000000
00000031
00000000
00001000
00000000
,
00000002
00000000
00000000
00000000
00000203
00000000
00000000
00001300
00000000
00000000
00010000
00000000
00001000
00000000
00010000
00000000
,
00200000
00000000
00000000
10000000
00000000
20300000
00000000
00000000
30020000
00000000
00000000
00000000
10030000
00000000
00010000
00000000
,
20000000
00000000
00000000
32000000
00000000
00000000
03010000
00000000
00002000
00000000
00000000
00013000
00000000
00200000
00000000
00000000
,
20300000
00010000
32000000
00100000
,
03010000
00000000
00000000
00001000
00000000
00000000
00010000
00000000
00100000
00000000
00000000
10000000
00000000
10000000
00000000
00000000
,
00020000
00000000
00000000
00230000
00000000
00000000
00301000
00000000
00020000
00000000
00000000
00000000
00031000
00000000
00000000
00000000
,
00001000
00000000
00000000
00010000
00000000
00000000
00001000
00000000
00000010
00000000
00000000
00000001
00000000
00000001
00000000
00000000
,
00002000
00000000
00000000
00003020
00000000
00000000
00010030
00000000
00002000
00000000
00000000
00000000
00013000
00000000
00000000
00000000
,
00002000
00000000
00000000
00010000
00000000
00000000
01003000
00000000
00010000
00000000
00000000
10000000
00000000
10000000
00000000
00000000
,
00020000
00000000
00000000
00230000
00000000
00000000
00301000
00000000
00020000
00000000
00000000
00000000
00031000
00000000
00000000
00000000
,
00020000
00000000
00000000
00230000
00000000
00000000
10300000
00000000
10100000
00000000
00000000
00000000
01010000
00000000
00000000
00000000
,
10020000
00000000
00130000
00001000
,
00020000
00000000
00000000
00001000
00000000
00001000
00000000
00030200
00000000
00000000
00000000
00000000
00001300
00000000
00001000
00000000
,
00000100
00000000
00000000
00010000
00001000
00010000
00000000
00000200
00000000
00000000
00001300
00000000
00000100
00000000
00010000
00000000
,
00002000
00000000
00000000
00010000
00000000
00010000
00000000
02003000
00000000
00000000
00000000
00000000
03010000
00000000
00010000
00000000
,
01000000
00000000
00000000
00001000
00010000
00001000
00000000
02000000
00000000
00000000
03010000
00000000
01000000
00000000
00001000
00000000
,
00010000
00000000
00000000
00001000
00000000
00000000
00010000
00000000
00100000
00000000
00000000
10000000
00000000
00000000
00010000
00000000
,
00100000
00000000
00001000
00010000
00000000
00010000
00001000
00000000
00020000
00000000
00000000
00000000
00031000
00000000
00000010
00000000
,
00000002
00000000
00000000
00002003
00000000
00000000
00003010
00000000
00001010
00000000
00000000
00000000
00010010
00000000
00000000
00000000
,
00022000
00000000
00000000
00033000
,
00020000
00000000
00000000
00100000
00000000
00000000
00000000
00031000
00000000
00000000
00000000
00000000
00000000
00000000
00000000
00000000
,
00002000
00000000
00000000
00000010
00000000
00000000
00000000
00013000
00000000
00000000
00000000
00000000
00000000
00000000
00000000
00000000
,
00002000
00000000
00000000
00000100
00000000
00000000
00000000
00013000
00000000
00000000
00000000
00000000
00000000
00000000
00000000
00000000
,
00022000
00000000
00000000
00033000
,
00020000
00000000
00000000
01000000
00000000
00000000
00000000
00031000
00000000
00000000
00000000
00000000
00000000
00000000
00000000
00000000
,
00002000
00000000
00000000
00000100
00000000
00000000
00000000
00013000
00000000
00000000
00000000
00000000
00000000
00000000
00000000
00000000
,
00020000
00100000
20030000
00000000
,
30000000
01000000
00000000
00010000
10000000
00010000
00000000
10000000
00010000
00000000
00000000
00100000
00000000
00000000
00000000
00000000
,
00021000
00000000
00000000
00001000
00000000
00001000
00000000
00100000
00000000
00100000
00000000
00031000
00000000
00010000
00000000
00002000
,
00000000
00000000
00000000
00010000
00000000
00010000
00000000
00000010
00000000
00000010
00000000
00013000
00000000
00001000
00000000
00020000
,
00000000
00000000
00000000
00001000
00000000
00001000
00000000
01000000
00000000
01000000
00000000
00031000
00000000
00010000
00000000
00000000
,
00002000
00000000
00013000
00011000
,
00002000
00000000
00000000
00010000
00000000
00010000
00000000
00000100
00000000
00000100
00000000
00013000
00000000
00001000
00000000
00020000
,
00000000
00000000
00000000
00001000
00000000
00001000
00000000
01000000
00000000
01000000
00000000
00031000
00000000
00010000
00000000
00002000
,
00000000
00000000
00000000
00000010
00000000
00000010
00000000
00000001
00000000
00000001
00000000
00003010
00000000
00000000
00000000
00000000
,
00001000
00000000
00010000
00001000
00000000
00001000
00010000
00000000
00002000
00000000
00000000
00000000
00000000
00000000
00000000
00000000
,
00023000
00000000
00100000
00000000
,
00032000
00000000
00000010
00000000
,
00023000
00000000
00000010
00000000
,
00002000
00000000
00000000
00033000
,
00021000
00000000
00001000
00001000
00100000
00100000
00031000
00000000
,
00012000
00000000
00010000
00010000
00000010
00000010
00013000
00000000
,
00002000
00000000
00000000
00023000
00000000
00000000
00130000
00000000
20000000
00000000
00000000
30020000
00000000
00000000
00130000
00000000
,
00002000
00000000
00000010
00000000
,
00023000
00000000
00100000
00000000
,
00031000
00000000
00000000
00010000
00000000
00000000
00001000
00000000
00000000
00000000
00010000
00000000
00000000
00001000
00000000
00000000
,
00100000
00000000
00000000
00010000
00000000
00000000
00000000
00000000
00000000
01000000
00000000
00001000
00000000
00000000
00022000
00000000
,
00000000
00000000
00033000
00000000
;

//--------------- dance-double - Extraordiberry ----------------
#NOTEDATA:;
#STEPSTYPE:dance-double;
#DESCRIPTION:Extraordiberry;
#DIFFICULTY:Hard;
#METER:15;
#RADARVALUES:0,0,0,0,0;
#CREDIT:Extraordiberry;
#NOTES:
00000000
00000000
00000000
00000000
,
00000000
00000000
00000000
00000000
,
00000000
00000000
00000000
00000000
,
00010000
00000000
00000000
00001000
00000000
00000000
00010000
00000000
00000000
00000000
00001000
00000000
00000000
00010000
00000000
00000000
,
00001000
00001000
00010000
00001000
00010000
00001000
00000000
00010000
00000000
00001000
00000000
00010000
00001000
00000000
01000000
00000000
,
01010000
00000000
00000000
00000000
01100000
00000000
00000000
10100000
00000000
00000000
00100000
00000000
10000000
00000000
00010000
00000000
,
00110000
00000000
00000000
00100000
00000000
00001000
00000000
00011000
00000000
00010000
00001000
00000000
00010000
00000000
00000100
00000000
,
00001100
00000000
00000000
00001000
00000000
00000001
00000000
00000201
00000000
00000000
00000000
00000000
00001300
00000000
00010000
00000000
,
00002000
00000000
00000000
00003020
00000000
00000000
00000032
00000000
00002003
00000000
00000000
00000000
00003010
00000000
00001000
00000000
,
00001100
00000000
00000000
00000000
00000110
00000000
00000000
00000011
00000000
00000000
00000010
00000000
00000001
00000000
00001000
00000000
,
00001010
00000000
00000000
00000010
00000000
00010000
00000000
00000000
00021000
00000000
00000000
00000000
00031000
00000000
00010000
00000000
,
00200000
00000000
00000000
00010000
00000000
00000000
01300000
00000000
00020000
00000000
00000000
01000000
00000000
10030000
00000000
00000000
,
02000000
10000000
00100000
03010000
,
00001000
00000000
00010000
00100000
00000000
00100000
01000000
00000000
00010000
10000000
00000000
10000000
01000000
00100000
00010000
00000000
,
20000000
00000000
00000000
32000000
00000000
00000000
03010000
00000000
01020000
00000000
00000000
00000000
00031000
00000000
00000000
00000000
,
00010000
00000000
00001000
00000010
00000000
00000010
00000100
00000000
00001000
00000001
00000000
00000001
00000100
00000010
00001000
00000000
,
00000002
00000000
00000000
00000203
00000000
00000000
00001300
00000000
00002100
00000000
00000000
00000000
00013000
00000000
00000000
00000000
,
00001000
00000000
00020000
00001000
00000000
00130000
01000000
00000000
00020000
01000000
00000000
10030000
00010000
00100000
01000000
00000000
,
20000000
00000000
00000000
32000000
00000000
00000000
03010000
00000000
01020000
00000000
00000000
00000000
00031000
00000000
00000000
00000000
,
00020000
00000000
00000000
00230000
00000000
00000000
20300000
00000000
30010000
10000000
01000000
00000000
01000000
10000000
00010000
00000000
,
00210000
01300000
01010000
00011000
,
00001000
00010000
00002000
00000010
00000000
00013000
00001000
00000020
00000000
00000100
00000000
00000130
00000010
00000000
00000001
00000000
,
00001000
00000000
00000010
00010000
00002000
00010000
00000000
00003020
00000000
00000000
00000130
00000000
00000010
00000000
00000100
00000000
,
00010000
00001000
00020000
00100000
00000000
00031000
00010000
00200000
00000000
01000000
00000000
01300000
00100000
00000000
10000000
00000000
,
00010000
00000000
00100000
00001000
00020000
00001000
00000000
00230000
00000000
00000000
01300000
00000000
00100000
00000000
01000000
00000000
,
00001000
00000000
00010000
00100000
00000000
00100000
01000000
00000000
00010000
10000000
00000000
10000000
01000000
00100000
00010000
00000000
,
20000000
00000000
00000000
30200000
00000000
00000000
00310000
00000000
00120000
00000000
00000000
00000000
00031000
00000000
00010000
00000000
,
02000000
00000000
00000000
00100000
00000000
00000000
13000000
00000000
11000000
00000000
00000000
00000000
00110000
00000000
00000000
00000000
,
00022000
00000000
00000000
00000000
00000000
00000000
00033000
00000000
00000000
00001000
00000000
00010000
00001000
00000000
00000100
00000000
,
00020000
00000000
00030000
00000000
,
00002000
00000000
00003000
00000000
,
00000020
00000000
00000030
00000000
,
00010000
00000000
00000000
00001000
00000000
00010000
00000000
00001000
00010000
00001000
00000000
00010000
01000000
00010000
01000000
00000000
,
00002000
00000000
00003000
00000000
,
00020000
00000000
00030000
00000000
,
00200000
00000000
00302000
00000000
,
00003000
00010000
00000000
00100000
10000000
00010000
00000000
10000000
00010000
00000000
00000000
10010000
00000000
00000000
00000000
00000000
,
10000000
00010000
00100000
01000000
00000000
00001000
00010000
00100000
00000000
00001000
00010000
00000100
00000000
00001000
00000000
00000001
,
00000000
00001000
00000010
00000100
00000000
00010000
00001000
00000010
00000000
00010000
00001000
01000000
00000000
00010000
00000000
00100000
,
00000000
00010000
01000000
00100000
00000000
00001000
00010000
01000000
00000000
00001000
00010000
00000010
00000000
00000200
00000000
00000000
,
00000301
00000000
00001000
00000100
00000000
00000100
00010000
00000000
00001000
00000000
00000000
00000000
00011000
00000000
00000000
00000000
,
00010000
00001000
00000200
00000010
00000000
00010300
00002000
00000010
00000000
00013000
01000000
00001000
00000000
00010000
00000000
01000000
,
00000000
00010000
02000000
00100000
00000000
03001000
00020000
00100000
00000000
00031000
00000100
00010000
00000000
00000010
00000000
00010000
,
00000000
00001000
00000020
00000100
00000000
00010030
00002000
00000100
00000000
00013000
00100000
00002000
00000000
00000000
00000000
00000000
,
00013000
00000000
00100000
10000000
00000000
10000000
00010000
00000000
10010000
00000000
00000000
00000000
10000000
00000000
01000000
00000000
,
00020000
00000000
00000000
01000000
00000000
00000000
00031000
00000000
00010000
00000000
00000000
00000000
00001000
00000000
00000010
00000000
,
00000002
00000000
00000000
00000010
00000000
00000000
00001003
00000000
00000001
00000000
00000000
00000000
00001000
00000000
00000010
00000000
,
00000200
00000000
00000000
00000010
00000000
00000000
00000301
00000000
00002000
00000000
00000000
00000001
00000000
00000000
00003100
00000000
,
00020000
00000000
00000000
00000000
00000000
00000000
00031000
00010000
,
00001000
00010000
02000000
00100000
00000000
03001000
00020000
00100000
00000000
00031000
00000100
00010000
00001000
00000000
00001000
00000000
,
00010000
00001000
00000200
00000010
00000000
00010300
00002000
00000010
00000000
00013000
01000000
00001000
00010000
00000000
00010000
00000000
,
00200000
00000000
00000000
00010000
00000000
00000000
01300000
00000000
00020000
00000000
00000000
10000000
00000000
00000000
00130000
00000000
,
00002000
00000000
00003020
00000000
,
00000032
00000000
00000203
00000000
,
00001300
00000000
00000000
00010000
00000000
00000000
00001000
00000000
00000000
00000000
00010000
00000000
00000000
00001000
00000000
00000000
,
01010000
00000000
00000000
10100000
00000000
00000000
00000000
00000000
00000000
11000000
00000000
00110000
00000000
00000000
00022000
00000000
,
00000000
00000000
00033000
00000000
;
