#VERSION:0.83;
#TITLE:M.D.Injection;
#SUBTITLE:;
#ARTIST:Project B-;
#TITLETRANSLIT:;
#SUBTITLETRANSLIT:;
#ARTISTTRANSLIT:;
#GENRE:PIECED DOWNBEAT;
#CREDIT:Graphics and video sync by forcednature;
#MUSIC:M.D.Injection.ogg;
#BANNER:M.D.Injection.png;
#BACKGROUND:M.D.Injection-bg.png;
#CDTITLE:;
#SAMPLESTART:68.910;
#SAMPLELENGTH:15.000;
#SELECTABLE:YES;
#OFFSET:0.000;
#BPMS:0.000=202.000;
#STOPS:;
#BGCHANGES:0.000=M.D.Injection.mp4=1.000=0=0=0=StretchNoLoop====,
400.000=M.D.Injection-bg.png=1.000=0=0=1,
99999.000=-nosongbg-=1.000=0=0=0=StretchNoLoop====
;
#FGCHANGES:;

//--------------- dance-single - Extraordiberry ----------------
#NOTEDATA:;
#STEPSTYPE:dance-single;
#DESCRIPTION:Extraordiberry;
#DIFFICULTY:Beginner;
#METER:3;
#RADARVALUES:0,0,0,0,0;
#CREDIT:Extraordiberry;
#NOTES:
0000
0000
0000
0000
,
0000
0000
0000
0000
,
0000
0000
0000
0000
,
0000
0000
0000
0000
,
0000
0000
0000
0000
,
0000
0000
0000
0000
,
0000
0000
0000
0000
,
0000
0000
0000
0000
,
0000
0000
0000
0000
,
1000
0000
0000
0000
,
0000
0000
0000
0000
,
0001
0000
0000
0000
,
0000
0000
0000
0000
,
0010
0000
0000
0000
,
0000
0000
0000
0000
,
0100
0000
0000
0000
,
0000
0000
0000
0000
,
1000
0000
0000
0000
,
1000
0000
0000
0000
,
0001
0000
0000
0000
,
0000
0000
0000
0000
,
0010
0000
0000
0000
,
0010
0000
0000
0000
,
0100
0000
0000
0000
,
0000
0000
0000
0000
,
0001
0000
0000
0000
,
1000
0000
0000
0000
,
0100
0000
0000
0000
,
0000
0000
0000
0000
,
1000
0000
0000
0000
,
0001
0000
0000
0000
,
0100
0000
0000
0000
,
0100
0000
0100
0000
,
0001
0000
0000
0000
,
1000
0000
0000
0000
,
0100
0000
0000
0000
,
1000
1000
1000
0000
,
0001
0000
0000
0000
,
0100
0000
0000
0000
,
0001
0000
0000
0000
,
0001
0001
0001
0000
,
1000
0000
0000
0000
,
0100
0000
0100
0000
,
0010
0000
0000
0000
,
0001
0000
0001
0000
,
1000
0000
0000
0000
,
0000
0000
0000
0000
,
0000
0000
0000
0000
,
0002
0000
0000
0000
,
0000
0000
0000
0003
,
2000
0000
0000
0000
,
0000
0000
0000
3000
,
0001
0000
0000
0000
,
0000
0000
0000
0000
,
0100
0000
0000
0000
,
0000
0000
0000
0000
,
0000
0000
0000
0000
,
0000
0000
0000
0000
,
0001
0000
0001
0000
,
1000
0000
0000
0000
,
0100
0000
0100
0000
,
0010
0000
0000
0000
,
0001
0000
0001
0000
,
1000
0000
1000
0000
,
0010
0000
0000
0000
,
0100
0000
0000
0000
,
0001
0000
0001
0000
,
0010
0000
0000
0000
,
0100
0000
0100
0000
,
1000
0000
0000
0000
,
0001
0000
0100
0000
,
0010
0000
1000
0000
,
0001
0000
0001
0000
,
1000
1000
1000
0000
,
0001
0000
0000
0000
,
0010
0000
0000
0000
,
0001
0000
0000
0000
,
0100
0000
0000
0000
,
0001
0000
0001
0000
,
1000
0000
0000
0000
,
1000
0000
1000
0000
,
0100
0000
0100
0000
,
0010
0000
0000
0000
,
0000
0000
0000
0000
,
0001
0000
0000
0000
,
0001
0000
0000
0000
,
1000
0000
1001
0000
,
0000
0000
0000
0000
,
1000
0000
0000
0000
,
1000
0000
0000
0000
,
0001
0000
1001
0000
,
0000
0000
0000
0000
,
1000
0000
0000
0000
,
1000
0000
0000
0000
,
0100
0000
0000
0000
,
0100
0000
0000
0000
,
0010
0000
0000
0000
,
0010
0000
0000
0000
,
0001
0000
0000
0000
;

//--------------- dance-single - Extraordiberry ----------------
#NOTEDATA:;
#STEPSTYPE:dance-single;
#DESCRIPTION:Extraordiberry;
#DIFFICULTY:Easy;
#METER:8;
#RADARVALUES:0,0,0,0,0;
#CREDIT:Extraordiberry;
#NOTES:
0000
0000
0000
0000
,
0000
0000
0000
0000
,
0000
0000
0000
0000
,
0000
0000
0000
0000
,
0000
0000
0000
0000
,
0000
0000
0000
0000
,
0000
0000
0000
0000
,
0000
0000
0000
0000
,
0000
0000
0000
0000
,
1000
0100
0010
0100
,
1000
0001
0100
0000
,
0001
0001
0010
0100
,
1000
0000
0000
0000
,
0001
0100
0010
0100
,
0001
1000
0100
0000
,
0010
0000
0010
0000
,
0010
0000
0010
0000
,
0001
0100
0010
0000
,
1000
0001
0010
0000
,
0100
0010
0001
1000
,
0001
0100
0010
0000
,
1000
0100
0010
0000
,
0001
1000
0010
0000
,
0100
0010
1000
0001
,
1000
0100
0010
0000
,
0001
0100
0010
0000
,
1000
0001
0010
0000
,
0100
0100
0010
0010
,
0001
1000
0010
0000
,
1000
0100
0010
0000
,
0001
1000
0010
0000
,
0100
0100
0010
0010
,
1000
0001
0010
0010
,
0001
1000
0010
0000
,
1000
0001
0010
0000
,
0001
1000
0010
0100
,
0010
0010
0010
0000
,
1000
0100
0010
0000
,
0001
0100
0010
0000
,
1000
0100
0010
0001
,
1000
1000
1000
0000
,
0001
0000
0000
0100
0000
0000
0001
0000
,
1000
1000
0100
0000
,
1000
0000
0000
0010
0000
0000
1000
0000
,
0001
0001
0010
0000
,
0110
0000
1001
0000
,
0110
0000
2002
0000
,
0000
0000
3003
0000
,
0002
0000
0000
0003
,
0020
0000
0000
0030
,
0200
0000
0000
0300
,
2000
0000
0000
3000
,
0001
0000
0100
0000
,
0010
0000
1000
0000
,
0001
0000
0010
0000
,
0100
0000
1000
0000
,
0002
0000
2000
0000
,
0000
0000
0000
3003
,
0001
0100
0010
0100
,
0001
0001
1000
1000
,
0100
0010
0001
1000
,
0001
0100
0010
0000
,
1000
0100
0010
0100
,
1000
0001
0100
0000
,
0010
0010
1000
1000
,
0001
1000
0001
0000
,
1000
0100
0010
0100
,
1000
1000
0001
0001
,
0100
0010
1000
0001
,
1000
0100
0010
0000
,
0001
0100
0010
0100
,
0001
1000
0100
0000
,
0010
0010
0001
0001
,
1000
0001
0100
0000
,
0110
0000
1001
0000
,
0110
0000
0000
0000
,
1001
0000
0110
0000
,
1001
0000
0000
0000
,
1000
1000
0100
0000
,
0010
0010
0001
0000
,
1000
1000
0100
0010
,
0001
0001
0100
0010
,
0220
0000
0000
0000
,
0330
0000
0000
0000
,
1000
0000
0001
0001
,
0010
0010
0100
0100
,
1000
1000
0001
0000
,
0000
0000
0000
0000
,
0001
1000
0010
0010
,
0100
0100
0001
0001
,
1000
1000
0100
0000
,
0000
0000
0000
0000
,
1000
0001
0100
0100
,
0010
0010
1000
1000
,
0100
0100
0010
0010
,
0001
0001
0100
0100
,
0010
0010
1000
1000
,
0100
0100
0010
0010
,
0001
0001
0100
0100
;

//--------------- dance-single - Extraordiberry ----------------
#NOTEDATA:;
#STEPSTYPE:dance-single;
#DESCRIPTION:Extraordiberry;
#DIFFICULTY:Medium;
#METER:13;
#RADARVALUES:0,0,0,0,0;
#CREDIT:Extraordiberry;
#NOTES:
0000
0000
0000
0000
,
0000
0000
0000
0000
,
0000
0000
0000
0000
,
0000
0000
0000
0000
,
0000
0000
0000
0000
,
0000
0000
0000
0000
,
0000
0000
0000
0000
,
0000
0000
0000
0000
,
0000
0000
0000
0000
,
1001
0000
1000
0100
0010
0100
1000
0000
,
0001
0010
0100
0010
0001
1000
0001
0000
,
1000
0010
0100
0000
0010
1000
0001
0000
,
2000
0000
0000
3000
,
1001
0000
0001
0100
0010
0100
0001
0000
,
1000
0010
0100
0010
1000
0001
1000
0000
,
0002
0000
0000
0000
,
0000
0000
0003
0000
,
1000
0100
0010
0100
1000
0001
0000
1000
,
0001
0010
0100
0010
0001
1000
0001
0000
,
1000
0010
0100
0000
0010
1000
0001
0000
,
1000
0100
0010
0000
0011
0000
0000
0000
,
0001
0100
0010
0100
0001
1000
0000
0001
,
1000
0010
0100
0010
1000
0001
1000
0000
,
0001
0010
0100
0000
0010
0001
1000
0000
,
0001
0100
0010
0000
1010
0000
0000
0000
,
1000
0100
0010
0100
1000
0001
0000
1000
,
0001
0010
0100
0010
0001
1000
0001
0000
,
1000
0010
0100
0010
1000
0001
0010
0001
,
1000
0010
0100
0000
0101
0000
0000
0000
,
0001
0100
0010
0100
0001
1000
0000
0001
,
1000
0010
0100
0010
1000
0001
1000
0000
,
0001
0010
0100
0010
0001
1000
0010
1000
,
0001
0010
0100
0000
1100
0000
1000
0000
,
0001
0100
0110
0010
,
1000
0001
1001
1000
,
0100
0010
0011
0001
,
1001
0110
1001
0000
,
1000
0100
0110
0010
,
0001
1000
1001
0001
,
0100
0010
1010
1000
,
1001
0110
1001
0000
,
1000
0100
0010
0100
0000
1000
0001
0100
,
0010
0100
0001
1000
0100
0000
1001
0000
,
0001
0100
0010
0100
0000
0001
1000
0100
,
0010
0100
1000
0001
0100
0000
1001
0000
,
1000
0000
0001
0000
,
1000
0000
0000
0000
0000
0000
0001
0000
0000
0000
1000
0000
,
0000
0000
0000
0000
0001
0000
0000
0000
0000
0000
0000
0000
1000
0000
0000
0001
0000
0000
1000
0000
0000
0000
0000
0000
,
0002
0000
0000
0000
,
0023
0000
0000
0000
,
0230
0000
0000
0000
,
2300
0000
0000
0000
,
3001
0100
0010
0000
0100
0001
1000
0000
,
0001
0010
0100
0000
0010
0001
1000
0000
,
0001
0001
0100
0100
,
0010
0010
1000
1000
,
0001
0000
2002
0000
,
0000
0000
0000
3003
,
1000
0100
0010
0100
1000
0001
0010
0100
,
0010
0001
1000
0001
0100
0010
1000
0000
,
0001
0010
0100
0010
0001
1000
0001
0100
,
0010
0010
1000
1000
,
0001
0010
0100
1000
0001
1000
0010
0100
,
0001
1000
0100
0000
1000
0001
0100
0000
,
0101
0010
1010
1000
,
0001
1000
0001
1000
1001
0000
0000
0000
,
0001
0100
0010
0100
0001
1000
0010
0100
,
0010
1000
0001
1000
0100
0010
0001
0000
,
1000
0010
0100
0010
1000
0001
1000
0100
,
0010
0010
0001
0001
,
1000
0010
0100
0001
1000
0001
0010
0100
,
1000
0001
0100
0000
0001
1000
0100
0000
,
1100
0000
0010
0001
0011
0000
1000
0001
,
1001
1000
0001
1000
0010
0000
0100
0000
,
0101
0010
1010
1000
,
1001
0000
0001
1000
0100
0010
0001
0000
,
1100
0010
0011
0001
,
1001
0000
1000
0001
0100
0010
1000
0000
,
0101
0100
0010
0000
1100
0100
0010
0000
,
0101
0100
0010
0000
1100
0100
0010
0000
,
0001
0100
0010
0100
0001
0100
0010
0100
,
0001
0010
0100
0010
0001
0010
0100
0010
,
0002
0000
0000
0000
,
0003
0000
0000
0000
,
1001
0000
0000
0000
1000
0100
0010
0001
,
0100
0010
1000
0100
0010
0001
0100
0010
,
1000
0000
1001
0000
,
0000
0000
0000
0000
,
1001
0000
0001
0100
0010
1000
0100
0010
,
0001
0100
0010
1000
0100
0010
0001
0100
,
0010
0000
1001
0000
,
0000
0000
0000
0000
,
1001
0000
1000
0100
0010
0001
0100
0010
,
1000
0100
0010
0001
0100
0010
1000
0100
,
0010
0001
0100
0010
1000
0100
0010
0001
,
0100
0010
1000
0100
0010
0001
0100
0010
,
1000
0100
0010
0001
0100
0010
0100
0001
,
0010
0100
1000
0010
0100
0001
0010
0100
,
1000
0010
0100
0001
0010
0100
1000
0010
;

//--------------- dance-single - Extraordiberry ----------------
#NOTEDATA:;
#STEPSTYPE:dance-single;
#DESCRIPTION:Extraordiberry;
#DIFFICULTY:Hard;
#METER:16;
#RADARVALUES:0,0,0,0,0;
#CREDIT:Extraordiberry;
#NOTES:
0000
0000
0000
0000
,
0000
0000
0000
0000
,
0000
0000
0000
0000
,
0000
0000
0000
0000
,
0000
0000
0000
0000
,
0000
0000
0000
0000
,
0000
0000
0000
0000
,
0000
0000
0000
0000
,
0000
0000
0000
0000
,
1001
0000
0001
0010
0001
1000
0001
0100
,
0010
1000
0001
0010
0100
0010
0001
1000
,
0001
0100
0001
0000
0100
0000
0010
0000
1000
0010
1000
0000
0001
0000
0010
0000
,
0200
0000
0000
0300
,
1001
0000
1000
0010
1000
0001
1000
0100
,
0010
0000
0001
0000
1000
0000
0010
0000
0100
0010
0100
0000
0001
1000
0001
0000
,
0010
0000
0100
0000
0010
0000
0100
0000
0010
0000
0100
0000
,
0010
0000
0100
0000
0010
0000
1001
0000
0000
0000
0000
0000
,
0001
0000
1000
0010
1000
0000
0001
0000
1000
0000
0100
0000
0000
0000
0100
0000
,
0010
0000
0001
0010
0001
0000
1000
0000
0001
0000
0100
0000
0010
0000
1000
0000
,
0001
0000
0010
0100
0010
0000
0001
0000
1000
0000
0010
0100
0010
0000
1000
0000
,
0001
0000
0010
0100
0010
0000
0001
0000
1000
0000
0000
0000
0000
0000
0000
0000
,
1000
0000
0001
0010
0001
0000
1000
0000
0001
0000
0100
0000
0000
0000
0100
0000
,
0010
0000
1000
0010
1000
0000
0001
0000
1000
0000
0100
0000
0010
0000
0001
0000
,
1000
0000
0010
0100
0010
0000
1000
0000
0001
0000
0010
0100
0010
0000
0001
0000
,
1000
0000
0010
0100
0010
0000
1000
0000
0001
0000
0001
0000
1000
0000
0000
0000
,
0001
0000
1000
0010
1000
0000
0001
0000
1000
0000
0100
0000
0010
0000
0100
0000
,
1000
0000
0001
0100
0001
0000
1000
0000
0001
0000
0010
0000
0100
0000
1000
0000
,
0001
0000
0100
0010
0100
0000
0001
0000
1000
0000
0100
0010
0100
0000
1000
0000
,
0001
0000
0100
0010
0100
0000
0001
0000
1000
0000
0000
0000
0000
0000
0000
0000
,
1000
0000
0001
0010
0001
0000
1000
0000
0001
0000
0100
0000
0010
0000
0100
0000
,
0001
0000
1000
0100
1000
0000
0001
0000
1000
0000
0010
0000
0100
0000
0001
0000
,
0101
0100
0010
0000
1100
0100
0010
0000
,
0101
0100
0010
1000
0100
0100
1000
1000
,
0001
0100
0001
0000
0100
0010
0100
0000
0010
1000
0010
0000
1000
0000
0000
0000
,
0100
1000
0100
0000
0010
0100
0010
0000
0001
0010
0001
0000
1000
0000
0000
0000
,
0001
0100
0001
0000
0100
0010
0100
0000
0010
1000
0010
0000
1000
0000
0000
0000
,
1100
0110
0022
0033
,
1000
0010
1000
0000
0010
0100
0010
0000
0100
0001
0100
0000
0001
0000
0000
0000
,
1000
0100
1000
0000
0100
0010
0100
0000
0010
0001
0010
0000
0001
0000
0000
0000
,
0100
0001
0100
0000
0010
0100
0010
0000
1000
0010
1000
0000
0001
0000
0000
0000
,
0101
0110
2020
3030
,
1000
0000
0001
0000
0010
0000
0110
0000
0000
0000
0100
1000
0001
0000
0000
0000
,
0100
0000
0010
0000
1000
0001
1000
0000
1001
0000
0000
0000
0110
0000
0000
0000
,
0001
0000
1000
0000
0010
0000
0110
0000
0000
0000
0100
0001
1000
0000
0000
0000
,
0100
0000
0010
0000
0001
1000
0001
0000
1001
0000
0000
0000
0110
0000
0000
0000
,
1001
0000
0110
0000
,
1001
0000
0000
0000
0000
0000
1000
0000
0000
0000
0001
0000
,
0000
0000
0000
0000
1000
0000
0000
0000
0000
0000
0000
0000
0001
0000
0000
1000
0000
0000
0001
0000
0000
1000
0000
0000
,
0002
0000
0000
0000
,
0203
0000
0000
0000
,
0320
0000
0000
0000
,
2030
0000
0000
0000
,
3001
0100
0001
1000
0001
0010
0100
1000
,
0001
0100
0010
1000
0001
1000
0100
0010
,
0001
0000
0001
0100
0000
0100
0010
0000
0010
1000
0000
1000
,
0100
0010
0100
0000
0010
0001
0010
0000
0001
1000
0001
0000
0100
0001
0100
0000
,
0020
0000
0200
0000
,
0000
0000
0000
0330
,
1000
0100
1000
0000
0100
0010
0100
0000
0010
0001
0010
0000
0001
0000
1000
0000
,
0001
0100
0001
0000
0100
0010
0100
0000
0010
1000
0010
0000
1000
0000
0000
0000
,
0001
0010
0001
0000
0010
0100
0010
0000
0100
1000
0100
1000
0001
0000
0100
0000
,
0010
0100
0001
1000
0100
0000
0110
0000
,
0001
0000
1000
0010
1000
0000
0001
0000
1000
0000
1000
0000
0100
0000
0000
0000
,
0010
0000
0001
0010
0001
0000
1000
0000
0001
0000
0001
0000
0100
0000
0000
0000
,
0010
0000
1000
0100
1000
0000
0100
0000
0010
0000
0001
0100
0001
0000
0100
0000
,
0110
0010
1010
0000
1100
1000
1001
0000
,
0001
0100
0010
0000
0100
0010
1000
0000
0010
0100
0001
0000
1000
0000
0001
0000
,
1000
0100
0010
0000
0100
0010
0001
0000
0010
0100
1000
0000
0001
0000
0000
0000
,
1000
0001
0100
0000
0001
0100
0010
0000
1000
0001
1000
0001
0010
0000
0100
0000
,
1000
0001
0100
0010
0100
0000
0110
0000
,
1000
0000
0001
0010
0100
0000
0010
0000
0001
1000
0001
0000
0100
0000
0000
0000
,
0001
0000
1000
0100
0010
0000
0100
0000
1000
0001
1000
0000
0010
0000
0000
0000
,
1000
0000
0100
1000
0100
0000
0010
0000
0001
0000
0100
0001
0100
0000
0010
0000
,
1010
1000
1100
0100
0110
0010
0011
0000
,
1001
0100
0110
0010
,
1001
0000
1000
0000
0100
0000
0010
0000
0001
0010
0001
0010
0001
0000
0000
0000
,
1001
0010
0110
0100
,
1001
0000
0001
0000
0100
0000
0010
0000
1000
0010
1000
0010
1000
0000
0000
0000
,
0001
0000
1000
0000
0100
0000
0010
0100
0010
0000
0001
0000
1000
0000
0010
0100
,
0010
0000
1000
0000
0001
0000
0010
0100
0010
0000
0001
0000
1000
0000
0000
0000
,
0001
0100
0001
0000
0100
0010
0100
0000
0010
1000
0010
0000
1000
0001
1000
0000
,
0100
1000
0100
0000
0010
0100
0010
0000
0001
0010
0001
0000
1000
0001
1000
0001
,
2000
0000
0002
0000
,
3003
0000
0000
0000
,
1001
0000
0000
0000
0000
0000
0000
0000
1000
0100
1000
0000
0100
0010
0100
0000
,
0010
0001
0010
0000
0001
1000
0001
0000
0100
0001
0100
0000
0010
0100
0010
0000
,
1000
0010
1000
0010
1000
0000
0000
0000
1001
0000
0000
0000
0000
0000
0000
0000
,
0000
0000
0000
0000
,
1001
0000
0000
0000
0001
0100
0001
0000
0100
0010
0100
0000
0010
1000
0010
0000
,
1000
0001
1000
0000
0100
1000
0100
0000
0010
0100
0010
0000
0001
0010
0001
0000
,
1000
0001
1000
0001
1000
0000
0000
0000
1001
0000
0000
0000
0000
0000
0000
0000
,
0000
0000
0000
0000
,
1001
0000
0000
0000
1000
0100
1000
0000
0100
0010
0100
0000
0010
0001
0010
0000
,
0001
1000
0001
0000
0100
0001
0100
0000
0010
0100
0010
0000
1000
0010
1000
0000
,
0001
1000
0001
0000
1000
0100
1000
0000
0100
0010
0100
0000
0010
0001
0010
0000
,
0001
1000
0001
0000
0100
0001
0100
0000
0010
0100
0010
0000
1000
0010
1000
0000
,
0001
1000
0001
0000
1000
0100
1000
0000
0100
0010
0100
0000
0010
0001
0010
0000
,
0001
1000
0001
0000
0100
0001
0100
0000
0010
0100
0010
0000
1000
0010
1000
0000
,
0001
1000
0001
0000
1000
0100
1000
0000
0100
0010
0100
0000
0010
0001
0010
0001
;

//--------------- dance-single - Extraordiberry ----------------
#NOTEDATA:;
#STEPSTYPE:dance-single;
#DESCRIPTION:Extraordiberry;
#DIFFICULTY:Challenge;
#METER:18;
#RADARVALUES:0,0,0,0,0;
#CREDIT:Extraordiberry;
#NOTES:
0000
0000
0000
0000
,
0000
0000
0000
0000
,
0000
0000
0000
0000
,
0000
0000
0000
0000
,
0000
0000
0000
0000
,
0000
0000
0000
0000
,
0000
0000
0000
0000
,
0000
0000
0000
0000
,
0000
0000
0000
0000
,
1001
0000
0000
0000
1000
0000
0001
0010
0001
0000
1000
0000
0001
1000
0001
0000
,
1000
0000
0001
0100
0001
0000
1000
0000
0100
0000
0010
0000
0001
0000
1000
0000
,
0010
0010
0100
0001
1000
1000
0100
0010
,
0002
0000
0000
0003
,
1001
0000
0000
0000
0001
0000
1000
0010
1000
0000
0001
0000
1000
0001
1000
0000
,
0001
0000
1000
0100
1000
0000
0001
0000
0100
0010
0100
0000
0010
1000
0010
0000
,
1000
0000
1000
0000
1000
0000
1000
0000
1000
0000
1000
0000
,
1000
0000
1000
0000
1000
0000
1001
0000
0000
0000
0000
0000
,
1000
0000
0001
0010
0100
0000
1000
0000
0001
0000
0100
0000
0000
0000
0100
0000
,
0010
0000
1000
0010
0100
0000
0001
0000
1000
0000
0100
0010
0100
0000
1000
0000
,
0001
0000
1000
0010
0100
0000
0010
0000
1000
0000
0001
0010
0100
0000
0010
0000
,
0001
0000
1000
0010
0100
0000
0001
0000
0101
0000
0000
0000
0000
0000
0000
0000
,
0001
0000
1000
0010
0100
0000
0001
0000
1000
0000
0100
0000
0000
0000
0100
0000
,
0010
0000
0001
0010
0100
0000
1000
0000
0001
0000
0100
0010
0100
0000
0001
0000
,
1000
0000
0001
0010
0100
0000
0010
0000
0001
0000
1000
0010
0100
0000
0010
0000
,
1000
0000
0001
0010
0100
0000
1000
0000
1100
0000
0100
0000
1000
0000
0000
0000
,
0001
0000
1000
0010
0100
0000
0010
1000
0001
0000
0010
0000
0000
0000
0100
0000
,
1000
0000
0001
0100
0010
0000
0100
0001
1000
0000
0100
0010
0001
0000
1000
0000
,
0010
0000
0100
0010
1000
0000
0001
0000
0010
0000
0100
0010
0001
0000
1000
0000
,
0010
0100
0010
1000
0001
0000
0010
0000
0011
0000
0000
0000
0000
0000
0000
0000
,
0001
0000
1000
0100
0010
0000
0100
1000
0001
0000
0100
0000
0000
0000
0010
0000
,
1000
0000
0001
0010
0100
0000
0010
0001
1000
0000
0010
0100
0001
0000
1000
0000
,
1100
0000
0100
0010
0001
0000
0000
0000
0101
0000
0100
0010
1000
0000
0000
0000
,
1100
0000
0100
0010
0001
0000
0010
0000
0011
0000
0001
0000
1001
0000
0000
0000
,
1000
0000
0001
0100
0010
0000
0100
0001
1000
0000
0001
0010
0100
0000
0010
0000
,
0001
0000
1000
0010
0100
0000
0010
1000
0001
0000
1000
0100
0010
0000
0100
0000
,
1000
0000
0001
0100
0010
0000
0100
0001
1000
0000
0001
0010
0100
0000
1000
0000
,
1100
0110
0022
0033
,
0001
0000
1000
0010
0100
0000
0010
1000
0001
0000
1000
0100
0010
0000
0100
0000
,
1000
0000
0001
0100
0010
0000
0100
0001
1000
0000
0001
0010
0100
0000
0010
0000
,
0001
0000
1000
0010
0100
0000
0001
1000
0100
0000
1000
0001
0100
0000
0001
0000
,
0101
0110
2020
3030
,
0001
0000
1000
0100
0010
0000
0011
0000
0000
0000
0001
0100
0010
0000
1000
0000
,
0001
0000
0010
0000
0001
1000
0001
0100
0010
0000
1000
0000
1200
0000
0000
0000
,
1300
0000
0001
0100
0010
0000
1010
0000
0000
0000
1000
0100
0010
0000
0001
0000
,
1000
0000
0010
0000
1000
0001
1000
0100
0010
0000
0001
0000
0101
0000
0000
0000
,
1001
0000
0110
0000
,
1001
0000
0000
0000
0000
0000
2000
0000
0000
0000
0001
0000
,
0000
0000
0000
0000
0001
0000
0000
0000
0000
0000
0000
0000
3001
0000
0000
0010
0000
0000
0100
0000
0000
1000
0000
0000
,
0002
0000
0000
0000
,
0203
0000
0000
0000
,
0320
0000
0000
0000
,
2030
0000
0000
0000
,
3100
1000
0001
1000
0010
0100
0001
1000
,
0100
0010
0100
1000
0001
1000
0010
0100
,
0001
1000
0001
1000
0100
1000
0100
0010
0100
0010
0001
0010
,
0001
1000
0001
1000
0001
0100
0001
0100
0010
0100
0010
0100
0010
1000
0010
1000
,
0002
0000
2000
0000
,
0000
0000
0000
3003
,
1000
0100
0010
0000
0001
0100
0010
0000
1000
0001
0010
0000
0001
1000
0010
0000
,
1000
0100
1000
0000
0001
0100
0001
0000
1000
0100
0010
0001
1000
0001
0100
0000
,
0001
0100
0010
0100
0001
0000
1000
0000
0001
0010
0100
0010
0001
0000
1000
0000
,
0010
1000
0001
0010
0110
0000
1001
0000
,
0001
0100
0010
0000
1000
0100
0010
0000
0001
1000
0010
1000
0001
0000
1000
0000
,
0001
0010
0100
0000
1000
0010
0100
0000
0001
1000
0100
1000
0001
0000
1000
0000
,
1010
0000
0010
1000
0001
0000
0010
0000
0011
0000
0001
1000
0010
0000
0100
0000
,
0001
0100
0001
0100
0010
1000
0010
1000
0001
0010
0100
1000
0002
0000
0000
0000
,
1003
0010
1000
0010
1000
0001
1000
0001
1000
0100
1000
0100
0010
0001
0010
0000
,
0001
0100
0001
0100
0001
1000
0001
1000
0001
0010
0001
0010
0100
1000
0100
0000
,
1000
0001
0100
0001
1000
0000
0100
0000
0010
0100
1000
0100
0010
0000
0001
0000
,
1000
0001
0100
0010
0110
0000
1001
0000
,
1000
0100
0010
0000
0100
1000
0001
0000
0100
0010
0100
0001
1000
0001
0010
0000
,
0100
0010
0001
0000
1000
0001
0100
0000
0010
0100
0010
1000
0001
1000
0100
0000
,
1100
0000
1000
0100
0010
0000
0001
0000
0101
0000
0100
0010
1000
0000
0001
0000
,
0010
0000
0010
0000
0100
0000
0100
0000
1000
0001
0100
0010
1000
0001
1000
0000
,
1100
0001
0101
1000
,
1001
0000
0000
0000
1000
0000
0100
0000
0010
0001
1000
0001
0100
0010
1000
0000
,
1010
0001
0011
1000
,
1001
0000
0000
0000
0001
0000
0100
0000
0010
1000
0001
1000
0100
0010
0001
0000
,
0011
0000
0010
0000
0001
0000
1000
0010
0100
0000
0010
0000
1000
0000
0001
0010
,
0100
0000
0010
0000
0001
0000
1000
0010
0100
0000
0010
0000
1000
0000
0001
0010
,
0100
1000
0100
1000
0100
1000
0100
1000
0100
1000
0100
1000
0100
1000
0100
1000
,
0001
0100
0001
0100
0001
0100
0001
0100
0001
0100
0001
0100
0001
0100
0001
0100
,
0020
0000
0000
0000
,
0030
0000
0000
0000
,
1001
0000
0000
0000
0000
0000
0000
0000
1000
0100
1000
0100
0010
0100
0010
0100
,
0010
0001
0010
0001
1000
0001
1000
0001
0100
0001
0100
0001
0100
0010
0100
0010
,
1000
0010
1000
0010
1000
0001
1000
0001
0010
0100
1000
0001
0100
0000
0000
0000
,
0000
0000
0000
0000
,
1001
0000
0000
0000
0001
0100
0001
0100
0010
0100
0010
0100
0010
1000
0010
1000
,
0001
1000
0001
1000
0100
1000
0100
1000
0100
0010
0100
0010
0001
0010
0001
0010
,
0001
1000
0001
1000
0010
0100
0001
1000
0100
0010
0001
1000
0010
0000
0000
0000
,
0000
0000
0000
0000
,
1001
0000
0000
0000
1000
0100
1000
0100
0010
0100
0010
0100
0010
0001
0010
0001
,
1000
0001
1000
0001
0100
0001
0100
0001
0100
0010
0100
0010
1000
0010
1000
0010
,
1000
0001
1000
0001
1000
0100
1000
0100
0010
0100
0010
0100
0010
0001
0010
0001
,
1000
0010
1000
0010
0100
0001
0100
0001
1000
0100
1000
0100
0010
0001
0010
0001
,
1000
0010
0100
0010
1000
0010
0100
0010
1000
0001
0010
0001
1000
0001
0010
0001
,
1000
0010
0100
0001
1000
0010
0100
0001
1000
0100
0010
0001
1000
0100
0010
0001
,
1000
0010
0100
0010
1000
0001
0010
0001
1000
0010
0100
0010
1000
0001
0010
0100
;

//--------------- dance-double - Extraordiberry ----------------
#NOTEDATA:;
#STEPSTYPE:dance-double;
#DESCRIPTION:Extraordiberry;
#DIFFICULTY:Easy;
#METER:8;
#RADARVALUES:0,0,0,0,0;
#CREDIT:Extraordiberry;
#NOTES:
00000000
00000000
00000000
00000000
,
00000000
00000000
00000000
00000000
,
00000000
00000000
00000000
00000000
,
00000000
00000000
00000000
00000000
,
00000000
00000000
00000000
00000000
,
00000000
00000000
00000000
00000000
,
00000000
00000000
00000000
00000000
,
00000000
00000000
00000000
00000000
,
00000000
00000000
00000000
00000000
,
00010000
00001000
00010000
00001000
,
01000000
00010000
10000000
00000000
,
01000000
01000000
00100000
00001000
,
00010000
00000000
00000000
00000000
,
00001000
00010000
00001000
00010000
,
00000100
00001000
00000001
00000000
,
00000100
00000000
00000100
00000000
,
00000100
00000000
00000100
00000000
,
00000001
00000100
00000010
00000000
,
00001000
00000010
00010000
00000000
,
00001000
00000000
00010000
00000000
,
00100000
10000000
00100000
00000000
,
10000000
01000000
00100000
00000000
,
00010000
00100000
00001000
00000000
,
00010000
00000000
00001000
00000000
,
00000010
00000001
00000010
00000000
,
00000001
00000100
00000010
00000000
,
00001000
00000100
00010000
00000000
,
00001000
00000000
00010000
00000000
,
01000000
10000000
01000000
00000000
,
10000000
00100000
01000000
00000000
,
00010000
01000000
00001000
00000000
,
00010000
00000000
00001000
00000000
,
00000100
00000100
00000001
00000001
,
00001000
00000100
00000010
00000000
,
00000001
00001000
00000010
00000000
,
00010000
00001000
00010000
00001000
,
00100000
00100000
00100000
00000000
,
00010000
01000000
00100000
00000000
,
10000000
00010000
00100000
00000000
,
00001000
00010000
00001000
00010000
,
00000010
00000010
00000010
00000000
,
00001000
00000000
00000000
00000001
00000000
00000000
00001000
00000000
,
00000100
00010000
00001000
00000000
,
00010000
00000000
00000000
00001000
00000000
00000000
00010000
00000000
,
00001000
00100000
00010000
00000000
,
10010000
00000000
01100000
00000000
,
10010000
00000000
20000000
00000000
,
00000000
00000000
30000000
00000000
,
00020000
00000000
00000000
00030000
,
00200000
00000000
00000000
00300000
,
02000000
00000000
00000000
03000000
,
20000000
00000000
00000000
30000000
,
00010000
00000000
01000000
00000000
,
00001000
00000000
00010000
00000000
,
00001000
00000000
00000010
00000000
,
00000001
00000000
00001000
00000000
,
00000002
00000000
00002000
00000000
,
00000000
00000000
00000000
00003003
,
00000001
00000100
00000010
00001000
,
00000001
00000100
00000010
00001000
,
00000001
00000001
00000100
00000100
,
00001000
00010000
00001000
00000000
,
00010000
00001000
01000000
00010000
,
10000000
00010000
00100000
00000000
,
01000000
01000000
10000000
10000000
,
00010000
10000000
00100000
00000000
,
10000000
01000000
00100000
00010000
,
10000000
01000000
00100000
00010000
,
10000000
10000000
01000000
01000000
,
00010000
00001000
00010000
00000000
,
00001000
00010000
00000100
00001000
,
00000001
00001000
00000010
00000000
,
00000100
00000100
00000001
00000001
,
00001000
00000001
00001001
00000000
,
00000001
00000100
00000010
00000100
,
00001000
00000000
00010000
00010000
,
00001000
00010000
00100000
10000000
,
00010000
00000000
10000000
10000000
,
00010000
10000000
01000000
00000000
,
00010000
00001000
00010000
00000000
,
00001000
00000010
00000001
00001000
,
00000001
00000100
00001000
00000000
,
00022000
00000000
00000000
00000000
,
00033000
00000000
00000000
00000000
,
00010000
00000000
00001000
00001000
,
00010000
00010000
00100000
00100000
,
10000000
10000000
00010000
00000000
,
00000000
00000000
00000000
00000000
,
10000000
00010000
10000000
10000000
,
01000000
01000000
00010000
00010000
,
00001000
00001000
00000010
00000000
,
00000000
00000000
00000000
00000000
,
00000001
00001000
00000001
00000001
,
00000100
00000100
00000010
00000010
,
00000100
00000100
00001000
00001000
,
00010000
00010000
00100000
00100000
,
01000000
01000000
00100000
00100000
,
10000000
10000000
01000000
01000000
,
00010000
00010000
00001000
00000010
;

//--------------- dance-double - Extraordiberry ----------------
#NOTEDATA:;
#STEPSTYPE:dance-double;
#DESCRIPTION:Extraordiberry;
#DIFFICULTY:Medium;
#METER:13;
#RADARVALUES:0,0,0,0,0;
#CREDIT:Extraordiberry;
#NOTES:
00000000
00000000
00000000
00000000
,
00000000
00000000
00000000
00000000
,
00000000
00000000
00000000
00000000
,
00000000
00000000
00000000
00000000
,
00000000
00000000
00000000
00000000
,
00000000
00000000
00000000
00000000
,
00000000
00000000
00000000
00000000
,
00000000
00000000
00000000
00000000
,
00000000
00000000
00000000
00000000
,
00011000
00000000
00010000
00001000
01000000
00010000
01000000
00000000
,
00001000
00010000
00000100
00001000
00000100
00010000
00001000
00000000
,
00010000
00100000
10000000
00000000
00010000
10000000
01000000
00100000
,
00002000
00000000
00000000
00003000
,
00011000
00000000
00001000
00010000
00000100
00001000
00000100
00000000
,
00010000
00001000
01000000
00010000
01000000
00001000
00010000
00000000
,
00002000
00000000
00000000
00000000
,
00000000
00000000
00003000
00000000
,
00010000
00001000
01000000
00001000
00010000
00001000
00000000
00010000
,
00001000
00010000
01000000
10000000
00010000
01000000
00010000
00000000
,
10000000
01000000
00100000
00000000
01000000
10000000
00010000
00000000
,
10000000
00010000
01000000
00000000
01010000
00000000
00000000
00000000
,
00001000
00010000
00000100
00010000
00001000
00010000
00000000
00001000
,
00010000
00001000
00000100
00000001
00001000
00000100
00001000
00000000
,
00000001
00000100
00000010
00000000
00000100
00000001
00001000
00000000
,
00000001
00001000
00000100
00000000
00001100
00000000
00000000
00000000
,
00010000
00001000
00100000
00001000
00010000
00001000
00000000
00010000
,
00001000
00010000
00100000
10000000
00010000
00100000
00010000
00000000
,
10000000
00100000
01000000
00000000
00100000
10000000
00010000
00000000
,
10000000
00010000
00100000
00000000
00110000
00000000
00000000
00000000
,
00001000
00010000
00000010
00010000
00001000
00010000
00000000
00001000
,
00010000
00001000
00000010
00000001
00001000
00000010
00001000
00000000
,
00000001
00000010
00000100
00000000
00000010
00000001
00001000
00000000
,
00000001
00000100
00001000
00000000
00001100
00000000
00011000
00000000
,
00010000
00100000
01100000
01000000
,
00010000
10000000
10010000
00010000
,
00100000
01000000
01100000
00100000
,
00011000
01000000
00011000
00000000
,
00001000
00000010
00000110
00000100
,
00001000
00000001
00001001
00001000
,
00000010
00000100
00000110
00000010
,
00011000
00000100
00011000
00000000
,
00010000
00100000
01000000
00010000
00000000
10000000
00010000
10000000
,
01000000
00100000
01000000
00010000
00001000
00000000
00011000
00000000
,
00001000
00000010
00000100
00001000
00000000
00000001
00001000
00000001
,
00000100
00000010
00000100
00001000
00010000
00000000
00011000
00000000
,
01100000
00000000
10010000
00000000
,
01100000
00000000
00000000
00000000
00000000
00000000
00010000
00000000
00000000
00000000
10000000
00000000
,
00000000
00000000
00000000
00000000
00010000
00000000
00000000
00000000
00000000
00000000
00000000
00000000
10000000
00000000
00000000
01000000
00000000
00000000
00010000
00000000
00000000
00000000
00000000
00000000
,
00002000
00000000
00000000
00000000
,
00023000
00000000
00000000
00000000
,
00030200
00000000
00000000
00000000
,
00002300
00000000
00000000
00000000
,
00003001
00001000
00000010
00000000
00000100
00000001
00001000
00000000
,
00000001
00000010
00000100
00000000
00001000
00000100
00000010
00000000
,
00000001
00000001
00000100
00000100
,
00001000
00001000
00010000
00010000
,
00100000
00000000
20020000
00000000
,
00000000
00000000
00000000
30030000
,
10000000
01000000
00100000
01000000
00010000
00001000
00010000
00000000
,
00001000
00010000
00100000
01000000
00100000
10000000
00010000
00000000
,
10000000
01000000
00010000
00000000
01000000
00010000
00001000
00000000
,
00010000
00001000
00000010
00000001
00001000
00000001
00000100
00000000
,
00000001
00001000
00000010
00010000
00001000
00010000
00000010
00000000
,
00001000
00000010
00010000
00001000
00010000
00000010
00001000
00000000
,
00001100
00010000
00011000
00000010
,
00001000
00000001
00001000
00000001
00001001
00000000
00000000
00000000
,
00000001
00000010
00000100
00000010
00001000
00010000
00001000
00000000
,
00010000
00001000
00000100
00000010
00000100
00000001
00001000
00000000
,
00000001
00000010
00001000
00000000
00000010
00001000
00010000
00000000
,
00001000
00010000
01000000
10000000
00010000
10000000
00100000
00000000
,
10000000
00010000
01000000
00001000
00010000
00001000
01000000
00000000
,
00010000
01000000
00001000
00010000
00001000
01000000
00010000
00000000
,
00110000
00100000
00001000
00000000
00011000
00010000
00001000
00000000
,
00010000
00100000
10000000
00010000
10010000
00000000
10000000
00000000
,
11000000
00010000
00110000
00001000
,
00011000
00000000
00010000
00001000
00000010
00000001
00001000
00000000
,
00000101
00001000
00001010
00010000
,
00011000
00000000
00001000
00010000
00100000
10000000
00010000
00000000
,
11000000
01000000
00100000
00000000
01010000
01000000
00100000
00000000
,
11000000
01000000
00100000
00000000
00011000
00010000
00001000
00000000
,
00010000
00000010
00001000
00000010
00010000
00000010
00001000
00000010
,
00010000
00001000
00000010
00001000
00010000
00001000
00000010
00000001
,
00002000
00000000
00000000
00000000
,
00003000
00000000
00000000
00000000
,
00001001
00000000
00000000
00000000
00000001
00000100
00000010
00000100
,
00001000
00010000
00001000
00000010
00000100
00000010
00000001
00001000
,
00000010
00000000
00011000
00000000
,
00000000
00000000
00000000
00000000
,
10010000
00000000
10000000
01000000
00100000
01000000
00010000
00001000
,
00010000
00100000
01000000
00100000
10000000
00010000
00100000
01000000
,
00010000
00000000
00011000
00000000
,
00000000
00000000
00000000
00000000
,
00001001
00000000
00000001
00000100
00000010
00000100
00001000
00010000
,
00001000
00000010
00000100
00000010
00000001
00001000
00000010
00000100
,
00001000
00010000
00100000
01000000
00010000
10000000
01000000
00100000
,
01000000
00010000
00001000
00010000
00100000
01000000
00100000
10000000
,
00010000
00100000
01000000
00010000
00001000
00000010
00000100
00001000
,
00000001
00000100
00000010
00000100
00001000
00010000
00001000
00000010
,
00000100
00000010
00000001
00000100
00001000
00010000
00100000
10000000
;

//--------------- dance-double - Extraordiberry ----------------
#NOTEDATA:;
#STEPSTYPE:dance-double;
#DESCRIPTION:Extraordiberry;
#DIFFICULTY:Hard;
#METER:16;
#RADARVALUES:0,0,0,0,0;
#CREDIT:Extraordiberry;
#NOTES:
00000000
00000000
00000000
00000000
,
00000000
00000000
00000000
00000000
,
00000000
00000000
00000000
00000000
,
00000000
00000000
00000000
00000000
,
00000000
00000000
00000000
00000000
,
00000000
00000000
00000000
00000000
,
00000000
00000000
00000000
00000000
,
00000000
00000000
00000000
00000000
,
00000000
00000000
00000000
00000000
,
00011000
00000000
00010000
00001000
00010000
00001000
00000010
00000100
,
00000010
00000001
00001000
00000001
00000100
00001000
00010000
00000000
,
00000100
00001000
00000001
00000100
00001000
00010000
00000010
00000100
,
00002000
00000000
00000000
00003000
,
00011000
00000000
00001000
00010000
00001000
00010000
00100000
01000000
,
00100000
10000000
00010000
10000000
01000000
00010000
00001000
00010000
,
00100000
00000000
01000000
00000000
00100000
00000000
01000000
00000000
00100000
00000000
01000000
00000000
,
00100000
00000000
01000000
00000000
00100000
00000000
10010000
00000000
00000000
00000000
00000000
00000000
,
00010000
10000000
01000000
00010000
00001000
00010000
00000000
00100000
,
10000000
00000000
00010000
00000000
10000000
00000000
01000000
00000000
00010000
00000000
00001000
00010000
00001000
00000000
00010000
00000000
,
00100000
00000000
01000000
00010000
01000000
00000000
00001000
00000000
00010000
00000000
01000000
00010000
01000000
00000000
10000000
00000000
,
00100000
00000000
01000000
00010000
01000000
00000000
00001000
00000000
00010000
00000000
00000000
00000000
00000000
00000000
00000000
00000000
,
00001001
00000001
00000100
00001000
00010000
00001000
00000000
00000010
,
00000001
00000000
00001000
00000000
00000001
00000000
00000100
00000000
00001000
00000000
00010000
00001000
00010000
00000000
00001000
00000000
,
00000010
00000000
00000100
00001000
00000100
00000000
00010000
00000000
00001000
00000000
00000100
00001000
00000100
00000000
00000001
00000000
,
00000010
00000000
00000100
00001000
00000100
00000000
00010000
00000000
00001000
00000000
01000000
00000000
00010000
00000000
00000000
00000000
,
10010000
10000000
00100000
00010000
00001000
00010000
00000000
01000000
,
10000000
00000000
00010000
00000000
10000000
00000000
00100000
00000000
00010000
00000000
00001000
00010000
00001000
00000000
00010000
00000000
,
01000000
00000000
00100000
00010000
00100000
00000000
00001000
00000000
00010000
00000000
00100000
00010000
00100000
00000000
10000000
00000000
,
01000000
00000000
00100000
00010000
00100000
00000000
00001000
00000000
00010000
00000000
00000000
00000000
00000000
00000000
00000000
00000000
,
00001001
00000001
00000010
00001000
00010000
00001000
00000000
00000100
,
00000001
00000000
00001000
00000000
00000001
00000000
00000010
00000000
00001000
00000000
00010000
00001000
00010000
00000000
00001000
00000000
,
00000100
00000000
00000010
00001000
00000010
00000000
00010000
00000000
00001000
00000000
00000010
00001000
00000010
00000000
00000001
00000000
,
00000100
00000000
00000010
00001000
00000010
00000000
00010000
00000000
00001000
00000000
00010000
00000000
00100000
00000000
10000000
00000000
,
00010000
00100000
00010000
00000000
10000000
01000000
10000000
00000000
01000000
00000000
00010000
00000000
00002000
00000000
00000000
00000000
,
00003010
00000001
00000010
00000000
00000001
00001000
00000001
00000000
00000100
00000000
00001000
00000000
00020000
00000000
00000000
00000000
,
00130000
10000000
00100000
00000000
10000000
00010000
10000000
00000000
01000000
00000000
00010000
00000000
00001000
00000000
00000010
00000000
,
00000011
00000110
00002002
00003003
,
00001000
00000100
00001000
00000000
00000001
00000010
00000001
00000000
00000010
00000000
00001000
00000000
00020000
00000000
00000000
00000000
,
01030000
10000000
01000000
00000000
10000000
00010000
10000000
00000000
00100000
00000000
00010000
00000000
00002000
00000000
00000000
00000000
,
00003100
00000001
00000100
00000000
00000001
00001000
00000001
00000000
00000010
00000000
00001000
00000000
00010000
00000000
01000000
00000000
,
11000000
01100000
20020000
30030000
,
10000000
00000000
01000000
00000000
00010000
00000000
00001000
00000000
00000000
00000000
00010000
00001000
00010000
00000000
00001000
00000000
,
00000100
00000001
00001000
00000100
00000110
00000000
00001001
00000000
,
00000001
00000000
00000100
00000000
00001000
00000000
00010000
00000000
00000000
00000000
00001000
00010000
00001000
00000000
00010000
00000000
,
01000000
10000000
00010000
01000000
01100000
00000000
10010000
00000000
,
11000000
00000000
01100000
00000000
,
00110000
00000000
00000000
00000000
00000000
00000000
00001000
00000000
00000000
00000000
00000010
00000000
,
00000000
00000000
00000000
00000000
00000001
00000000
00000000
00000000
00000000
00000000
00000000
00000000
00001000
00000000
00000000
00000001
00000000
00000000
00000100
00000000
00000000
00000010
00000000
00000000
,
00002000
00000000
00000000
00000000
,
00003020
00000000
00000000
00000000
,
00020030
00000000
00000000
00000000
,
00032000
00000000
00000000
00000000
,
00013000
00100000
01000000
00100000
10000000
00010000
10000000
01000000
,
00100000
01000000
10000000
00010000
01000000
00100000
00010000
00001000
,
00010000
00000000
00010000
00000100
00000000
00000100
00001000
00000000
00001000
00000001
00000000
00000001
,
00000100
00000010
00000100
00000000
00001000
00010000
00001000
00000000
00010000
00100000
00010000
00000000
00100000
10000000
00100000
00000000
,
20000000
00000000
00020000
00000000
,
00000000
00000000
00000000
30030000
,
10000000
01000000
10000000
00000000
01000000
00100000
01000000
00000000
00010000
01000000
00010000
00000000
00001000
00000000
00010000
00000000
,
00001000
00000010
00001000
00000000
00000010
00000100
00000010
00000000
00000001
00000010
00000001
00000000
00001000
00000000
00000001
00000000
,
00000100
00001000
00010000
00001000
00000010
00000001
00001000
00000001
,
00000101
00000100
00000010
00000000
00001100
00000100
00000010
00000000
,
00000001
00000100
00000001
00000000
00000100
00000000
00001000
00000000
00010000
00000000
00100000
00000000
10000000
00000000
00010000
00000000
,
10000000
01000000
10000000
00000000
01000000
00000000
00010000
00000000
00001000
00000000
00000010
00000000
00000001
00000000
00001000
00000000
,
00000001
00000100
00000001
00000000
00000100
00000000
00001000
00000000
00010000
00001000
00010000
00000000
00001000
00000000
00000010
00000000
,
00000001
00001000
00000001
00000000
00000100
00000000
00000010
00000000
00001010
00000000
00001000
00000000
00001001
00000000
00000000
00000000
,
00000001
00000010
00000001
00000000
00000010
00000100
00000010
00000000
00001000
00000010
00001000
00000000
00010000
00000000
00001000
00000000
,
00010000
01000000
00010000
00000000
01000000
00100000
01000000
00000000
10000000
01000000
10000000
00000000
00010000
00000000
10000000
00000000
,
00100000
00010000
00001000
00010000
01000000
10000000
00010000
10000000
,
10100000
00100000
01000000
00000000
00110000
00100000
01000000
00000000
,
10000000
00100000
10000000
00000000
00100000
00000000
00010000
00000000
00001000
00000000
00000100
00000000
00000001
00000000
00001000
00000000
,
00000001
00000010
00000001
00000000
00000010
00000000
00001000
00000000
00010000
00000000
01000000
00000000
10000000
00000000
00010000
00000000
,
10000000
00100000
10000000
00000000
00100000
00000000
00010000
00000000
00001000
00010000
00001000
00000000
00010000
00000000
01000000
00000000
,
10000000
00010000
10000000
00100000
01000000
00000000
00010000
00000000
10000000
01000000
00100000
00010000
10000000
00000000
00100000
00000000
,
01100000
10000000
10010000
00010000
,
10000000
00000000
01000000
00000000
00010000
00000000
00001000
00000000
00000010
00000001
00000010
00000001
00000010
00000000
00000000
00000000
,
00000110
00000001
00001001
00001000
,
00000001
00000000
00000100
00000000
00001000
00000000
00010000
00000000
00100000
10000000
00100000
10000000
00100000
00000000
00000000
00000000
,
10000000
00000000
01000000
00000000
00010000
00000000
01000000
00010000
01000000
00000000
00010000
00000000
00001000
00000000
01000000
00010000
,
01000000
00000000
00100000
00000000
10000000
00000000
01000000
00010000
01000000
00000000
00010000
00000000
00001000
00000000
00010000
00000000
,
00001000
00000010
00001000
00000000
00000010
00000001
00000010
00000000
00000001
00001000
00000001
00000000
00000100
00000010
00000100
00000000
,
00001000
00010000
00001000
00000000
00010000
00100000
00010000
00000000
00100000
10000000
00100000
00000000
10000000
00010000
10000000
00000000
,
02000000
00000000
00200000
00000000
,
03300000
00000000
00000000
00000000
,
10010000
00000000
00000000
00000000
00000000
00000000
00000000
00000000
10000000
01000000
10000000
00000000
01000000
00010000
01000000
00000000
,
00010000
00001000
00010000
00000000
00001000
00000010
00001000
00000000
00000010
00000001
00000010
00000000
00000001
00001000
00000001
00000000
,
00001000
00000001
00001000
00000001
00001000
00000000
00000000
00000000
00001001
00000000
00000000
00000000
00000000
00000000
00000000
00000000
,
00000000
00000000
00000000
00000000
,
00001001
00000000
00000000
00000000
00000001
00000100
00000001
00000000
00000100
00001000
00000100
00000000
00001000
00010000
00001000
00000000
,
00010000
00100000
00010000
00000000
00100000
10000000
00100000
00000000
10000000
00010000
10000000
00000000
01000000
10000000
01000000
00000000
,
00100000
01000000
00100000
01000000
00100000
00000000
00000000
00000000
10010000
00000000
00000000
00000000
00000000
00000000
00000000
00000000
,
00000000
00000000
00000000
00000000
,
10010000
00000000
00000000
00000000
10000000
01000000
10000000
00000000
01000000
00010000
01000000
00000000
00010000
00001000
00010000
00000000
,
00001000
00000010
00001000
00000000
00000010
00000001
00000010
00000000
00000001
00001000
00000001
00000000
00000100
00001000
00000100
00000000
,
00001000
00010000
00001000
00000000
00010000
00100000
00010000
00000000
00100000
10000000
00100000
00000000
10000000
00010000
10000000
00000000
,
01000000
10000000
01000000
00000000
00010000
01000000
00010000
00000000
00001000
00010000
00001000
00000000
00000010
00001000
00000010
00000000
,
00000001
00000010
00000001
00000000
00001000
00000001
00001000
00000000
00000001
00000100
00000001
00000000
00000100
00001000
00000100
00000000
,
00001000
00010000
00001000
00000000
00010000
00100000
00010000
00000000
00100000
10000000
00100000
00000000
10000000
00010000
10000000
00000000
,
01000000
10000000
01000000
00000000
00010000
01000000
00010000
00000000
00001000
00010000
00001000
00000000
00000010
00001000
00000010
00000100
;

//--------------- dance-double - Extraordiberry ----------------
#NOTEDATA:;
#STEPSTYPE:dance-double;
#DESCRIPTION:Extraordiberry;
#DIFFICULTY:Challenge;
#METER:18;
#RADARVALUES:0,0,0,0,0;
#CREDIT:Extraordiberry;
#NOTES:
00000000
00000000
00000000
00000000
,
00000000
00000000
00000000
00000000
,
00000000
00000000
00000000
00000000
,
00000000
00000000
00000000
00000000
,
00000000
00000000
00000000
00000000
,
00000000
00000000
00000000
00000000
,
00000000
00000000
00000000
00000000
,
00000000
00000000
00000000
00000000
,
00000000
00000000
00000000
00000000
,
00011000
00000000
00010000
00001000
00000010
00000001
00001000
00000100
,
00000001
00001000
00000010
00000001
00001000
00000001
00000100
00000010
,
00010000
00001000
00010000
00000000
00001000
00000000
01000000
00000000
00010000
10000000
00010000
00000000
10000000
00000000
00010000
00000000
,
00200000
00000000
00000000
00300000
,
00011000
00000000
00001000
00010000
00100000
10000000
00010000
01000000
,
10000000
00000000
00010000
00000000
00100000
00000000
10000000
00000000
00010000
00100000
01000000
00000000
10000000
01000000
00100000
00000000
,
00001000
00000000
00001000
00000000
00001000
00000000
00001000
00000000
00001000
00000000
00001000
00000000
,
00001000
00000000
00001000
00000000
00001000
00000000
00011000
00000000
00000000
00000000
00000000
00000000
,
00001000
00000000
00010000
00100000
01000000
00000000
00010000
00000000
10000000
00000000
01000000
00000000
00000000
00000000
00010000
00000000
,
00001000
00000000
00010000
00100000
01000000
00000000
00010000
00000000
10000000
00000000
01000000
00000000
00100000
00000000
01000000
00000000
,
00010000
00000000
00001000
00010000
00001000
00000000
00100000
00000000
00010000
00000000
00001000
00010000
00001000
00000000
00000100
00000000
,
00010000
00000000
00001000
00010000
00001000
00000000
00010000
00000000
00000010
00000000
00000000
00000000
00000000
00000000
00000000
00000000
,
00010000
00000000
00001000
00000010
00000100
00000000
00001000
00000000
00000001
00000000
00000100
00000000
00000000
00000000
00001000
00000000
,
00010000
00000000
00001000
00000010
00000100
00000000
00001000
00000000
00000001
00000000
00000100
00000000
00000010
00000000
00000100
00000000
,
00001000
00000000
00010000
00001000
00010000
00000000
00000010
00000000
00001000
00000000
00010000
00001000
00010000
00000000
01000000
00000000
,
00001000
00000000
00010000
00001000
00010000
00000000
00000100
00000000
00001000
00000000
00001000
00000000
00000100
00000000
00010000
00000000
,
00001000
00000000
00010000
01000000
00100000
00000000
00010000
00000000
10000000
00000000
00100000
00000000
00010000
00000000
00010000
00000000
,
00001000
00000000
00010000
01000000
00100000
00000000
00010000
00000000
10000000
00000000
00100000
00000000
01000000
00000000
00100000
00000000
,
00010000
00000000
00001000
00010000
00001000
00000000
01000000
00000000
00010000
00000000
00001000
00010000
00001000
00000000
00000010
00000000
,
00010000
00000000
00001000
00010000
00001000
00000000
00010000
00000000
00000100
00000000
00000000
00000000
00000000
00000000
00000000
00000000
,
00010000
00000000
00001000
00000100
00000010
00000000
00001000
00000000
00000001
00000000
00000010
00000000
00001000
00000000
00001000
00000000
,
00010000
00000000
00001000
00000100
00000010
00000000
00001000
00000000
00000001
00000000
00000010
00000000
00000100
00000000
00000010
00000000
,
00001000
00000000
00010000
00001000
00010000
00000000
00000100
00000000
00001000
00000000
00010000
00001000
00010000
00000000
00100000
00000000
,
00001000
00000000
00010000
00001000
00010000
00000000
00100000
00000000
10000000
00000000
10000000
00000000
00010000
00000000
00010000
00000000
,
10000000
00000000
00010000
10000000
00010000
00000000
00100000
01000000
00100000
00000000
01000000
00010000
01000000
00000000
00010000
00000000
,
00001000
00000000
00000010
00001000
00000010
00000000
00000100
00000010
00000100
00000000
00000010
00000001
00000010
00000000
00000001
00000000
,
00001000
00000000
00000001
00000100
00000001
00000000
00000100
00000010
00000100
00000000
00001000
00000100
00001000
00000000
00010000
00000000
,
00011000
00001100
00002002
00003003
,
00000001
00000000
00001000
00000001
00001000
00000000
00000100
00000010
00000100
00000000
00000010
00001000
00000010
00000000
00001000
00000000
,
00010000
00000000
01000000
00010000
01000000
00000000
00100000
01000000
00100000
00000000
01000000
10000000
01000000
00000000
10000000
00000000
,
00010000
00000000
10000000
00100000
10000000
00000000
00100000
01000000
00100000
00000000
00010000
00100000
00010000
00000000
00001000
00000000
,
00011000
00110000
20020000
30030000
,
10000000
00000000
01000000
00000000
00010000
00000000
00011000
00000000
00000000
00000000
00010000
00100000
10000000
00000000
00010000
00000000
,
10000000
00000000
01000000
00000000
00010000
00001000
00010000
00000000
00001000
00000000
00000010
00000000
00000011
00000000
00000000
00000000
,
00000001
00000000
00000100
00000000
00001000
00000000
00011000
00000000
00000000
00000000
00001000
00000010
00000001
00000000
00001000
00000000
,
00000001
00000000
00000100
00000000
00001000
00010000
00001000
00000000
00010000
00000000
00100000
00000000
10100000
00000000
00000000
00000000
,
10010000
00000000
00011000
00000000
,
00001001
00000000
00000000
00000000
00000000
00000000
00000002
00000000
00000000
00000000
00002003
00000000
,
00000000
00000000
00000000
00000000
00023000
00000000
00000000
00000000
00000000
00000000
00000000
00000000
10030000
00000000
00000000
01000000
00000000
00000000
00100000
00000000
00000000
00001000
00000000
00000000
,
00020000
00000000
00000000
00000000
,
00032000
00000000
00000000
00000000
,
00003020
00000000
00000000
00000000
,
00000032
00000000
00000000
00000000
,
00000103
00000001
00001000
00000001
00000010
00000100
00001000
00000001
,
00000100
00001000
00010000
00001000
01000000
00010000
10000000
00010000
,
10000000
01000000
10000000
01000000
00100000
01000000
00010000
01000000
00010000
00001000
00010000
00001000
,
00000010
00000100
00000010
00000100
00000010
00000001
00000010
00000001
00001000
00000001
00001000
00000001
00000100
00000001
00000100
00000001
,
00002000
00000000
00000002
00000000
,
00000000
00000000
00000000
00003003
,
00000001
00000100
00001000
00000000
00000100
00001000
00010000
00000000
00001000
00010000
00100000
00000000
00010000
00100000
10000000
00000000
,
00010000
00100000
01000000
00000000
00100000
01000000
10000000
00000000
00010000
01000000
00100000
10000000
00100000
01000000
00010000
00000000
,
10000000
01000000
00010000
00001000
00010000
00100000
10000000
00010000
,
10000000
01000000
11000000
00000000
00010000
01000000
01010000
00000000
,
10000000
01000000
00010000
00000000
00001000
00000000
00000010
00000000
00000001
00001000
00000001
00000000
00000100
00000000
00000000
00000000
,
00000001
00000100
00001000
00000000
00010000
00000000
00100000
00000000
10000000
00010000
10000000
00000000
01000000
00000000
00000000
00000000
,
11000000
01000000
00010000
00001000
00011000
00010000
00100000
10000000
,
10100000
00000000
00100000
00000000
10000000
00000000
00010000
00000000
00100000
00001000
00010000
00001000
00100000
00000000
00010000
00000000
,
10000000
00100000
00010000
00000000
00100000
00010000
00001000
00000000
00010000
00001000
00000100
00000000
00001000
00000100
00000001
00000000
,
00001000
00000100
00000010
00000000
00000100
00000010
00000001
00000000
00001000
00000010
00000100
00000001
00000100
00000010
00001000
00000000
,
00000001
00000010
00001000
00010000
00001000
00000100
00000001
00001000
,
00000001
00000010
00000011
00000000
00001000
00000010
00001010
00000000
,
00000001
00000010
00001000
00000000
00010000
00000000
01000000
00000000
10000000
00010000
10000000
00000000
00100000
00000000
00000000
00000000
,
10000000
00100000
00010000
00000000
00001000
00000000
00000100
00000000
00000001
00001000
00000001
00000000
00000010
00000000
00000000
00000000
,
00000011
00000010
00001000
00010000
00011000
00001000
00010000
00100000
,
10100000
00000000
10000000
00000000
10010000
00000000
00010000
00000000
10000000
01000000
00010000
00001000
00000010
00000001
00001000
00000000
,
00000002
00001003
00002000
00003001
,
00001001
00000000
00000000
00000000
00000001
00000000
00000100
00000000
00001000
00010000
00001000
00000000
00010000
00000000
00100000
00000000
,
20000000
30010000
00020000
10030000
,
10010000
00000000
00000000
00000000
10000000
00000000
01000000
00000000
00010000
00001000
00010000
00000000
00001000
00000000
00000010
00000000
,
00000001
00000000
00001000
00000000
00000010
00000000
00010000
00001000
00010000
00000000
00000010
00000000
00001000
00000000
00010000
00001000
,
00010000
00000000
01000000
00000000
00001000
00000000
00010000
00001000
00010000
00000000
00100000
00000000
10000000
00000000
00010000
10000000
,
01000000
00100000
01000000
00100000
01000000
00100000
01000000
00100000
01000000
00100000
01000000
00100000
01000000
00100000
01000000
00100000
,
00001000
00010000
00001000
00010000
00001000
00010000
00001000
00010000
00001000
00010000
00001000
00010000
00001000
00010000
00001000
00010000
,
00000200
00000000
00000000
00000000
,
00000300
00000000
00000000
00000000
,
00001001
00000000
00000000
00000000
00000000
00000000
00000000
00000000
00000001
00000100
00000001
00000100
00000010
00000100
00000010
00000100
,
00001000
00000100
00001000
00000100
00001000
00010000
00001000
00010000
00100000
00010000
00100000
00010000
00100000
01000000
00100000
01000000
,
00100000
10000000
00100000
10000000
00010000
10000000
00010000
10000000
01000000
00100000
00010000
10000000
00100000
00000000
00000000
00000000
,
00000000
00000000
00000000
00000000
,
10010000
00000000
00000000
00000000
10000000
01000000
10000000
01000000
00100000
01000000
00100000
01000000
00010000
01000000
00010000
01000000
,
00010000
00001000
00010000
00001000
00000010
00001000
00000010
00000100
00000010
00000100
00000010
00000001
00000010
00000001
00001000
00000001
,
00001000
00000001
00000100
00000001
00000100
00000010
00001000
00000001
00000010
00000100
00001000
00000001
00000100
00000000
00000000
00000000
,
00000000
00000000
00000000
00000000
,
00001001
00000000
00000000
00000000
00000001
00000100
00000001
00000100
00000010
00000100
00000010
00000100
00001000
00000100
00001000
00000100
,
00001000
00010000
00001000
00010000
00100000
00010000
00100000
00010000
00100000
01000000
00100000
01000000
00100000
10000000
00100000
10000000
,
00010000
10000000
00010000
10000000
01000000
10000000
01000000
10000000
01000000
00100000
01000000
00100000
01000000
00010000
01000000
00010000
,
00001000
00010000
00001000
00010000
00001000
00000100
00001000
00000100
00000010
00000100
00000010
00000100
00000001
00000100
00000001
00000100
,
00000001
00001000
00000001
00001000
00000100
00000010
00000100
00000010
00001000
00000010
00001000
00000010
00001000
00010000
00001000
00010000
,
00100000
00010000
00100000
00010000
10000000
01000000
10000000
01000000
00010000
01000000
00010000
01000000
00100000
10000000
00100000
10000000
,
00010000
00100000
00010000
00100000
01000000
00010000
01000000
00010000
00001000
00000010
00001000
00000010
00000001
00000100
00001000
00010000
;
