#TITLE:Like+it!;
#SUBTITLE:;
#ARTIST:Ryu☆;
#TITLETRANSLIT:;
#SUBTITLETRANSLIT:;
#ARTISTTRANSLIT:;
#GENRE:;
#CREDIT:;
#MUSIC:Like+it!.ogg;
#BANNER:Like+it!.png;
#BACKGROUND:Like+it!-bg.png;
#CDTITLE:;
#SAMPLESTART:29.456;
#SAMPLELENGTH:15.000;
#SELECTABLE:YES;
#OFFSET:1.082;
#BPMS:0.000=165.000;
#STOPS:187.750=1.091;
#BGCHANGES:;
#FGCHANGES:;

//--------------- dance-single - Princess Pamela ----------------
#NOTES:
     dance-single:
     Princess Pamela:
     Beginner:
     4:
     0,0,0,0,0:
0000
0000
0000
0000
,
0000
0000
0000
0000
,
0000
0000
0000
0000
,
0001
0000
0001
0000
,
1000
0000
0000
0000
,
0010
0000
0000
0000
,
1000
0000
0010
0000
,
1000
0000
0010
0000
,
1000
0000
0000
0000
,
0100
0000
1000
0000
,
0100
0000
1000
0000
,
0010
0000
0010
0000
,
0100
0000
0000
0000
,
1001
0000
0000
0000
,
0001
0000
0001
0000
,
0010
0000
0000
0000
,
0001
0000
0001
0000
,
0100
0000
0000
0000
,
0010
0000
1000
0000
,
0010
0000
0010
0000
,
1000
0000
0000
0000
,
1001
0000
0001
0000
,
0010
0000
0000
0000
,
1001
0000
1000
0000
,
0010
0000
0000
0000
,
0100
0100
0100
0000
,
0100
0000
0001
0000
,
0100
0100
0100
0000
,
0100
0000
0010
0000
,
1001
0000
0000
0000
,
1000
0000
0100
0100
,
1000
0000
0000
0000
,
0001
0000
0010
0000
,
1001
0000
0000
0000
,
0001
0000
0100
0000
,
0001
0000
0001
0000
,
0010
0010
0001
0000
,
2000
0000
0000
0000
,
3000
0000
0000
0000
,
0020
0000
0000
0000
,
0030
0000
0000
0000
,
2000
0000
3000
0000
,
0002
0000
0003
0000
,
0020
0000
0030
0000
,
0200
0000
0300
0000
,
2000
0000
3000
0000
,
0001
0001
0001
0001
,
0000
1001
0000
1000
,
0000
0100
0000
0010
,
0000
1001
0000
0001
,
0000
0100
0000
0010
,
0000
1001
0000
1000
,
0000
0010
0000
0100
,
0000
0110
0000
1001
,
0000
0001
0001
0000
,
0000
1000
0000
0100
,
0000
1000
0000
0010
,
0010
0010
0000
0100
,
0000
0001
0000
0100
,
0100
0100
0000
0010
,
0000
1000
0000
0001
,
0001
0001
0000
0010
,
0000
0100
0000
1000
,
0000
2002
0000
0000
,
0000
3003
0000
0000
;

//--------------- dance-single - Princess Pamela ----------------
#NOTES:
     dance-single:
     Princess Pamela:
     Easy:
     8:
     0,0,0,0,0:
0000
0000
0000
0000
,
0000
0000
0000
0000
,
0000
0000
0000
0000
,
0001
1000
0001
1000
,
0020
0000
0030
0000
,
1001
1000
0100
0010
,
0001
0100
1000
0100
,
0001
1000
0010
0100
,
0001
0010
1000
0010
,
0001
0000
0100
0000
0001
0100
0001
0000
,
1000
0000
0100
0000
1000
0100
1000
0000
,
0010
0000
0100
0000
0010
0100
0010
0000
,
2000
0000
0002
3003
,
1001
0000
0001
0010
,
0100
1000
0010
0000
,
0110
0000
1000
0100
,
0010
0001
0100
0000
,
1001
0000
0001
0001
,
0010
0000
1000
1000
,
0010
0001
0100
0100
,
0010
0100
0020
0000
0000
0000
0030
0000
,
1000
0000
0100
0000
0010
0100
1000
0000
,
0001
0010
0100
1000
,
0001
0000
0100
0000
0010
0100
0001
0000
,
1000
0010
0100
0000
,
0001
1000
0001
0000
1000
0001
1000
0000
,
0010
0100
0110
0000
,
1000
0001
1000
0000
0001
1000
0001
0000
,
0010
0100
0220
0330
,
1000
0100
0010
0100
,
1000
0000
0000
0000
0010
0010
0010
0000
,
0100
0001
0010
0001
,
0100
0010
0000
0110
,
1000
0010
0100
0010
,
1000
1000
1000
0000
0001
0000
0000
0000
,
0100
0100
0010
0010
,
1000
0001
1000
0000
0002
0000
0003
0000
,
2000
0000
0100
0100
,
0100
0000
0100
0000
,
3200
0000
0010
0010
,
0010
0000
0010
0000
,
0310
0000
0000
0000
0000
0000
0000
0000
0001
0000
0000
0001
0000
0000
0001
0000
,
0000
0000
0000
0000
0000
0000
0000
0000
1000
0000
0000
1000
0000
0000
1000
0000
,
0000
0000
0000
0000
0000
0000
0000
0000
0010
0000
0000
0010
0000
0000
0010
0000
,
0000
0000
0000
0000
0000
0000
0000
0000
0100
0000
0000
0100
0000
0000
0100
0000
,
0000
0000
0000
0000
0000
0000
0000
0000
0001
0000
0000
0001
0000
0000
0001
0000
,
1000
0100
0010
0001
,
0000
1001
1000
0010
,
0100
0000
0001
0100
0001
0000
0010
0000
,
0100
1001
0001
0100
,
0010
0000
1000
0010
1000
0000
0100
0000
,
0010
1001
1000
0010
,
0100
0000
0001
0100
0001
0000
0010
0000
,
0100
1001
0000
0110
,
0000
0000
0001
1000
0001
0000
2000
0000
,
3000
0000
0010
0000
1000
0000
0010
0100
,
0010
0000
1000
0000
0100
0000
0010
0010
,
0010
0000
0001
0000
0010
0000
0001
0100
,
0001
0000
0100
0000
0010
0000
1000
1000
,
1000
0000
0001
0000
0010
0000
0100
1000
,
0100
0000
1000
0000
0010
0000
0100
0100
,
0100
0000
0001
0000
0100
0000
0001
0010
,
0001
1000
0001
0100
,
0000
2002
0000
0000
,
0000
3003
0000
0000
;

//--------------- dance-single - Princess Pamela ----------------
#NOTES:
     dance-single:
     Princess Pamela:
     Medium:
     12:
     0,0,0,0,0:
0000
0000
0000
0000
,
0000
0000
0000
0000
,
0000
0000
0000
0000
,
1000
0000
0000
0001
0000
0000
1000
0000
0100
0000
0000
1000
0000
0000
0100
0000
,
0010
0001
0010
0002
0000
0000
0103
0000
,
0110
0000
0010
1000
0100
0000
0010
0001
,
0100
0010
1000
0100
,
0110
0000
0010
0001
0100
0000
0010
1000
,
0100
0010
0001
0100
,
0110
0000
0000
0000
0001
0000
0010
0000
0100
0000
0000
0100
0000
0000
1000
0000
,
0010
0000
0000
0000
1000
0000
0100
0000
0010
0000
0000
0010
0000
0000
0001
0000
,
0100
0000
0000
0001
0000
0000
0100
0000
0010
0000
0000
0100
0000
0000
0010
0000
,
1000
0100
0010
0002
0000
0000
0103
0000
,
0220
0330
0010
1000
,
0100
0100
1000
0000
0001
0000
0100
0000
,
0220
0330
0010
0100
,
0001
0001
0010
0000
0001
1000
0001
1000
,
0200
0000
0000
0000
0310
0000
0000
0000
0001
0000
0000
0001
0000
0000
0100
0000
,
0001
0000
0000
0000
0010
0000
0000
0000
0100
0000
0000
0100
0000
0000
1000
0000
,
0010
0000
0000
0010
0000
0000
0100
0000
0001
0000
0000
0001
0000
0000
0010
0000
,
0100
1000
0100
2000
0000
0000
3010
0000
,
1001
0000
0001
0000
0010
0100
1000
0000
,
0010
0100
0010
0100
1000
0000
0100
0000
,
1001
0000
1000
0000
0010
0100
0001
0000
,
0010
0100
0010
0100
0001
0000
0100
0000
,
1000
0000
1000
0000
0001
0000
0000
1000
0000
1000
0000
0001
0000
0000
0000
0000
,
0010
0100
0010
0000
0110
0000
1001
0000
,
0001
0000
0001
0000
1000
0000
0000
0001
0000
0001
0000
1000
0000
0000
0000
0000
,
0010
0100
0010
0020
0000
0000
1030
0000
,
0001
0100
1000
0100
,
0001
0010
0001
0000
0100
0100
0001
0000
,
1000
0100
0001
0100
,
0010
0100
1000
0000
0010
0000
1001
0000
,
0001
0010
1000
0010
,
0001
0001
0001
0000
0010
0000
1000
0000
,
0010
0000
0000
0001
0000
0000
0010
0000
0001
0000
0000
0100
0000
0000
0001
0000
,
0100
0010
0100
0020
0000
0000
1030
0000
,
2002
0003
0002
0003
,
0200
0300
0002
3003
,
0022
0003
0002
0003
,
0200
0300
0002
0033
,
1001
0000
0000
0000
1000
0000
0000
0000
0010
0000
0000
0010
0000
0000
0010
0000
,
1000
0000
0000
0000
0001
0000
0000
0000
0010
0000
0000
0010
0000
0000
0010
0000
,
0001
0000
0000
1000
0000
0000
0001
0000
1000
0000
0000
1000
0000
0000
1000
0000
,
0100
0000
0000
0010
0000
0000
0100
0000
0010
0000
0000
0010
0000
0000
0010
0000
,
0001
0000
0000
0100
0000
0000
0001
0000
0100
0000
0000
0100
0000
0000
0010
0000
,
1000
0010
1000
0010
1000
0100
0010
0001
,
0000
0000
1000
0100
0001
0000
0100
1000
,
0001
0011
1000
1010
,
0100
0000
0001
0100
1000
0000
0100
0001
,
1000
1010
0001
0011
,
0100
0000
0001
0010
1000
0000
0010
0001
,
1000
1100
0001
0101
,
0010
0000
0000
0000
0001
0000
0000
0001
0000
0000
1000
0000
0100
0000
0000
0100
,
0000
0010
0001
1000
0001
2000
0000
0000
,
3010
0000
0000
0000
0100
0000
0100
0000
0001
0000
0000
0100
0000
0100
0000
0001
,
0000
0000
0010
0100
1000
0100
0010
0010
,
0010
0000
0000
0000
0100
0000
0100
0000
1000
0000
0000
0100
0000
0100
0000
1000
,
0000
0000
0010
0100
0001
0100
0010
0010
,
0010
0000
0010
0000
1000
0000
1000
0000
0100
0000
0000
1000
0000
1000
0000
0100
,
0000
0000
0010
0001
1000
0010
0100
0100
,
0100
0000
0000
0000
0001
0000
0001
0000
0010
0000
0000
0001
0000
0001
0000
0010
,
0000
0000
0100
1000
0100
2000
0000
0000
,
3010
2002
0000
0000
,
0000
3003
0000
0000
;

//--------------- dance-single - Princess Pamela ----------------
#NOTES:
     dance-single:
     Princess Pamela:
     Hard:
     15:
     0,0,0,0,0:
0000
0000
0000
0000
,
0000
0000
0000
0000
,
0000
0000
0000
0000
,
1000
0000
0000
1000
0000
0000
1000
0000
0001
0000
0000
0001
0000
0000
0001
0000
,
0100
0000
0010
0000
0100
0010
0100
0010
0100
0000
0002
0000
2003
0000
3000
0000
,
0001
0010
0100
1000
0010
0100
0001
0010
,
0100
1000
0100
0001
0100
1000
0001
0100
,
0010
1000
0100
0010
0001
0100
0010
1000
,
0100
0001
0100
1000
0001
0010
0100
1000
,
0010
0000
0100
0000
0001
0000
0100
0000
0010
0000
1000
0001
0000
1000
0001
0000
,
0010
0000
0100
0000
1000
0000
0100
0000
0010
0000
0001
1000
0000
0001
1000
0000
,
0010
0000
0100
0001
0000
0100
0001
0000
0010
0000
0100
1000
0000
0100
1000
0000
,
0010
0000
0100
0000
0010
0100
0010
0100
0010
0000
2000
0000
3002
0000
0003
0000
,
2001
0010
0001
3010
,
0001
1000
0001
0000
1000
0000
0001
0000
0010
0000
0100
0000
1000
0000
0000
0000
,
1002
0010
1000
0013
,
1000
0001
1000
0000
0010
0000
0100
0000
0001
0000
0001
0000
0010
0000
0010
0000
,
0100
0000
0000
1000
0000
0000
0010
0000
0100
0000
0001
0100
0000
0100
0001
0000
,
1000
0001
1000
0000
0001
0000
0010
0000
0100
0000
1000
0100
0000
0100
1000
0000
,
0010
0000
0000
0110
0000
0000
1001
0000
1000
0000
0100
0010
0000
0010
0100
0000
,
1000
0100
1000
0000
0001
0010
0001
0010
0001
0000
2000
0000
3020
0000
0030
0000
,
0100
0000
0010
1000
0010
0000
1000
0000
0100
1000
0100
0000
0010
0000
0001
0000
,
0100
0010
0100
0010
0000
1000
0010
0000
0100
0001
0100
0000
0010
0000
1000
0000
,
0100
0000
0010
0001
0010
0000
0001
0000
0100
0001
0100
0000
0010
0000
1000
0000
,
0100
0010
0100
0010
0000
0001
0100
0000
0010
0000
0010
0000
0020
0000
0000
0000
,
1030
0000
0100
0000
0010
0100
0000
1000
0000
0001
0000
0010
0001
0000
1000
0000
,
0001
0000
0010
0000
0100
1000
0100
1000
0010
0000
0100
0000
0110
0000
0000
0000
,
0001
0000
0100
0000
0010
0100
0000
0001
0000
1000
0000
0010
1000
0000
0001
0000
,
1000
0000
0100
0000
0010
0001
0010
0001
0010
0000
0200
0000
2300
0000
3000
0000
,
0001
1000
0100
0001
0100
1000
0001
0000
,
0100
0010
0000
1000
0000
0010
0000
0000
1001
0000
1001
0000
1001
0000
0000
0000
,
1000
0001
0100
1000
0100
0001
1000
0000
,
0010
0100
0000
0001
0100
0000
0010
0000
1000
0000
0001
0000
1001
0000
0000
0000
,
0001
0010
0100
0010
1000
0010
0001
0010
,
0100
1000
0100
1000
0000
0001
0000
0000
0010
0000
0100
0000
0110
0000
0000
0000
,
1000
0000
0100
1000
0000
1000
0010
0000
0100
0000
0100
0001
0000
0001
0010
0000
,
0001
0000
1000
0000
0001
1000
0001
1000
0010
0000
0100
0000
0110
0000
0000
0000
,
2001
0100
0001
0100
,
3010
0100
0001
0010
0100
1000
0001
0100
,
0020
1000
0100
1000
,
0130
0001
0010
0100
1000
0010
0100
0001
,
2001
0000
0000
0000
0100
0000
0000
0000
3001
0000
0010
0001
0000
0001
0010
0000
,
0002
0000
0000
0000
0100
0000
0000
0000
1003
0000
0010
1000
0000
1000
0010
0000
,
0110
0000
0000
0001
0000
0000
0010
0000
0001
0000
1000
0100
0000
0100
1000
0000
,
0110
0000
0000
1000
0000
0000
0010
0000
0100
0000
0001
0100
0000
0100
0001
0000
,
0110
0000
0000
0010
0000
0000
0100
0000
0001
0000
1000
0001
0000
0001
1000
0000
,
0010
1000
0010
0000
0100
0001
0100
0000
0001
1000
0001
1000
0100
0010
0001
0020
,
0030
0000
0000
0000
0001
0100
0001
0000
1000
0100
1000
0000
0010
0000
0100
0000
,
0001
0000
0010
0000
0100
1000
0100
1000
0001
0000
0010
0000
0001
0000
1000
0000
,
0010
0000
0100
0000
0001
0010
0001
0000
1000
0010
1000
0000
0100
0000
0010
0000
,
0001
0000
0100
0000
0010
1000
0010
1000
0001
0000
0100
0000
0001
0000
0010
0000
,
0100
0000
1000
0000
0001
0100
0010
0000
1000
0100
0010
0000
0001
0000
1000
0000
,
0010
0000
1000
0000
0001
0010
0001
0010
0100
0000
1000
0000
0001
0000
0100
0000
,
0010
0000
1000
0000
1100
0000
0000
1100
0000
0000
0001
0000
0011
0000
0000
0011
,
0000
0000
1000
0000
0010
0100
0010
0000
1000
0001
1000
0000
0100
0000
0010
0000
,
1001
0000
0000
0000
0001
1000
0001
0000
0010
0000
0100
1000
0001
1000
0000
0100
,
0010
0000
0001
0000
1000
0000
0010
0000
0100
0001
0100
0001
0010
0000
0100
0000
,
0110
0000
0000
0000
1000
0001
1000
0000
0010
0000
0100
0001
1000
0001
0000
0100
,
0010
0000
1000
0000
0001
0000
0010
0000
0001
1000
0001
1000
0200
0000
0010
0000
,
0010
0000
0310
0000
0001
0010
0001
0000
0010
0000
0001
1000
0100
1000
0000
0001
,
0010
0000
0100
0000
1000
0000
0010
0000
0100
0001
0100
0001
0010
0000
0100
0000
,
0110
0000
0000
0000
1000
0100
1000
0000
0100
0000
1000
0001
0010
0001
0000
1000
,
0100
0000
0010
0000
0001
0000
0100
0000
0010
1000
0010
1000
0001
0000
0020
0000
,
0230
0300
2002
0000
0000
0000
0000
0000
,
0000
3003
0000
0000
;

//--------------- dance-double - Princess Pamela ----------------
#NOTES:
     dance-double:
     Princess Pamela:
     Hard:
     15:
     0,0,0,0,0:
00000000
00000000
00000000
00000000
,
00000000
00000000
00000000
00000000
,
00000000
00000000
00000000
00000000
,
00001000
00000000
00000000
00001000
00000000
00000000
00010000
00000000
00100000
00000000
00000000
00100000
00000000
00000000
10000000
00000000
,
01000000
00000000
00100000
00000000
01000000
00100000
01000000
00100000
00000000
00000000
00001000
00000000
00010000
00000000
00000000
00000000
,
00000010
00001000
00000100
00000001
00000100
00000010
00001000
00010000
,
01000000
00100000
00010000
10000000
00100000
01000000
00001000
00000000
,
00100000
00010000
01000000
10000000
01000000
00100000
00010000
00001000
,
00000010
00000100
00001000
00000001
00000100
00000010
00001000
00001000
,
00000001
00000000
00000010
00000000
00001000
00000000
00010000
00000000
01000000
00000000
00100000
01000000
00000000
00100000
01000000
00000000
,
10000000
00000000
00100000
00000000
00010000
00000000
00001000
00000000
00000100
00000000
00000010
00000100
00000000
00000010
00000100
00000000
,
00000001
00000000
00000000
00000010
00000000
00000000
00001000
00000000
00010000
00000000
00001000
00010000
00000000
00001000
00010000
00000000
,
01000000
00000000
10000000
00000000
00100000
01000000
00100000
01000000
00000000
00000000
00010000
00000000
00100000
00000000
00000000
00000000
,
10020000
01000000
10000000
00100000
,
00031000
00010000
00010000
00001000
00010000
00000010
00000100
00000000
,
00002001
00000100
00000001
00000010
,
00013000
00001000
00001000
00010000
00001000
00100000
01000000
00100000
,
10000000
00000000
00000000
01000000
00000000
00000000
00010000
00000000
00001000
00000000
00010000
00001000
00000000
00001000
00010000
00000000
,
00001000
00000000
00000010
00000000
00000001
00000000
00000100
00000000
00001000
00000000
00010000
00001000
00000000
00001000
00010000
00000000
,
00100000
00000000
00000000
10000000
00000000
00000000
01000000
00000000
00010000
00000000
00001000
00010000
00000000
00010000
00001000
00000000
,
00000010
00000000
00000001
00000000
00000100
00000010
00000100
00000010
00000000
00000000
00010000
00000000
00001000
00000000
00000000
00000000
,
01000000
00000000
00010000
00000000
00100000
00000000
10000000
00000000
00100000
00010000
00100000
00000000
00010000
00000000
01000000
00000000
,
00001000
00010000
00001000
00000000
00010000
00000000
00001000
00000000
00000010
00000001
00000010
00000000
00000001
00000000
00001000
00000000
,
00000100
00000000
00001000
00000000
00000010
00000000
00000001
00000000
00000010
00001000
00000010
00000000
00001000
00000000
00000100
00000000
,
00010000
00001000
00010000
00000000
00001000
00000000
00010000
00000000
00100000
10000000
00100000
00000000
10000000
00000000
10000000
00000000
,
01000000
00000000
00010000
00000000
00001000
00010000
00000000
00001000
00000000
00000010
00000000
00000001
00000010
00000000
00000000
00000000
,
00000001
00000000
00000100
00000000
00001000
00010000
00001000
00010000
00000010
00000000
00000010
00000000
00000010
00000000
00000000
00000000
,
00000100
00000000
00001000
00000000
00010000
00001000
00000000
00010000
00000000
00100000
00000000
10000000
00100000
00000000
00000000
00000000
,
10000000
00000000
01000000
00000000
00010000
00001000
00010000
00001000
00000000
00000000
00000010
00000000
00000100
00000000
00000000
00000000
,
00000001
00000100
00000010
00001000
00010000
01000000
10000000
00000000
,
01000000
01000000
00000000
10000000
00000000
00100000
00000000
00000000
01000000
00000000
01000000
00000000
01000000
00000000
00000000
00000000
,
10000000
01000000
00100000
00010000
00001000
00000100
00000001
00000000
,
00000100
00000100
00000000
00000010
00000100
00000000
00000001
00000000
00001000
00000000
00000010
00000000
00000110
00000000
00000000
00000000
,
00000001
00000100
00001000
00010000
01000000
10000000
01000000
00010000
,
00001000
00000010
00000001
00000010
00001000
00010000
00100000
10000000
,
01000000
00000000
00100000
01000000
00000000
01000000
00100000
00000000
00001000
00000000
00010000
00001000
00000000
00001000
00010000
00000000
,
00000100
00000000
00000010
00000000
00000100
00000010
00000100
00000010
00000000
00000000
00000001
00000000
00001000
00000000
00000000
00000000
,
00002001
00000100
00000001
00000010
,
00023000
01000000
10000000
00100000
,
00032000
00000100
00000001
00000010
,
00023000
01000000
10000000
00100000
,
00031000
00000000
00000100
00000000
00001000
00000000
00000010
00000000
00000100
00000000
00000001
00000100
00000000
00000100
00000001
00000000
,
00000010
00000000
00000100
00000000
00000010
00000000
00001000
00000000
00010000
00000000
00001000
00100000
00000000
00100000
00001000
00000000
,
00110000
00000000
00000000
00010000
00000000
00000000
01000000
00000000
00100000
00000000
10000000
00100000
00000000
00100000
10000000
00000000
,
01100000
00000000
00000000
00010000
00000000
00000000
01000000
00000000
00001000
00000000
00100000
00001000
00000000
00001000
00100000
00000000
,
00011000
00000000
00000000
00000010
00000000
00000000
00010000
00000000
00000100
00000000
00001000
00000010
00000000
00000010
00001000
00000000
,
00000001
00000000
00000010
00000000
00001000
00000000
00010000
00000000
01000000
00100000
01000000
00100000
00010000
10000000
01000000
00200000
,
00300000
00000000
10000000
00100000
01000000
00010000
00001000
00000100
,
00000001
00000000
00000010
00000000
00000100
00001000
00000100
00000000
00010000
00001000
00010000
00000000
00000010
00001000
00000010
00000000
,
00000100
00001000
00000001
00000010
00000100
00001000
00010000
01000000
,
10000000
00000000
00100000
00000000
01000000
00010000
01000000
00000000
00001000
00010000
00001000
00000000
00100000
00010000
00100000
00000000
,
01000000
00010000
10000000
00100000
01000000
00010000
00001000
00000100
,
00000001
00000000
00000010
00000000
00000100
00001000
00000100
00000000
00010000
00001000
00010000
00000000
00000010
00001000
00000010
00000000
,
00000100
00000000
00000001
00000000
00000010
00000000
00000000
00001000
00000000
00000000
00010000
00000000
00100000
00000000
00000000
00010000
,
00000000
00000000
00001000
00000000
00010000
00000000
01000000
00000000
00100000
01000000
00100000
01000000
00100000
00000000
00010000
00000000
,
10000000
00000000
00000000
00000000
00100000
00000000
00010000
00000000
00001000
00010000
00000000
00001000
00000000
00000100
00000000
00000001
,
00001000
00000000
00000000
00000000
00000001
00000000
00000010
00000000
00001000
00010000
00001000
00010000
00000100
00000000
00000010
00000000
,
00000110
00000000
00000000
00000000
00000010
00000000
00001000
00000000
00010000
00001000
00000000
00010000
00000000
01000000
00000000
10000000
,
00010000
00000000
00000000
00000000
10000000
00000000
00100000
00000000
00010000
00001000
00010000
00001000
02000000
00000000
00010000
00000000
,
03010000
00000000
10000000
00000000
01000000
00000000
00010000
00000000
00001000
00010000
00000000
00001000
00000000
00000010
00000000
00000001
,
00001000
00000000
00000000
00000000
00000001
00000000
00000100
00000000
00001000
00010000
00001000
00010000
00000010
00000000
00000100
00000000
,
00000110
00000000
00000000
00000000
00000100
00000000
00001000
00000000
00010000
00001000
00000000
00010000
00000000
00100000
00000000
10000000
,
00010000
00000000
00000000
00000000
10000000
00000000
01000000
00000000
00010000
00001000
00010000
00001000
00000000
00000000
00000010
00000000
,
00000100
00002002
00000000
00000000
,
00000000
00003003
00000000
00000000
;
