#VERSION:0.83;
#TITLE:Last Burning;
#SUBTITLE:;
#ARTIST:Dirty Androids;
#TITLETRANSLIT:;
#SUBTITLETRANSLIT:;
#ARTISTTRANSLIT:;
#GENRE:;
#CREDIT:chronon;
#MUSIC:Last Burning.ogg;
#BANNER:Last Burning.png;
#BACKGROUND:Last Burning-bg.png;
#CDTITLE:;
#SAMPLESTART:73.846;
#SAMPLELENGTH:29.538;
#SELECTABLE:YES;
#OFFSET:1.846;
#BPMS:0.000=130.000;
#STOPS:;
#BGCHANGES:;
#FGCHANGES:;

//--------------- dance-single - chronon ----------------
#NOTEDATA:;
#STEPSTYPE:dance-single;
#DESCRIPTION:chronon;
#DIFFICULTY:Beginner;
#METER:3;
#RADARVALUES:0,0,0,0,0;
#NOTES:
0000
0000
0000
0000
,
0000
0000
0000
0000
,
0000
0000
0000
0000
,
0000
0000
0000
0000
,
0000
0000
0000
0000
,
0001
0000
1000
0000
,
0001
0000
1000
0000
,
0010
0000
0100
0000
,
1001
0000
0000
0000
,
0001
0000
0000
0000
,
1000
0000
0000
0000
,
0010
0000
0000
0000
,
0100
0000
0000
0000
,
0001
0000
0000
0000
,
1000
0000
0000
0000
,
0100
0000
0000
0000
,
0010
0000
0000
0000
,
0001
0000
0001
0000
,
1000
0000
1000
0000
,
0010
0000
0010
0000
,
0100
0000
0100
0100
,
0001
0000
0001
0000
,
1000
0000
1000
0000
,
0100
0000
0100
0000
,
0010
0000
0010
0010
,
0001
0000
0010
0000
,
0010
0000
0000
0000
,
0100
0000
1000
0000
,
1000
0000
0000
0000
,
0001
0000
0100
0000
,
0100
0000
0000
0000
,
0010
0000
1000
0000
,
1000
0000
0001
0000
,
1001
0000
0000
0000
,
0000
0000
0000
0000
,
0000
0000
0000
0000
,
0000
0000
0000
0000
,
0001
1000
0001
0000
,
1000
0001
1000
0000
,
0001
0000
1000
0000
,
0001
1000
0001
0000
,
1000
1000
1000
0000
,
0100
0100
0100
0000
,
0010
0010
0010
0000
,
0001
0001
0001
0000
,
1000
1000
1000
0000
,
0010
0010
0010
0000
,
0100
0100
0100
0000
,
0001
0001
0001
0000
,
1000
0000
0010
0000
,
0100
0000
0000
0000
,
0001
0000
0010
0000
,
0100
0000
0000
0000
,
1000
0000
0100
0000
,
0010
0000
0000
0000
,
0001
0000
0100
0000
,
0010
0000
1000
0000
,
0001
1000
0001
0000
,
0010
0100
0010
0000
,
0001
1000
0001
0000
,
0100
0100
0100
0000
,
0001
0100
0001
0000
,
1000
0010
1000
0000
,
0001
0000
1000
0000
,
0001
1000
0001
0000
;

//--------------- dance-single - chronon ----------------
#NOTEDATA:;
#STEPSTYPE:dance-single;
#DESCRIPTION:chronon;
#DIFFICULTY:Easy;
#METER:7;
#RADARVALUES:0,0,0,0,0;
#NOTES:
0000
0000
0000
0000
,
0000
0000
0000
0000
,
0000
0000
0000
0000
,
0000
0000
0000
0000
,
0000
0000
0000
0000
,
1000
0100
1000
0100
,
0010
0001
0010
0001
,
1000
0001
1000
0001
,
1001
0000
0000
0000
,
1000
0010
0100
0000
,
0001
0010
0100
0000
,
1000
0100
0010
0000
,
0001
0100
0010
0010
,
1000
0010
0200
0300
,
0001
0010
0100
0000
,
1000
0100
0020
0030
,
0001
0100
0010
1000
,
0001
0100
0020
0030
,
1000
0100
0010
0000
,
0001
0010
0200
0300
,
1000
0010
0100
0100
,
0001
0100
0020
0030
,
1000
0100
0010
0000
,
0001
0010
0200
0300
,
1000
0010
0100
0001
,
0100
0000
0001
0100
0000
0000
0010
0100
,
0000
0000
0001
0100
0000
0000
0010
0000
,
1000
0000
1000
0100
0000
0000
0010
0100
,
0000
0000
1000
0100
0000
0000
0010
0000
,
0001
0000
0001
0100
0000
0000
0010
0000
,
1000
0000
1000
0100
0000
0000
0010
0000
,
0001
0100
0010
1000
,
0001
1000
0001
1000
,
1001
0000
0000
0000
,
0000
0000
0000
0000
,
0000
0000
0000
0000
,
0000
0000
0000
0000
,
0001
0100
0020
0030
,
1000
0100
0010
0001
,
1000
0010
0100
0001
,
1000
0001
1000
0000
,
0001
0100
0010
1000
,
0001
0100
0010
1000
,
0001
0100
0010
1000
,
0001
0100
0010
1000
,
0001
0010
0100
1000
,
0001
0010
0100
1000
,
0001
0010
0100
1000
,
0001
0010
0100
1000
,
0100
0010
0100
1000
,
0001
1000
0010
0010
,
0100
0010
0100
0001
,
1000
0001
0010
0010
,
0100
0010
0100
1000
,
0001
1000
0010
0010
,
0100
0010
1000
0100
,
0010
0001
0100
0010
,
1000
0010
0020
0130
,
0001
0010
0010
0100
,
1000
0100
0200
0310
,
0001
0100
0010
1000
,
0001
0010
0020
0130
,
1000
0010
0010
0100
,
0002
1003
0200
0310
,
0001
1000
0010
0100
;

//--------------- dance-single - chronon ----------------
#NOTEDATA:;
#STEPSTYPE:dance-single;
#DESCRIPTION:chronon;
#DIFFICULTY:Medium;
#METER:12;
#RADARVALUES:0,0,0,0,0;
#NOTES:
0000
0000
0000
0000
,
0000
0000
0000
0000
,
0000
0000
0000
0000
,
0000
0000
0000
0000
,
0000
0000
0000
0000
,
0001
1000
0001
1000
0001
1000
0001
0000
,
0100
0000
0010
0000
0100
0000
0010
0100
0000
0000
0001
0000
0010
0000
0100
0000
,
1000
0100
0010
0001
1000
0010
0100
0001
,
0020
0000
0001
0130
,
1000
0001
1000
0020
0030
0000
0100
0000
,
0001
0000
1000
0000
0001
0000
0010
0100
0000
0000
2000
0000
3001
0000
0000
0000
,
1000
0000
0001
0000
1000
0000
0010
0100
0000
0000
0002
0000
1003
0000
0000
0000
,
0001
1000
0001
0010
0100
0000
1000
0000
,
0001
1000
0001
0200
0300
0110
0010
0000
,
1000
0000
0001
0000
1000
0000
0100
0010
0000
0000
0002
0000
1003
0000
0000
0000
,
0001
0000
1000
0000
0001
0000
0100
0010
0000
0000
0110
0000
0010
0000
0000
0000
,
1000
0000
0010
0000
0100
0000
0000
0000
0001
0000
0010
0000
0100
0000
0002
0003
,
0100
0010
0001
0200
0300
0110
0100
0001
,
0100
0000
0010
0000
1000
0000
0001
0010
0000
0001
1000
0000
0100
0000
0000
0000
,
0010
0000
0100
0000
1000
0000
0001
0100
0000
0000
0110
0000
0100
0000
0001
0000
,
0100
0010
1000
0001
0010
0000
0100
0000
,
0010
0100
1000
0020
0030
0110
0010
1000
,
0010
0000
0100
0000
0001
0000
1000
0100
0000
1000
0001
0000
0100
0000
0000
0000
,
0010
0000
0100
0000
0001
0000
1000
0100
0000
0000
0110
0000
0100
0000
1000
0000
,
0100
0000
0010
0000
0001
0000
1000
0001
0000
1000
0000
0000
0010
0000
0000
0000
,
0100
0010
0100
0001
0010
0100
0010
0001
,
0100
0010
0100
0001
0010
0100
0010
0000
,
0100
0010
0100
1000
0010
0100
0010
1000
,
0100
0010
0100
1000
0010
0100
0010
0000
,
0100
0010
0100
0001
0010
0100
0010
0000
,
0100
0010
0100
1000
0010
0100
0010
0000
,
0100
0001
1000
0000
0100
1000
0001
0000
,
1000
0001
1000
0001
1000
0001
1000
0001
1000
0001
0000
0000
,
1001
0000
0000
0000
,
0000
0000
0000
0000
,
0000
0000
0000
0000
,
0000
0000
0000
0000
,
1000
0000
0000
0000
0010
0000
1000
0010
0000
0000
0110
0000
0100
0000
0000
0000
,
0001
0000
1000
0000
0001
0000
0010
0100
,
1000
0000
1000
0000
0000
0001
0000
0000
1000
0000
1000
0000
0001
0000
1000
0000
,
0010
0100
0010
0100
0010
0100
0000
0000
,
0001
0100
0010
1000
0100
0010
0001
0000
,
1000
0100
0010
0001
0100
0010
1000
0000
,
0001
0100
0010
1000
0100
0010
0001
0000
,
1000
0100
0010
0001
0100
0010
1000
0001
,
1000
0010
0100
0001
0010
0100
1000
0000
,
0001
0010
0100
1000
0010
0100
0001
0000
,
1000
0010
0100
0001
0010
0100
1000
0000
,
0001
0010
0100
1000
0010
0100
0001
1000
,
0001
0000
0100
0000
0010
0000
0000
0001
0000
0000
0010
0000
0100
0000
0000
0001
,
0000
0000
0010
0000
0100
0000
0000
0010
0000
0000
0100
0000
1000
0000
0000
0000
,
1000
0000
0100
0000
0010
0000
0000
1000
0000
0000
0010
0000
0100
0000
0000
1000
,
0000
0000
0010
0000
0100
0000
0000
0010
0000
0000
0100
0000
0001
0000
0000
0000
,
0001
0000
1000
0000
0010
0000
0000
0001
0000
0000
0010
0000
1000
0000
0000
0001
,
0000
0000
0010
0000
0100
0000
0000
0010
0000
0000
0100
0000
1000
0000
0000
0000
,
0001
0000
1000
0000
0100
0000
0000
0001
0000
0100
0000
1000
0000
0001
0000
1000
,
0000
0000
0000
0010
0000
0100
0000
2002
0000
0000
0000
0000
3003
0000
0001
0000
,
0100
0010
1000
0200
0310
0110
0100
1000
,
0100
0000
0010
0000
0001
0000
1000
0010
0000
1000
0001
0000
0100
0000
0000
0000
,
0010
0000
0100
0000
0001
0000
1000
0100
0000
0000
0110
0000
0010
0000
0001
0000
,
1000
0100
0010
0001
0100
0010
1000
0000
,
0010
0100
0001
0020
0130
0110
0010
0001
,
0010
0000
0100
0000
1000
0000
0001
0100
0000
0001
1000
0000
0010
0000
0000
0000
,
0200
0300
1001
0000
0001
0010
0100
0000
,
1000
0100
0010
0000
0002
0103
0020
0230
,
0300
0000
0000
0000
;

//--------------- dance-single - chronon ----------------
#NOTEDATA:;
#STEPSTYPE:dance-single;
#DESCRIPTION:chronon;
#DIFFICULTY:Hard;
#METER:16;
#RADARVALUES:0,0,0,0,0;
#NOTES:
0000
0000
0000
0000
,
0000
0000
0000
0000
,
0000
0000
0000
0000
,
0000
0000
0000
0000
,
0000
0000
0000
0000
,
1000
0010
1000
0010
1000
0010
0100
0001
,
1000
0000
0100
0000
1000
0000
0100
1000
0000
0100
1000
0100
0010
0001
1000
0001
,
0100
0001
0100
0010
1000
0001
1000
0100
0010
0001
0010
0100
1000
0010
0100
0001
,
2000
0000
0001
3010
,
1000
0000
0010
0000
0200
0000
1000
0000
0000
0000
0310
0000
0100
0000
0001
1000
,
0001
0000
0010
0000
0100
0000
1000
0200
0000
0000
0010
0000
0000
0000
1300
0001
,
1000
0000
0010
0000
0100
0000
0001
0200
0000
0000
0010
0000
0000
0000
0301
1000
,
0001
0000
0010
0000
0100
0000
1000
0100
0010
0100
1000
0001
0100
0010
1000
0001
,
1000
0000
0010
0000
0200
0000
1000
0000
0310
0000
0110
0000
0100
0000
0010
1000
,
0001
0000
0010
0000
0100
0000
1000
0200
0000
0000
0010
0000
0000
0000
1300
0001
,
1000
0000
0010
0000
0100
0000
0001
0100
0000
0000
0110
0000
0010
0000
1000
0001
,
1000
0100
0010
0000
0001
0000
1000
0010
0100
0001
1000
0100
0010
0000
2000
3020
,
0130
0000
0010
0000
0200
0000
0001
0000
0310
0000
0110
0000
0100
1000
0001
1000
,
0010
0000
0100
0000
0010
0000
1000
0010
0000
0010
0100
0000
0001
1000
0001
0010
,
0100
0000
0010
0000
0100
0000
1000
0100
0000
0000
0110
0000
0010
0001
1000
0001
,
0100
0000
0010
0000
0100
0000
0001
0100
0010
0100
0001
1000
0100
0010
0001
1000
,
0010
0000
0100
0000
0020
0000
0001
0000
0130
0000
0110
0000
0010
1000
0001
1000
,
0100
0000
0010
0000
0100
0000
1000
0100
0000
0100
0010
0000
0001
1000
0001
0100
,
0010
0000
0100
0000
0010
0000
1000
0010
0000
0000
0110
0000
0100
0001
1000
0001
,
0010
0000
0100
0000
1000
0000
0001
1000
0000
0020
0000
0000
0130
0010
1000
0001
,
1000
0000
0010
0000
0100
0000
0002
0023
0130
0000
0010
0000
0100
0000
2000
3020
,
0130
0000
0010
0000
0100
0000
0002
0023
0130
0000
0010
0000
0100
0000
2000
3020
,
0130
0000
0010
0000
0100
0000
0002
0023
0130
0000
0010
0000
0100
0000
0002
0203
,
1300
0000
0010
0000
0100
0000
0002
0023
0130
0000
1000
0001
1000
0010
0200
0000
,
0301
0000
0000
0100
0000
0000
0010
0000
0000
0000
0000
0000
0100
0000
0000
0000
0000
0000
2000
0000
0000
3200
0000
0000
0301
0000
0000
1000
0000
0000
0001
0000
0000
0000
0000
0000
0010
0000
0000
0000
0000
0000
0100
0000
1000
0000
0100
0000
,
1000
0000
0000
0100
0000
0000
0010
0000
0000
0000
0000
0000
0100
0000
0000
0000
0000
0000
0002
0000
0000
0203
0000
0000
1300
0000
0000
0001
0000
0000
1000
0000
0000
0000
0000
0000
0010
0000
0000
0000
0000
0000
0100
0000
0001
0000
0100
0000
,
0001
0000
0200
1000
0320
0001
0130
0001
,
0100
0000
0000
0000
0001
0000
0000
0000
1000
0000
0000
0000
0010
0000
0000
0000
1000
0000
0000
0000
0001
0000
0000
0000
1000
0000
0000
0000
0100
0000
0000
0000
0010
0000
0000
0000
0001
0000
0000
0000
0000
0000
1000
0000
0000
0001
0000
0000
,
1000
0020
0030
0020
0030
0020
0030
0020
,
1030
0002
0003
0002
0003
0002
0003
0002
,
1003
0200
0300
0200
0300
0200
0300
0200
,
1300
0002
0003
0002
0003
0002
0003
0002
,
0103
0000
0000
0000
0010
0000
1000
0010
0000
0000
0110
0000
0100
0000
0001
1000
,
0001
0000
0000
0000
0010
0000
0000
0000
0100
0000
0000
0000
1000
0000
0001
1000
,
0010
0000
0010
0000
0100
0010
0000
0000
0010
0000
0010
0000
0100
0010
1000
0001
,
1000
0100
0010
0001
1000
0100
0010
0001
1000
0100
0010
0001
0200
0000
0320
0000
,
1030
0010
0100
0001
1000
0010
0100
2000
0000
3100
0010
1000
0000
1000
0100
0010
,
0001
0010
0100
1000
0001
0010
0100
0002
0000
0103
0010
0001
0000
0001
0100
0010
,
1000
0010
0100
0001
1000
0010
0100
2000
0000
3100
0010
1000
0000
1000
0100
0010
,
0001
0010
0100
1000
0001
0010
0100
0002
0000
0103
1000
0020
0000
0130
0001
1000
,
0001
0010
0100
1000
0001
0100
0010
0002
0000
0013
0100
0001
0000
0001
0010
0100
,
1000
0100
0010
0001
1000
0010
0100
2000
0000
3100
0010
1000
0000
1000
0100
0010
,
0001
0010
0100
1000
0001
0100
0010
0002
0000
0013
1000
0001
0000
0001
1000
0100
,
0010
0100
1000
0001
1000
0010
0100
2000
0000
3100
0001
0020
0000
0031
0010
0100
,
1000
0000
0100
0000
0010
0000
0100
0001
0000
0100
0010
0000
0001
0000
1000
0010
,
0000
0100
0001
0000
1000
0000
0001
0010
0000
0100
1000
0000
0001
0000
1000
0000
,
0001
0000
0100
0000
0010
0000
0100
1000
0000
0100
0010
0000
1000
0000
0001
0010
,
0000
0100
1000
0000
0100
0000
1000
0020
0000
0130
0001
0000
0100
0001
1000
0010
,
0100
0000
1000
0000
0100
0000
0010
0001
0000
0010
0100
0000
0001
0000
1000
0100
,
0000
0010
0001
0000
1000
0000
0001
0100
0000
0010
1000
0000
0100
0000
0010
0000
,
0100
0000
0001
0000
0100
0000
0010
1000
0000
0010
0100
1000
0000
0001
1000
0010
,
0000
1000
0010
0100
0000
0010
0000
2002
0000
0000
0000
0000
3003
0000
0001
1000
,
0100
0010
0001
0010
0100
0020
1000
0000
0130
0000
0110
0000
0010
0001
1000
0001
,
0100
0010
1000
0010
0100
0010
1000
0001
0000
0001
0100
0000
0001
1000
0001
0010
,
0100
0010
0001
0010
0100
0010
0001
0010
0000
0000
0110
0000
0100
1000
0001
1000
,
0001
0100
0010
1000
0001
0100
0010
0002
0000
0013
0100
0001
0020
0000
0000
0000
,
0130
0010
0001
0010
0100
0020
1000
0000
0130
0000
0110
0000
0010
0001
1000
0001
,
0100
0010
1000
0010
0100
0010
1000
0001
0000
0001
0100
0000
0001
1000
0001
0010
,
0200
0300
2000
3000
0200
0000
0001
0000
0320
0000
1000
0000
0130
1000
0001
1000
,
0001
0100
0010
0000
1000
0000
0001
0010
0200
1300
0001
0100
0020
0000
0230
0000
,
0300
0000
0000
0000
;
