#TITLE:Ladymade Star;
#SUBTITLE:;
#ARTIST:ESTi;
#TITLETRANSLIT:;
#SUBTITLETRANSLIT:;
#ARTISTTRANSLIT:;
#GENRE:;
#CREDIT:;
#MUSIC:1-11. Ladymade Star.ogg;
#BANNER:;
#BACKGROUND:Ladymade Star-bg.png;
#CDTITLE:;
#SAMPLESTART:64.341;
#SAMPLELENGTH:15.000;
#SELECTABLE:YES;
#OFFSET:-0.391;
#BPMS:0.000=136.000;
#STOPS:;
#BGCHANGES:;
#FGCHANGES:;

//--------------- dance-single - Lenna ----------------
#NOTES:
     dance-single:
     Lenna:
     Medium:
     6:
     0,0,0,0,0:
0000
0000
0000
0000
,
0000
0000
0000
0000
,
0000
0000
0000
0000
,
0000
0000
0000
0000
,
1000
0001
1000
0000
,
0000
0000
0000
0000
,
0001
1000
0001
0000
,
0010
0100
0010
0000
,
1000
0001
1000
0000
,
0000
0000
0000
0000
,
0010
0010
0010
0000
,
0000
0000
0000
0000
,
0000
1010
0000
0011
,
0000
0000
1001
1001
,
0000
1100
0000
0101
,
0000
0000
0110
0110
,
1000
0000
1000
0000
1000
0000
0000
0010
,
0000
0001
0110
0110
,
0001
0000
0001
0000
0001
0000
0000
0220
,
0000
0000
0000
0000
0000
0330
0000
0000
,
0010
0000
0000
0000
1000
0000
0000
0001
,
0000
0100
0000
0000
,
0000
0001
1000
0010
,
0000
0001
0100
0010
,
0000
0010
1000
0000
,
0000
0100
0000
0000
,
0000
0001
1000
0010
,
0000
1001
1001
1001
,
0000
0100
0100
0010
,
0000
0110
0000
0000
,
0000
0010
0010
0100
,
0000
0110
0000
0000
,
0000
1000
1000
0001
,
0000
0200
0300
1001
,
0110
2002
0000
0000
,
3003
0000
0110
0220
,
0330
1000
0100
0010
,
0001
0000
0010
0020
0000
0000
0000
0000
,
0030
0001
0010
0100
,
1000
0000
0010
0020
0000
0000
0000
0130
,
0000
0100
0100
0001
,
0001
1000
1000
0000
,
0010
0010
1000
0001
,
0020
0000
0000
0100
0130
0000
0000
0000
,
0000
0010
0010
0001
,
0100
0000
0010
0020
0000
0000
0000
0000
,
0030
0010
1000
0100
,
0100
0010
0010
0001
,
2000
0000
3000
0001
,
0001
1000
1000
0001
,
0010
0000
0000
0000
,
0000
0000
1001
1001
,
1000
1000
1000
0001
,
0000
0000
0000
0000
,
0001
0001
0001
0001
,
0000
0000
0000
0000
,
0010
0010
0010
0010
,
0000
0000
0000
0000
,
0100
0100
0100
0100
,
0000
0000
0000
0000
,
0000
0000
0000
0011
0000
0000
0000
1100
,
0000
0000
1001
1001
,
0000
0000
0000
0011
0000
0000
0000
1100
,
0000
0000
1001
0110
,
0000
0000
0000
0011
0000
0000
0000
1100
,
0000
0000
1001
1001
,
0000
0000
0000
1001
0000
0000
0000
0110
,
0000
0000
1001
0000
,
0220
0000
0000
0000
,
0330
0000
0000
0000
;

//--------------- dance-single - Lenna ----------------
#NOTES:
     dance-single:
     Lenna:
     Hard:
     10:
     0,0,0,0,0:
0000
0000
0000
0000
,
0000
0000
0000
0000
,
0000
0000
0000
0000
,
0000
0000
0000
0000
,
1001
0000
1010
0000
0011
0000
0000
1010
,
0000
1001
0000
0110
0000
0000
0000
0000
,
0001
0010
0100
1000
,
0100
0010
0001
0000
,
1000
0000
0110
0000
0001
0000
1000
0001
,
0000
0010
0000
0100
0000
0000
0000
0000
,
0001
0000
0110
0000
1000
0000
0001
1000
,
0000
0011
0000
0100
0000
0000
0000
0000
,
0000
0001
0010
0001
0000
1000
0100
1000
,
0000
0001
0010
0001
0010
0100
0010
0000
,
0000
1000
0010
1000
0000
0001
0100
0001
,
0000
0001
0100
0001
0010
0100
0010
0000
,
1000
0100
1000
0010
1000
0100
0000
0110
,
0000
0001
1000
0001
0010
0100
0010
0000
,
0001
0100
0010
0100
0001
0100
0000
0020
,
0000
0000
0000
0000
0000
0030
0000
0001
,
0010
0000
0000
1000
0010
1000
0000
0001
,
0000
0100
0100
0000
0000
0000
0000
0000
,
0000
0001
0001
1000
1000
0010
0010
0100
,
0000
0010
1000
0001
0100
0000
0010
0000
,
0000
0000
0010
1000
0001
0010
0000
0010
,
0000
0010
1000
0000
0000
0000
0000
0000
,
0000
0001
0100
0001
1000
0010
1000
0010
,
0000
0001
0001
1000
1000
0001
0001
0000
,
0000
1000
0100
1000
0100
0000
0010
0001
,
0000
1000
0001
2000
0000
3000
0000
0000
,
0000
0001
0100
0001
0100
0000
0010
1000
,
0000
0001
1000
0002
0000
0003
0000
0000
,
0000
1000
0001
1000
0001
0000
0010
0100
,
0000
1000
0100
0020
0000
0030
0001
0001
,
0002
0000
1000
2000
0000
3003
0000
0000
,
0000
0000
1010
0011
,
0000
0000
2000
0000
3002
0000
1003
0010
,
0200
0000
0310
2000
0000
0000
0000
0000
,
3000
0000
0010
1000
0001
1000
0010
0100
,
0002
0000
0013
0010
0000
0001
1000
0100
,
0000
0000
1000
0000
1001
0000
0001
0010
,
0001
0000
1000
0100
1000
0000
0000
0001
,
0010
0000
0010
0100
1000
0000
0001
0000
,
0010
0000
0000
0100
0100
0000
0000
0000
,
0000
0000
0010
0000
0110
0000
0001
0001
,
0100
0000
0010
0010
0000
0000
0000
0000
,
0000
0000
0010
0010
1000
1000
0100
0100
,
1000
0000
0010
0001
0010
0000
1000
0000
,
0200
0000
0300
0000
0000
0010
0001
0010
,
0001
1000
1000
0001
,
0020
0000
0000
0000
0000
0000
0000
0000
0000
0000
0000
0000
0000
0000
0000
0000
1000
0000
0000
0000
0000
0000
0000
0000
0000
0000
0000
0000
0000
0000
0000
0000
0001
0000
0000
0000
0000
0000
0000
0000
0000
0000
0000
0000
0000
0000
0000
0000
1000
0000
0000
0000
0000
0000
0000
0000
0000
0000
0000
0000
0000
0000
0000
0030
,
0001
0000
0110
1001
,
1000
0000
0001
0000
1000
0000
0010
0100
,
0000
0010
0000
0200
0000
0300
0000
0000
,
0001
0000
1000
0000
0001
0000
0100
0010
,
0000
0100
0000
0110
0000
0000
0000
0000
,
1000
0000
0001
0000
1000
0000
0100
0010
,
0000
0100
0000
0010
0000
0000
0000
0000
,
0001
0000
1000
0000
0001
0000
0010
0100
,
0000
0010
0000
0210
0000
0000
0000
0300
,
0000
0001
0010
0001
0000
1000
0100
1000
,
0000
0001
0100
0001
1000
0010
0010
0000
,
0000
1000
0010
1000
0000
0001
0100
0001
,
0000
1000
0100
1000
0010
0100
0200
0000
,
0300
0001
0010
0001
0000
1000
0100
1000
,
0000
0001
0010
0001
1000
0100
0100
0000
,
0000
0001
0010
0001
0000
1000
0100
1000
,
0000
0000
0000
0000
0000
0000
0000
0000
0001
0000
0000
1000
0000
0000
0010
0000
,
0200
0000
0000
0000
,
0300
0000
0000
0000
;
