#VERSION:0.83;
#TITLE:LΔchesis;
#SUBTITLE:;
#ARTIST:7mai;
#TITLETRANSLIT:Lachesis;
#SUBTITLETRANSLIT:;
#ARTISTTRANSLIT:;
#GENRE:;
#ORIGIN:;
#TAGS:;
#CREDIT:;
#BANNER:Lachesis.png;
#BACKGROUND:Lachesis-bg.png;
#PREVIEWVID:;
#JACKET:Lachesis-jacket.png;
#CDIMAGE:;
#DISCIMAGE:;
#LYRICSPATH:;
#CDTITLE:;
#MUSIC:Lachesis.ogg;
#OFFSET:-0.398000;
#SAMPLESTART:89.498856;
#SAMPLELENGTH:15.000000;
#SELECTABLE:YES;
#DISPLAYBPM:125.000000:188.000000;
#BPMS:0.000000=188.000000
,60.000000=125.334991
,69.000000=188.000000
,72.250000=220.000000
,74.000000=188.000000
,335.000000=125.334991
,344.000000=188.000000
,352.000000=150.000000
,357.000000=124.999992
;
#STOPS:;
#DELAYS:;
#WARPS:;
#TIMESIGNATURES:0.000000=4=4
;
#TICKCOUNTS:0.000000=4
;
#COMBOS:0.000000=1
;
#SPEEDS:0.000000=1.000000=0.000000=0
;
#SCROLLS:0.000000=1.000000
;
#FAKES:;
#LABELS:0.000000=Song Start
;
#BGCHANGES:;
#KEYSOUNDS:;
#ATTACKS:
;

//---------------dance-single - ----------------
#NOTEDATA:;
#CHARTNAME:;
#CHARTHASH:2380881132;
#STEPSTYPE:dance-single;
#BANNER:;
#DESCRIPTION:;
#CHARTSTYLE:;
#DIFFICULTY:Beginner;
#METER:3;
#METERF:3.000000;
#LASTSECONDHINT:118.009415;
#RADARVALUES:0.113762,0.220429,0.049258,0.180612,0.004105,97.000000,91.000000,6.000000,22.000000,0.000000,0.000000,0.000000,0.000000,0.000000,0.113762,0.220429,0.049258,0.180612,0.004105,97.000000,91.000000,6.000000,22.000000,0.000000,0.000000,0.000000,0.000000,0.000000;
#CREDIT:dj VERTICAI;
#DISPLAYBPM:125.000000:188.000000;
#NOTES:
0000
0000
0000
0000
,
0000
0000
0000
0000
,
0000
0000
0000
0000
,
0000
0000
0000
0000
,
0000
0000
0000
0000
,
0000
0000
0000
0000
,
0000
0000
0000
0000
,
0000
0000
1000
0000
,
0000
1000
0000
0000
,
0000
0000
0000
0001
0000
0000
0000
0000
,
0000
0001
0000
0000
0000
0000
0000
0000
,
0000
1000
0000
0000
,
1000
0000
0000
0000
,
0000
0001
0000
0000
0000
0000
0000
0001
,
0000
0000
0000
0000
,
1000
0000
0000
0001
,
0000
0000
0000
0000
0100
0000
0000
0100
,
0000
0020
0000
0000
,
0000
0030
0000
0000
0000
0000
0000
0000
1000
0000
0000
0000
0000
0000
0000
0000
,
0000
0000
0000
0100
0000
0000
0000
0000
,
0000
0000
0000
0110
0000
0000
0000
0000
,
0000
0000
0100
0000
,
1000
0000
0001
0000
,
0000
0100
0100
0000
,
0000
0000
0000
0110
0000
0000
0000
0000
,
0000
0000
0000
0100
0000
0000
0000
0001
,
0000
0000
1000
0000
,
0000
0000
0000
0010
0000
0000
0000
0000
,
0000
0000
0000
0110
0000
0000
0000
0000
,
0000
0000
0000
0000
0010
0000
0000
1000
,
0000
0000
0001
0000
,
0000
0000
0010
0000
0000
0010
0000
0000
,
0000
0000
0000
0100
0000
0000
0100
0000
,
0000
0010
0000
0001
0000
0000
0000
0000
,
1001
0000
2000
0000
,
0000
0000
3000
0000
,
0002
0000
0000
0003
,
0002
0003
0200
0000
,
0300
0020
0000
0030
,
2000
0000
3000
0002
,
0000
0003
0020
0000
,
0000
0000
0030
0000
,
0200
0000
0000
0000
,
0300
0000
0020
0000
,
0030
0002
0000
0003
,
2000
0000
3000
0020
,
0000
0030
0200
0000
,
0000
0300
0000
0000
,
0020
0000
0030
0200
,
0000
0300
0001
0000
,
0000
0000
0100
0000
,
0000
0000
0000
0010
,
0000
0000
0000
0000
,
1000
0000
0000
0000
,
0000
0001
0000
0000
,
0000
0010
0000
0000
,
0000
0000
0100
0000
,
0000
0000
0000
2000
,
0000
0000
0000
3000
,
0001
0000
0000
0000
,
0100
0000
0000
0000
,
0000
1000
0000
0000
,
0000
0000
0100
0000
,
0000
0000
0000
0001
,
0000
0000
0000
0010
,
0000
0000
0000
0000
,
1000
0000
0000
0000
,
0000
0020
0000
0000
,
0000
0030
0000
0001
,
0000
0000
0001
0000
,
0000
0000
0000
0000
0000
1000
0000
0000
,
0000
0000
0000
1000
0000
0000
0000
0000
,
0000
0000
0010
0000
,
0000
0010
0000
0000
,
0000
0000
0000
0100
0000
0000
0000
0000
,
0000
0100
0000
0000
0000
0000
0000
0000
,
0000
0001
0000
0000
,
0001
0000
0000
0000
,
0000
1000
0000
0000
0000
0000
0000
1000
,
0000
0000
0000
0000
,
0100
0000
0000
0100
,
0000
0000
0000
0000
0000
0000
0000
0010
,
0000
0000
0000
0000
0000
0110
0000
0000
,
0000
0000
0000
0100
,
0000
0000
0010
0000
,
0000
0000
0001
0000
0000
0001
0000
0000
,
2000
0000
0000
0000
,
3000
0000
0000
0000
,
2002
0000
0000
0000
,
0000
0000
3003
0000
;

//---------------dance-single - ----------------
#NOTEDATA:;
#CHARTNAME:;
#CHARTHASH:245101218;
#STEPSTYPE:dance-single;
#BANNER:;
#DESCRIPTION:;
#CHARTSTYLE:;
#DIFFICULTY:Easy;
#METER:8;
#METERF:8.000000;
#LASTSECONDHINT:119.209412;
#RADARVALUES:0.282646,0.406942,0.090306,0.435111,0.036943,241.000000,230.000000,11.000000,53.000000,0.000000,0.000000,0.000000,0.000000,0.000000,0.282646,0.406942,0.090306,0.435111,0.036943,241.000000,230.000000,11.000000,53.000000,0.000000,0.000000,0.000000,0.000000,0.000000;
#CREDIT:dj VERTICAI;
#DISPLAYBPM:125.000000:188.000000;
#NOTES:
0000
0000
0000
0000
,
0000
0000
0000
0000
,
0000
0000
0000
0000
,
0000
0000
0000
0000
,
0000
0000
0000
0000
,
0000
0000
0000
0000
,
0000
0000
0000
0000
,
0000
0000
0000
0000
1000
0000
0000
0100
,
0000
0010
0000
0002
,
0000
0000
0000
1003
0000
0000
0010
0000
,
0000
0100
0000
0000
0000
0002
0000
0000
,
0000
0000
1003
0000
0000
0001
0000
0000
,
0010
0000
0200
0000
,
0000
1300
0000
0000
0001
0000
0000
0100
,
0000
0000
0000
0020
0000
0000
0000
0000
,
1030
0000
0000
0100
0000
0000
1000
0000
0000
0001
0000
0000
0100
0000
0000
0001
,
0000
0000
1000
0000
0000
0100
0000
0000
0010
0000
0000
0000
0000
0000
0010
0000
,
0000
0220
0000
0330
,
0000
1001
0000
0000
0000
0000
0000
0000
0001
0000
0000
0000
0100
0000
0000
0000
,
0010
0000
1000
0002
0000
0003
0000
0020
,
0000
0030
0000
0110
0000
0000
0100
0000
,
1000
0010
0100
0010
,
1000
0000
0100
0000
0010
0000
0000
0001
,
0000
1000
0020
0030
,
1000
0000
0001
0200
0000
0000
0300
0000
,
0001
1000
0100
0010
,
0001
0000
0100
0000
0010
0000
0000
0100
,
0000
0100
0000
0020
0000
0030
0000
2000
,
0000
3000
0000
1001
0000
0000
0001
0000
,
0010
0000
0100
0000
0010
0001
0000
0100
,
0000
0020
0000
0000
1030
0000
0000
0100
,
0000
0000
0010
0000
0000
0002
0000
0000
,
1003
0000
0000
0010
0000
0000
0100
0000
,
0000
0001
0000
0020
0000
0000
0000
0000
,
0130
0000
2000
0000
,
3000
0100
2000
3000
,
0002
0000
0003
0100
,
0002
0003
0020
0000
,
0030
0200
0000
0300
,
2000
0000
3000
0001
,
0100
0010
0200
0000
,
0300
0001
1000
0000
,
0002
0000
0003
1000
,
0100
0010
0020
0000
,
0030
0002
0000
0003
,
0010
0100
1000
0001
,
0100
0010
2000
0000
,
0000
0000
3010
0100
,
0002
0000
0000
2000
,
0000
0000
3003
0000
0001
0000
0000
0010
,
0000
0000
0001
0000
1000
0010
0000
0010
,
0000
0010
1000
0001
,
0000
0100
0000
0000
0100
0000
0001
0000
,
1000
0100
0100
1000
,
0001
0000
0010
0000
0000
0100
0000
0000
,
0010
0000
0001
1000
0000
1000
0000
0000
,
0001
1000
0000
0000
0010
0000
0000
0100
,
0000
0100
0010
2000
,
0000
0000
3002
2003
,
3010
0100
0001
0100
,
0010
1000
0100
1000
,
0001
0010
0001
0100
,
0001
1000
0010
0010
,
0100
0100
0110
1000
,
0100
0010
0100
1000
,
0010
0100
0010
1000
,
0001
0010
0100
0010
,
0001
0000
0100
0000
0000
0101
0000
0000
,
1010
0000
0000
1001
0000
0000
0001
0000
,
0000
0010
0000
0000
0100
0000
0000
0000
,
2000
0000
0000
0000
0000
3001
0000
0000
,
0100
0000
0000
0010
0000
0000
0000
2000
,
0000
0000
0000
0000
3100
0000
0000
1000
,
0000
0001
0000
0020
,
0000
0000
0000
0031
0000
0000
1000
0000
,
0000
0010
0000
0000
0000
0200
0000
0000
,
0000
0000
0302
0000
0000
0100
0000
0000
,
2003
0000
3020
0000
,
0000
2030
0000
0000
0100
0000
0000
3002
,
0000
0000
0000
0023
0000
0000
0000
0000
,
0230
0000
0000
0010
0000
0000
2300
0000
,
0000
0000
3020
0000
0000
0000
0000
0130
,
0000
0000
0110
0000
0000
1001
0000
0000
,
0000
0000
0001
0000
0000
0000
1000
0000
0000
0000
1000
0000
0001
0000
0000
0100
,
0000
0000
0010
0000
0000
1000
0000
0000
0100
0000
0000
0010
0000
0000
0001
0000
,
0000
0100
0000
0000
0010
0000
0000
0000
0000
0000
0010
0000
0000
0000
0000
0000
,
0220
0000
0000
0000
,
0330
0000
0000
0000
,
0000
2000
3002
0023
,
0230
2300
3020
0000
,
0000
0030
0000
0000
0000
0000
0000
0000
;

//---------------dance-single - ----------------
#NOTEDATA:;
#CHARTNAME:;
#CHARTHASH:692894637;
#STEPSTYPE:dance-single;
#BANNER:;
#DESCRIPTION:;
#CHARTSTYLE:;
#DIFFICULTY:Medium;
#METER:11;
#METERF:11.000000;
#LASTSECONDHINT:119.209412;
#RADARVALUES:0.411655,0.517926,0.090306,0.681400,0.069782,351.000000,340.000000,11.000000,83.000000,0.000000,0.000000,0.000000,0.000000,0.000000,0.411655,0.517926,0.090306,0.681400,0.069782,351.000000,340.000000,11.000000,83.000000,0.000000,0.000000,0.000000,0.000000,0.000000;
#CREDIT:dj VERTICAI;
#DISPLAYBPM:125.000000:188.000000;
#NOTES:
0000
0000
0000
0000
,
0000
0000
0000
0000
,
0000
0000
0000
0000
,
0000
0000
0000
0000
,
0000
0000
0000
0000
,
0000
0000
0000
0000
,
0000
0000
0000
0000
,
0000
0000
0000
0000
1000
0000
0100
1000
,
0000
0001
0020
0000
0000
0000
0130
0000
,
1000
0000
1000
0001
0000
0100
0001
0000
,
1000
0020
0000
0000
0000
0130
0000
0001
,
0000
0001
0010
0000
0010
0100
0000
0100
,
2000
0000
3001
1000
,
1000
0010
0000
0010
0100
0000
0100
0002
,
0000
0000
0000
0013
0000
0100
0000
0100
,
2000
0000
0000
3000
0100
0000
0002
0000
0000
0003
0100
0000
2000
0000
0000
3000
,
0010
0000
0002
0000
0000
0003
0010
0000
1000
0000
1000
0000
1000
0000
0001
0000
,
0001
0000
0001
0000
0020
0000
0000
0000
0000
0000
0000
0000
0000
0030
0000
0000
,
0000
1001
0000
0000
0000
0000
0000
0000
0001
0000
0000
0000
0100
0000
0000
0000
,
0010
0000
0100
0001
0000
0001
0000
1000
,
0000
1000
0100
0010
0000
0010
0100
0000
,
1000
0000
0001
0000
1000
0010
0100
0000
,
0001
0010
0100
0000
1000
0100
0010
0001
,
0000
0001
1000
0000
0010
0000
1000
0000
,
0001
0100
0001
0020
0000
0000
0030
0100
,
0000
1000
0100
0010
0000
0001
0100
0010
,
0000
0010
1000
0000
2001
0000
0000
0100
,
0000
0001
0000
3020
0000
0000
0130
0001
,
0000
1000
0001
0010
0000
0010
0001
0000
,
0100
0000
0010
0000
1000
0001
0000
0010
,
0000
0001
1000
0000
0001
0100
0010
1000
,
0000
1000
0001
0000
0000
0010
0001
0000
,
0100
0000
0010
1000
0000
0000
1100
0000
,
0000
0101
0000
2002
0000
3003
0000
0001
,
1000
0000
0001
0000
1000
0000
0020
0000
0000
0000
0000
0000
,
0000
0000
0000
0230
0000
0000
0302
0000
0000
0003
0000
0001
,
2000
0000
0000
3200
,
0320
0000
0000
0030
0000
0001
0200
0000
0000
0000
0000
0000
,
0000
0000
0000
0320
0000
0000
0000
0000
0000
0030
0000
0100
,
0002
0000
0000
0023
,
0032
2003
3200
0000
,
0000
0000
0000
2300
0000
0000
3002
0000
0000
0003
0000
0001
,
0020
0000
0000
0032
,
0203
0320
2030
0000
,
0000
0000
3002
0000
0000
0000
0003
0001
,
0200
0302
2003
3020
,
2030
3200
0320
0000
,
0000
0000
0032
0203
,
0302
0000
0000
2000
,
0000
0000
3003
0000
1000
0000
0100
0010
,
0000
0100
1000
0000
0001
0100
0000
0100
,
0000
0010
0100
0000
0001
0000
0010
0000
,
0100
1000
0000
0100
0010
0000
0001
0000
,
0200
0000
0000
0000
0302
0000
0000
0000
2003
0000
0000
0000
3010
0000
0000
0100
,
0000
0010
1000
0000
0001
0100
0000
0010
,
1000
0000
0001
0010
0000
0010
0000
0100
,
0010
0000
0001
0000
1000
0000
1000
0010
,
0000
0010
0100
0000
0100
0001
0020
0000
,
0000
0000
0230
0320
,
0031
0000
1000
0000
0001
0010
0100
0000
,
1000
0000
0001
0000
1000
0000
0010
0100
,
0001
1000
0001
0010
,
0001
1000
0100
0000
2000
0000
3200
0000
,
0320
0000
0031
0010
0002
0000
1003
0000
,
0001
0000
1000
0010
0100
0000
0001
0000
,
1000
0000
0001
0000
0010
0100
1000
0000
,
0001
0000
1000
0000
0010
0000
1000
0001
,
0100
0000
0202
0303
0000
2002
3003
0000
,
2200
3300
0000
0100
0010
0100
1000
0000
,
0001
0100
0000
0001
0020
0000
0000
0000
,
0031
0000
1000
0000
1000
0010
0000
1000
,
0001
0000
1000
0200
0000
0000
0000
1300
,
0000
0010
0000
0010
0100
0000
0001
0100
,
0000
0010
2000
0000
0000
0000
3001
0000
,
0010
0000
0010
0100
0000
1000
0100
0000
,
0010
0002
0000
0000
0000
0103
0000
0100
,
0010
0100
0001
0000
1000
0100
0000
1000
,
0020
0000
1030
0001
,
0001
0010
0000
0001
1000
0000
0001
0200
,
0000
0000
0000
0301
0000
0010
0000
0010
,
0100
0000
1000
0100
0000
0010
0002
0000
,
0000
0000
1003
0000
0010
0000
0010
0100
,
0000
0000
0101
0000
0000
2010
0000
0000
,
0000
0000
3100
0000
0010
0000
0001
0000
0010
0000
0100
0000
2000
0000
0000
3000
,
0010
0000
0002
0000
0000
0003
0010
0000
2000
0000
0000
3000
0100
0000
0002
0000
,
0000
0003
0100
0000
1000
0000
1000
0000
1000
0000
0001
0000
0001
0000
0001
0000
,
0020
0000
0000
0000
,
0200
0000
0000
0330
,
1002
0023
0230
2300
,
3002
0203
0320
0000
,
0000
0030
0000
0000
0000
0000
0000
0000
;

//---------------dance-single - ----------------
#NOTEDATA:;
#CHARTNAME:;
#CHARTHASH:2728064736;
#STEPSTYPE:dance-single;
#BANNER:;
#DESCRIPTION:;
#CHARTSTYLE:;
#DIFFICULTY:Hard;
#METER:15;
#METERF:15.000000;
#LASTSECONDHINT:119.209412;
#RADARVALUES:0.711893,0.998857,0.525417,0.418692,0.311966,607.000000,543.000000,64.000000,51.000000,2.000000,0.000000,0.000000,0.000000,0.000000,0.711893,0.998857,0.525417,0.418692,0.311966,607.000000,543.000000,64.000000,51.000000,2.000000,0.000000,0.000000,0.000000,0.000000;
#CREDIT:dj VERTICAI;
#DISPLAYBPM:125.000000:188.000000;
#NOTES:
0000
0000
0000
0000
,
0000
0000
0000
0000
,
0000
0000
0000
0000
,
0000
0000
0000
0000
,
0000
0000
0000
0000
,
0000
0000
0000
0000
,
0000
0000
0000
0000
,
0000
0000
0000
0000
1000
0001
1000
0100
,
0010
0001
0021
0000
0031
0000
1010
1000
,
0010
1000
0001
0001
1000
0001
0010
0100
,
1000
1200
0000
1300
0000
0101
0001
0100
,
0001
1000
1000
0100
0001
0100
1000
0010
,
0120
0000
0130
0000
1001
1000
0001
0100
,
0001
0001
0010
1000
0010
0001
0100
0210
,
0000
0310
0100
0001
1000
0100
0010
0001
,
M100
0001
0100
0000
0100
0000
0001
0000
1000
0100
0000
1000
0000
0010
1000
0000
,
0001
0010
0001
0010
0100
0000
1000
0001
0100
0000
0101
0000
1001
0000
0011
0000
,
0110
1100
2001
0000
0000
0000
0000
0000
,
0000
3002
0000
0000
0000
0000
0000
0000
1003
0000
0100
0000
0010
0000
0100
0000
,
1000
0010
0100
0002
0000
1003
0001
0020
,
0000
0000
0031
0000
1000
0000
0200
0000
0000
0300
1000
0100
1000
0000
0001
0000
,
0010
0000
0001
0000
0100
0000
0010
1000
0010
0000
0100
0000
0001
0000
0010
0000
,
0001
0000
1000
0000
0100
0010
0100
0000
1000
0000
0010
0000
0100
0000
0101
0000
,
0000
0000
0001
0000
0011
0000
0000
0000
0010
0100
0010
0000
0001
0000
1000
0000
,
0010
0000
1000
0000
0100
0000
0020
0000
0000
0000
0030
0000
0001
1000
0010
1000
,
0010
0100
0001
1001
0000
1000
0100
0110
,
0000
0010
0001
0100
0010
0000
0100
0101
,
0000
0000
1100
0000
0000
0000
1010
0000
0000
0000
1000
0001
0010
0000
0002
0000
,
0000
0003
1000
0001
0100
0000
0020
0000
0000
0000
1030
0000
0001
0100
0010
0100
,
0001
0000
0010
0000
0100
1000
0100
0000
1000
0000
1100
0000
0000
0000
0011
0000
,
0000
0000
0001
0000
0100
0000
0000
0000
0100
0000
0010
0000
1000
0000
0000
0001
0000
0000
0100
0000
0000
0110
0000
0000
,
0000
0000
0010
0000
1010
0000
0000
0000
1000
0000
0010
0100
0010
1000
0001
0000
,
1000
0100
0010
1001
0000
0100
1001
0000
,
0010
1001
0000
0110
0000
1000
0001
1000
,
1100
0000
0110
0000
0011
0000
0002
0000
0000
0200
0000
0000
,
0300
0000
0000
0010
0000
0000
2003
0000
0000
3000
0000
0010
,
2000
0200
0300
0010
,
3002
0000
0000
0003
0000
0010
0200
0000
0000
2000
0000
0000
,
3000
0000
0000
0320
0000
0000
0000
0000
0000
0030
0000
0010
,
0002
2000
3000
0203
,
0320
2030
3200
0000
,
0000
0000
0000
2300
0000
0000
0001
0000
0000
3000
0000
0001
,
0020
0000
0000
0032
,
0100
1000
2003
0000
,
0000
0000
3020
0000
0000
0000
0000
0100
,
0230
0010
0001
0320
,
0001
0100
2030
0000
,
0000
0000
0010
0100
,
3002
0000
0000
2000
,
0000
0000
3003
0000
1000
0100
0001
0100
,
0000
0000
0100
0000
1000
0100
1000
0000
0000
0000
0001
0000
0100
0001
0100
0000
,
0000
0000
0001
1000
0001
0000
0100
0000
0000
0000
0100
0000
0001
0000
0010
0000
,
1000
0000
0010
0000
0000
0000
0010
0000
0001
0010
0001
0000
1000
0000
0010
1000
,
0010
1000
0001
0000
0000
0000
0011
0000
0000
0000
0001
0000
1000
0001
1000
0000
,
0001
0010
0001
0010
0100
0000
1000
0000
0010
0000
1000
0000
0000
0000
0100
0000
,
0010
0001
0010
0000
0000
0000
0100
1000
0100
0000
0010
0000
0000
0000
0001
0100
,
0001
1000
0000
1000
0001
0010
0001
0100
,
0000
0000
0010
0000
1000
0010
1000
0000
0001
0000
0010
0001
0020
0000
0000
0000
,
0000
0100
0000
0130
0110
0000
1001
0000
,
0001
0100
0010
1000
0001
1000
0010
0100
,
0001
0000
0010
0000
0100
0000
1000
0000
0100
0010
0100
0000
0010
0001
0010
0100
,
1000
0001
1000
0100
0010
0001
0010
0100
,
1000
0000
0001
1000
0001
0000
0100
0000
0010
1000
0010
0100
0001
0000
0100
0010
,
1000
0000
0001
0000
0100
0000
0010
0000
1000
0001
1000
0100
0010
0000
0001
0000
,
0100
1000
0100
0001
0010
0100
0001
0100
,
1000
0000
0010
1000
0001
0000
0100
0001
1000
0010
0100
0000
0001
0000
1000
0000
,
0010
0001
0010
0100
0001
0010
1000
0010
,
0001
0000
1000
0000
0001
0100
0001
0000
0100
0000
0001
1000
0001
0000
1000
0000
,
0001
0010
0001
0000
0010
0000
0100
0000
1000
0000
0001
0000
1001
0000
1000
0000
,
0001
0100
0010
1000
1020
0000
1030
0000
,
0011
0000
0001
1000
0100
0000
1000
0000
0010
0000
1010
0000
1000
0000
0010
0000
,
0100
0001
1000
2100
0000
3100
0000
0110
,
0010
0100
1000
0000
0001
0000
0100
0000
0101
0000
0001
0000
0100
0000
0010
0000
,
1000
0000
0001
0000
0012
0000
0000
0000
0013
0000
0000
0000
1010
0000
1000
0010
,
0100
0001
1000
1100
0100
0010
0011
0001
,
0100
0201
0000
0310
0000
0010
1000
0001
,
0010
0100
1001
0001
1000
0100
0010
0001
,
0021
0000
0000
0000
0031
0000
0000
0000
1010
0000
1000
0001
0100
0000
0001
0000
,
0010
0011
0001
0010
0100
1000
0001
0102
,
0000
0000
0103
0000
0000
0000
0110
0000
0010
0100
0001
0000
1000
0000
0100
0000
,
1100
1000
0100
0010
0001
1000
2010
0000
,
3010
0000
0000
0000
0011
0000
0001
0010
0100
0000
1000
0000
0001
0000
0101
0000
,
0000
1000
1100
0000
0001
2002
0000
3003
,
0001
0000
0100
0000
0010
0000
1000
0000
0010
0000
0100
0000
M001
0100
0001
0000
,
0100
0000
0010
0000
1000
0100
0000
1000
0000
0001
0100
0000
0100
0010
0000
0100
,
0001
0010
0100
1000
0010
0000
0110
0000
1010
0000
1001
0000
0011
0000
0110
0000
,
2100
0000
0000
0000
,
3002
0000
0000
0000
,
0203
0001
1000
0010
,
1000
0001
0020
0000
,
0000
0330
0000
0000
0000
0000
0000
0000
;

//---------------dance-single - ----------------
#NOTEDATA:;
#CHARTNAME:;
#CHARTHASH:1247021958;
#STEPSTYPE:dance-single;
#BANNER:;
#DESCRIPTION:;
#CHARTSTYLE:;
#DIFFICULTY:Challenge;
#METER:17;
#METERF:17.000000;
#LASTSECONDHINT:119.209412;
#RADARVALUES:0.912443,1.220825,0.541836,0.344805,0.792230,778.000000,712.000000,66.000000,42.000000,4.000000,0.000000,0.000000,0.000000,0.000000,0.912443,1.220825,0.541836,0.344805,0.792230,778.000000,712.000000,66.000000,42.000000,4.000000,0.000000,0.000000,0.000000,0.000000;
#CREDIT:dj VERTICAI;
#DISPLAYBPM:125.000000:188.000000;
#NOTES:
// measure 0
0000
0000
0000
0000
,  // measure 1
0000
0000
0000
0000
,  // measure 2
0000
0000
0000
0000
,  // measure 3
0000
0000
0000
0000
,  // measure 4
0000
0000
0000
0000
,  // measure 5
0000
0000
0000
0000
,  // measure 6
0000
0000
0000
0000
,  // measure 7
0000
0000
0000
0000
0000
0000
0000
0000
1000
0000
0001
0100
0001
0000
1000
0000
,  // measure 8
0001
0010
0001
0000
0012
0000
0000
0000
1003
0000
0000
0000
1010
0000
1000
0010
,  // measure 9
0100
0001
0100
0010
1000
0000
0001
0000
1000
0010
1000
0000
0001
0000
1000
0100
,  // measure 10
1000
0000
2100
0000
0000
0000
3001
0000
0000
0000
0101
0000
0001
0100
0010
1000
,  // measure 11
0010
0100
0001
0000
1000
0000
0010
0100
0010
0000
1000
0000
0100
0010
0100
0000
,  // measure 12
0120
0000
0000
0000
0031
0000
0000
0000
1001
0000
1000
0100
0010
0001
0010
0100
,  // measure 13
1000
0000
0001
0000
0010
0100
0010
0000
0001
0000
0100
0010
0100
0000
0120
0000
,  // measure 14
0000
0000
1030
0001
1000
0001
0010
0000
0001
0000
1000
0000
0100
0000
0110
0000
,  // measure 15
001M
0100
1000
0100
0010
0001
0010
0100
1000
0100
0010
0001
0100
0010
1000
0010
,  // measure 16
0100
0001
0100
0010
1000
0001
0010
0100
1000
0000
1100
0000
1001
0000
1010
0000
,  // measure 17
0110
0000
0101
0000
M011
0000
0010
0000
0001
1000
0001
1000
0001
1000
0000
0000
,  // measure 18
0000
0200
0000
0000
0000
0000
0000
0000
1300
0000
0001
0000
0010
0000
0001
1000
,  // measure 19
0100
1000
0001
0021
0000
0130
1000
1020
,  // measure 20
0000
0000
0130
0000
0001
0000
1001
0000
0000
0000
1000
0100
1000
0001
1000
0100
,  // measure 21
0010
0000
0001
0000
0100
0000
0010
1000
0010
0100
0010
1000
0001
0000
0010
0000
,  // measure 22
0001
1000
0001
0010
0001
0000
1000
0000
0100
0000
0100
0000
1000
0000
1010
0000
,  // measure 23
0000
0000
0001
0000
0011
0000
0000
0000
0010
0100
1000
0001
0010
0000
0001
0000
,  // measure 24
0100
0000
1000
0000
0100
0000
0220
0000
0000
0000
0330
0000
1000
0010
1000
0010
,  // measure 25
0100
0001
0100
0010
1000
0000
0100
0000
0000
0000
0100
1000
0100
0010
0002
0000
,  // measure 26
0000
0000
0103
0000
0010
0000
1000
0000
0001
0000
0001
1000
0100
0000
1100
0000
,  // measure 27
0000
0000
0101
0000
0000
0000
0011
0000
0000
0000
1000
0001
0010
0000
0002
0000
,  // measure 28
0000
0003
0010
0001
1000
0010
2000
0000
0000
0000
3001
0000
0001
0100
0010
0100
,  // measure 29
0001
0100
0010
0000
1000
0100
0010
0100
1000
0000
0010
0000
0000
0000
0100
0001
,  // measure 30
1000
0000
0001
0000
0010
0000
0001
0000
1000
0000
0100
0000
1000
0000
0000
0001
0000
0000
0100
0000
0000
0101
0000
0000
,  // measure 31
0000
0000
1000
0000
1010
0000
0000
0000
1000
0000
0001
0100
0001
0100
0010
0000
,  // measure 32
1000
0000
0100
0000
0010
0000
1001
0000
0000
0000
0100
0001
0010
0000
0000
0000
,  // measure 33
0100
1000
0010
0000
0000
0000
0110
0000
0000
0000
1000
0000
0001
0000
1000
0001
,  // measure 34
0100
0000
0110
0000
1010
0000
0002
0000
0000
0100
0000
0000
,  // measure 35
1000
0000
0000
0010
0000
0000
2003
0000
0000
3001
0000
0001
,  // measure 36
2000
0100
0001
0010
,  // measure 37
3002
0000
0000
1003
0000
0010
0200
0000
0000
0010
0000
0000
,  // measure 38
0001
0000
0000
0320
0000
0000
0100
0000
0000
1030
0000
1000
,  // measure 39
0002
0010
0100
2003
,  // measure 40
3002
0000
2003
0000
3100
0100
1000
0100
,  // measure 41
0010
0000
0000
0001
0000
0000
0010
0000
0000
0001
0000
0000
0020
0000
0000
0000
0000
0000
0000
0000
0000
0000
0000
0000
0100
0000
0000
0000
0000
0000
0000
0000
0000
0000
0000
0000
0031
0000
0000
0000
0000
0000
0000
0000
0001
0000
0000
0000
,  // measure 42
0100
0000
0100
0000
0001
0000
0100
0000
0010
1000
0010
1000
0002
0000
0000
0000
,  // measure 43
0100
0000
1000
0000
1003
1000
0001
1000
,  // measure 44
0100
0010
0100
0010
0001
0000
0001
0000
1000
0000
0001
0000
0100
0010
0100
0010
,  // measure 45
2000
0010
3001
0011
,  // measure 46
1001
1100
0002
0000
,  // measure 47
0000
0000
0010
1000
,  // measure 48
0203
0000
0000
0020
,  // measure 49
0000
0000
0330
0000
1000
0010
0001
0010
,  // measure 50
0000
0000
0010
0000
1000
0001
0010
0000
0001
0000
0100
0001
1000
0001
0100
0000
,  // measure 51
0000
0000
0001
1000
0001
0000
0010
0000
0100
0000
1000
0000
0001
0000
0010
0000
,  // measure 52
1000
0000
0010
0000
0000
0000
0010
0000
0001
0010
0100
0000
1000
0000
0010
0100
,  // measure 53
0001
0000
0001
0000
0100
0000
0010
1000
0010
1000
0100
0000
1000
0001
1000
0100
,  // measure 54
0010
0001
0010
0100
1000
0000
0100
0000
0001
0000
0100
0000
0000
0000
0100
0000
,  // measure 55
1000
0000
0001
0000
0100
0000
0010
0100
0010
0000
1000
0000
0000
0000
0001
0100
,  // measure 56
0001
0000
0010
0001
1000
0000
0100
1000
0001
0000
0001
0000
0100
0000
1000
0000
,  // measure 57
0100
0000
0010
0000
1000
0001
0100
0000
0001
0010
0001
1000
0200
0000
0000
0000
,  // measure 58
0000
1300
0000
0100
1100
0000
0011
0000
,  // measure 59
0001
0100
0110
0010
1010
1000
1001
0001
,  // measure 60
1000
0000
0100
0000
0110
0000
0010
0000
0001
0010
0001
0000
1000
0100
1000
0001
,  // measure 61
0010
0001
1000
1010
0010
0100
0101
0001
,  // measure 62
1000
0000
0001
1000
0100
0000
0010
0000
0010
0001
1000
0001
0100
0000
0010
1000
,  // measure 63
0001
1000
0100
0000
0010
0100
1000
0001
0100
0010
1000
0100
1000
0000
0100
0000
,  // measure 64
0110
0010
0011
0001
0101
0100
0001
1000
,  // measure 65
1010
0000
0010
0100
0001
0000
0100
0001
0100
0010
1000
0000
0001
0000
1000
0000
,  // measure 66
0010
0001
0010
0100
0001
0010
1000
0010
,  // measure 67
0001
0000
1000
0000
0001
0100
0001
0100
0001
0000
1000
0001
1000
0001
1000
0000
,  // measure 68
0001
0010
0001
0010
0001
0000
1000
0000
1100
0000
1001
0000
0001
0000
1000
0100
,  // measure 69
1000
0000
0001
0000
1000
0010
1000
0000
2010
0000
0000
0000
3001
0000
0000
0000
,  // measure 70
0011
0000
0001
0010
0100
1000
0100
0010
0001
0000
1000
0000
0001
0010
0001
0000
,  // measure 71
1000
0000
0001
0100
0001
0000
0102
0000
0000
0000
1003
0000
0000
0000
1100
0000
,  // measure 72
1000
0100
0010
0001
0010
0100
1000
0000
0001
0000
1000
0010
0100
0000
0001
0000
,  // measure 73
0100
0001
0010
0000
0021
0000
0000
0000
0130
0000
0000
0000
1100
0000
0100
1000
,  // measure 74
0100
0010
0001
0010
0100
0000
1000
0000
0001
0010
0100
0000
1000
0000
0001
1000
,  // measure 75
0010
0000
1020
0000
0000
0000
0130
0000
0010
0000
0100
0010
0100
0001
1000
0100
,  // measure 76
0010
0000
0001
0000
1000
0000
0001
0100
0001
0000
1000
0000
0001
0010
0001
0000
,  // measure 77
0012
0000
0000
0000
1003
0000
0000
0000
1010
0000
1000
0010
0100
0001
0100
0010
,  // measure 78
1000
0000
0001
0000
1000
0010
1000
0000
0001
0000
1000
0100
1000
0000
2100
0000
,  // measure 79
0000
0000
3001
0000
0000
0000
0101
0000
0001
0100
0010
1000
0010
0100
0001
0000
,  // measure 80
1000
0000
0001
0010
0100
0000
1000
0000
0100
0010
0001
0000
1001
0000
0000
0000
,  // measure 81
0110
0000
0000
0000
0000
0000
0000
0000
0000
0000
0000
0000
1001
0000
0000
0000
0000
0000
1000
0000
0000
0010
0000
0000
0100
0000
0000
0001
0000
0000
0010
0000
0000
0100
0000
0000
1000
0000
0000
0000
0000
0000
0100
0000
1000
0000
0100
0000
,  // measure 82
2000
0000
0000
3000
0000
0000
0001
0100
0002
0100
0000
0003
0000
0000
0000
0001
1000
0001
2000
0000
0000
3000
0000
0000
,  // measure 83
0100
0000
1000
0001
0010
0001
1000
0010
1000
0001
0010
0100
M010
0001
1000
0010
,  // measure 84
0100
0001
0010
1000
0010
0100
1000
0001
0100
0010
0001
0010
1000
0001
0010
0100
,  // measure 85
1000
0010
0100
0001
1000
0000
1100
0000
0110
0000
0011
0000
1001
0000
0101
0000
,  // measure 86
101M
0010
0100
0001
0100
0010
1000
0001
0010
0100
1000
0100
,  // measure 87
0020
0000
0000
0000
,  // measure 88
0230
0010
1000
0001
,  // measure 89
0320
1000
0002
0000
,  // measure 90
0000
0033
0000
0000
0000
0000
0000
0000
;
