#VERSION:0.83;
#TITLE:零號車輛;
#SUBTITLE:;
#ARTIST:seatrus;
#TITLETRANSLIT:LING HAO CHELIANG;
#SUBTITLETRANSLIT:;
#ARTISTTRANSLIT:;
#GENRE:RAPID HARDCORE;
#ORIGIN:;
#CREDIT:;
#BANNER:LING HAO CHELIANG.png;
#BACKGROUND:LING HAO CHELIANG-bg.png;
#PREVIEWVID:;
#JACKET:LING HAO CHELIANG-jacket.png;
#CDIMAGE:;
#DISCIMAGE:;
#LYRICSPATH:;
#CDTITLE:cdtitle.png;
#MUSIC:LING HAO CHELIANG.ogg;
#OFFSET:-1.035000;
#SAMPLESTART:72.555000;
#SAMPLELENGTH:15.000000;
#SELECTABLE:YES;
#DISPLAYBPM:60.000000:240.000000;
#BPMS:0.000=120.000,
32.000=240.000,
77.000=120.000,
85.000=240.000,
101.000=60.000,
104.000=480.000,
112.000=240.000,
136.000=120.000,
140.000=240.000,
172.000=60.000,
188.000=120.000,
220.000=240.000,
248.000=60.000,
249.000=480.000,
273.000=120.000,
275.000=240.000,
339.000=120.000,
341.000=240.000,
409.000=60.000,
411.000=120.000,
414.000=480.000;
#STOPS:60.000=0.750;
#DELAYS:;
#WARPS:;
#TIMESIGNATURES:0.000=4=4;
#TICKCOUNTS:0.000=4;
#COMBOS:0.000=1;
#SPEEDS:0.000=1.000=0.000=0;
#SCROLLS:0.000=1.000;
#FAKES:;
#LABELS:0.000=Song Start;
#BGCHANGES:;
#KEYSOUNDS:;
#ATTACKS:
;

//---------------dance-single - Daff_4K----------------
#NOTEDATA:;
#CHARTNAME:Daff_4K;
#STEPSTYPE:dance-single;
#DESCRIPTION:Daff_4K;
#CHARTSTYLE:;
#DIFFICULTY:Beginner;
#METER:5;
#RADARVALUES:0.133659,0.228587,0.028352,0.014176,0.000000,132.000000,128.000000,4.000000,2.000000,0.000000,0.000000,0.000000,0.000000,0.000000,0.133659,0.228587,0.028352,0.014176,0.000000,132.000000,128.000000,4.000000,2.000000,0.000000,0.000000,0.000000,0.000000,0.000000;
#CREDIT:Daff_4K;
#DISPLAYBPM:60.000000:240.000000;
#NOTES:
0000
0000
0000
0000
,
0000
0000
0000
0000
,
0000
0000
0000
0000
,
0000
0000
0000
0000
,
1000
0000
0000
0000
,
0001
0000
0000
0000
,
0010
0000
0000
0000
,
0100
0000
0000
0000
,
0010
0000
0000
0001
,
0000
1000
0000
0001
,
0000
0000
0100
0000
,
0010
0000
0100
0000
,
0001
0000
0000
0000
,
1000
0000
0000
0000
,
0100
0000
0010
0000
,
0100
0000
0000
1000
,
0000
0010
0000
1000
,
0000
0000
0000
0001
,
0000
0010
0000
0001
,
0000
0100
0000
0100
,
0000
0010
0000
1000
,
0000
0000
0000
0001
,
0000
0100
0000
0001
,
0000
0000
0000
1000
,
0000
0100
0000
1000
,
0000
1001
0000
0000
,
0000
0000
0000
0000
,
0000
0000
0000
0000
,
0001
0000
0000
0000
,
0010
0000
0000
0000
,
0001
0000
1000
0000
,
0001
0000
0000
0000
,
0100
0000
0000
0000
,
0010
0000
0000
0000
,
1001
0000
0000
0000
,
1000
0000
0000
0000
,
0010
0000
0000
0000
,
1000
0000
0001
0000
,
1000
0000
0000
0000
,
0100
0000
0000
0000
,
0010
0000
0000
0000
,
0001
0000
1000
0000
,
0001
0000
0000
0000
,
1001
0000
0000
0000
,
1000
0000
0000
0000
,
0001
0000
1000
0000
,
0100
0000
0010
0000
,
0001
0000
0000
0000
,
1000
0000
0000
0000
,
0001
0000
0000
0000
,
0100
0000
0001
0000
,
1000
0000
0000
0000
,
0001
0000
0000
0000
,
1000
0000
0000
0000
,
0100
0000
1000
0000
,
0010
0000
0000
1000
,
0000
0001
0000
1000
,
0000
0000
0100
0000
,
0010
0000
0100
0000
,
1000
0000
0000
0000
,
0001
0000
0000
0000
,
0100
0000
0010
0000
,
0100
0200
0000
0000
,
0000
0000
0000
0000
,
0000
0000
0000
0000
,
0000
0000
0000
0000
,
0000
0000
0000
0000
,
0000
0000
0000
0000
,
0000
0300
0000
0001
,
0000
0000
0000
0010
,
0000
0000
0000
0001
,
0000
0001
0000
1000
,
0000
0001
0000
1000
,
0000
0000
0000
0010
,
0000
0000
0000
1000
,
0000
1000
0000
0001
,
0000
1000
0000
0100
,
0000
0000
0000
0010
,
0000
0000
0000
0001
,
0000
1000
0000
0001
,
0000
0000
0000
0100
,
0000
0000
0000
0010
,
0000
0000
0000
1000
,
0000
0000
0000
0001
,
0000
0000
0000
1001
,
0000
0000
0000
0000
,
0000
1000
0000
0000
,
0000
0001
0000
1000
,
0000
0001
0000
0000
,
0000
0010
0000
0000
,
0000
0100
0000
0100
,
0000
1000
0000
0001
,
0000
1000
0000
0000
,
0000
0010
0000
0000
,
0000
0001
0000
0000
,
0000
0010
0000
0000
,
0000
1000
0000
0100
,
0000
1000
0000
0000
,
0000
0001
0000
0100
,
0000
0001
0000
0000
,
0000
1000
0000
0001
,
0000
0100
0100
0100
,
0100
0000
0000
0000
,
0000
0000
0020
0000
,
0000
0000
0000
0000
,
0000
0000
0000
0000
,
0000
0000
0000
0000
,
0000
0000
0030
0000
;

//---------------dance-single - Daff_4K----------------
#NOTEDATA:;
#CHARTNAME:Daff_4K;
#STEPSTYPE:dance-single;
#DESCRIPTION:Daff_4K;
#CHARTSTYLE:;
#DIFFICULTY:Easy;
#METER:9;
#RADARVALUES:0.291620,0.495272,0.092144,0.354399,0.007088,288.000000,275.000000,13.000000,50.000000,0.000000,0.000000,0.000000,0.000000,0.000000,0.291620,0.495272,0.092144,0.354399,0.007088,288.000000,275.000000,13.000000,50.000000,0.000000,0.000000,0.000000,0.000000,0.000000;
#CREDIT:Daff_4K;
#DISPLAYBPM:60.000000:240.000000;
#NOTES:
0000
0000
0000
0000
,
0000
0000
0000
0000
,
0000
0000
0000
0000
,
0000
0000
0000
0000
,
2000
0000
0000
3100
,
0002
0000
0000
0103
,
2000
0000
3001
0100
,
0020
0000
0000
0030
,
0001
1000
0000
0010
,
0000
0000
0000
0100
0000
0000
0000
0000
0000
0000
0000
0000
0001
0000
0000
0000
0000
0000
0000
0000
1000
0000
0000
0000
,
0000
0001
0000
0000
0010
0000
0000
0100
,
0000
0100
0000
0000
1000
0000
0000
0000
,
0001
0000
0100
0000
,
1000
0000
0100
0000
,
0001
1000
0001
1000
,
0001
1000
0002
0010
,
2003
0010
3002
0010
,
1003
0001
2000
0100
,
3002
0100
2003
0100
,
3001
0000
0200
0000
0310
0000
1000
0001
,
1000
0000
0200
0000
0310
0000
0001
1000
,
0001
1000
0002
0010
,
2003
0010
3002
0010
,
1003
0001
2000
0100
,
3002
0100
2003
0100
,
3001
0220
0000
0330
,
2002
0000
0000
0000
,
0000
0000
0000
3003
,
0001
1000
0010
0100
,
0000
0010
1000
0001
,
1000
0000
0100
0000
,
0001
0100
1000
0000
,
0010
0000
0100
0010
,
0001
0000
0010
1000
,
2002
0000
0000
3003
,
0001
0010
0001
0010
,
0100
1000
0100
1000
,
0010
0100
0010
0000
,
1000
0001
1000
0000
,
0100
0000
0010
0000
,
0001
1000
0001
0000
,
0100
0000
0010
0000
,
1000
0001
1000
0001
,
2002
0000
0000
0000
,
3003
0000
0000
0000
,
2000
0000
3002
0000
,
0023
0230
2300
3001
,
2010
0001
3010
0000
,
1000
0000
0001
0010
0001
0000
0000
0000
,
0201
0010
0301
1000
,
2100
3001
0102
1003
,
0012
1000
0013
0000
,
0001
0000
1000
0010
1000
0000
0000
0000
,
1200
0010
1300
0001
,
0100
0010
0100
0000
0010
1000
0001
0000
,
1000
0001
0000
0010
,
0000
0000
0000
0100
0000
0000
0000
0000
0000
0000
0000
0000
1000
0000
0000
0000
0000
0000
0000
0000
0001
0000
0000
0000
,
0000
1000
0000
0000
0010
0000
0000
0100
,
0000
0100
0000
0000
0001
0000
0000
0000
,
1000
0000
0100
0000
,
0001
0000
0100
0000
,
1000
0001
1000
0001
,
1000
2002
0000
0000
,
0000
0000
0000
0000
,
0000
0000
0000
0000
,
0000
0000
0000
0000
,
0000
0000
0000
0000
,
0000
0000
0000
0000
,
0000
3003
0000
0001
,
1000
0100
0010
0100
,
0000
1000
0000
0001
,
1000
0010
0000
0100
,
0001
1000
0001
1000
,
0000
0100
0000
0001
,
0100
1000
0000
0010
,
0100
0001
0000
0010
,
0100
1000
0000
0001
,
0000
1000
0010
0100
,
0000
0001
0010
0100
,
0000
1000
0000
0001
,
1000
0010
0100
0002
,
0010
0000
0013
0200
,
1000
0000
1300
0010
,
0100
0010
0100
0001
,
1000
0001
0000
2002
,
0000
3003
0000
0000
,
0000
1000
0001
0010
,
0000
0100
1000
0001
,
1000
0001
0000
0100
,
0000
1000
0100
0001
,
0000
0010
0100
1000
,
0000
0010
0100
0001
,
0000
1000
0000
0001
,
0010
0100
0000
1000
,
0010
0100
0000
0001
,
0000
1000
0001
0010
,
0100
2000
0010
0000
,
3010
0200
0001
0000
,
0301
0010
0100
0010
,
0100
1000
0001
1000
,
0001
0200
0000
0010
,
0000
0000
0020
0000
0000
0000
0000
0330
,
0000
2002
0000
0000
0000
0000
0000
0000
,
0000
3003
0200
0000
,
0000
0000
0000
0000
,
0000
0000
0000
0000
,
0000
0000
0000
0000
,
0000
0000
0300
0000
;

//---------------dance-single - Daff_4K----------------
#NOTEDATA:;
#CHARTNAME:Daff_4K;
#STEPSTYPE:dance-single;
#DESCRIPTION:Daff_4K;
#CHARTSTYLE:;
#DIFFICULTY:Medium;
#METER:13;
#RADARVALUES:0.524510,0.838153,0.248079,0.375663,0.120496,518.000000,483.000000,35.000000,53.000000,0.000000,0.000000,0.000000,0.000000,0.000000,0.524510,0.838153,0.248079,0.375663,0.120496,518.000000,483.000000,35.000000,53.000000,0.000000,0.000000,0.000000,0.000000,0.000000;
#CREDIT:Daff_4K;
#DISPLAYBPM:60.000000:240.000000;
#NOTES:
0000
0000
0000
0000
,
0000
0000
0000
0000
,
0000
0000
0000
0000
,
0000
0000
0000
0000
,
0001
0000
0000
0020
0000
0000
1000
0000
0000
0000
0000
0000
0100
0000
0130
0000
,
1000
0000
0000
0020
0000
0000
0001
0000
0000
0000
0000
0000
0100
0000
0130
0000
,
0001
0000
0000
1000
0000
0000
0200
0000
0000
0000
0000
0000
0320
0000
0000
0000
,
0031
0100
1000
0100
0001
0010
0100
0000
,
1000
0001
1000
0001
0000
0000
0100
0010
,
0000
0000
0000
0100
0000
0000
0000
0000
0000
0001
0000
0000
1000
0000
0000
0000
0001
0000
0000
0000
0010
0000
0000
0000
,
0000
0100
0010
0000
0001
1000
0001
1000
,
0000
0010
0100
0010
0100
0001
0010
0100
,
1000
0010
1000
0000
0001
0010
0001
0000
,
1000
0100
1000
0000
0001
0100
0001
0000
,
1000
0100
0010
0001
0100
0010
1000
0000
,
1001
0110
1002
0100
,
0010
0103
2001
0010
,
3100
1001
1200
0001
,
0010
1300
1001
0110
,
1001
0000
0000
0000
0001
1000
0001
0000
1000
0000
0010
0100
0000
0010
0100
0000
,
0001
0000
1000
0000
0200
0000
0000
0010
0000
0310
0000
0001
1000
0001
1000
0001
,
0100
0010
0110
0000
2001
0000
0100
0000
,
0010
3100
1002
0010
,
0103
1001
0201
1000
,
0010
0301
1001
0110
,
1001
0220
0000
0330
,
2002
0000
0000
0000
,
0000
0000
0000
3003
,
1000
0000
0001
0000
1000
0000
0100
0010
,
0000
0100
0001
0000
0100
0000
1000
0000
,
1001
0000
0001
1000
0000
0010
0100
0000
,
0010
1000
0001
1000
0001
0000
1000
0000
,
1100
0000
0011
0000
0001
0000
1000
0001
,
1000
0001
0000
0100
0000
1000
0100
0000
,
0002
0000
0000
1000
0000
1003
0000
0100
0010
0100
0010
0000
0001
1000
0000
0001
,
1000
0010
1000
0010
0100
0001
0100
0001
,
1000
0100
1000
0100
0010
0001
0010
0001
,
1000
0000
0010
0100
0010
0000
1000
0001
,
1000
0001
0010
0100
,
2000
0010
3001
1000
,
0002
0010
1003
0001
,
0100
0010
1000
0000
0100
0010
0001
0000
,
0100
0010
0100
0010
2000
0000
3001
0000
,
2002
0000
0000
0000
,
0000
0000
0000
3003
,
0002
0000
0023
0000
,
2030
0000
3200
0000
0301
1000
0100
0010
,
0001
0000
1000
0000
0010
0000
0100
0010
0000
0000
1000
0000
0100
0000
0001
0000
,
0100
0000
1000
0000
0001
0000
1000
0020
0000
0000
0100
0000
0230
0000
0000
0000
,
0301
0000
1000
0000
0001
0000
0010
0100
0000
0000
0010
0000
0001
0000
1000
0000
,
0010
0101
1010
1001
,
1000
0000
0001
0000
0010
0000
0100
0010
0000
0000
0001
0000
0100
0000
1000
0000
,
0100
0000
0001
0000
1000
0000
0001
0020
0000
0000
0100
0000
0230
0000
0000
0000
,
1300
0000
0001
0000
1000
0000
0010
0100
0000
0000
0010
0000
1000
0000
0001
0000
,
0010
0100
0010
0000
0001
0000
1000
0000
0010
0100
0010
0100
0010
0000
0000
0000
,
1000
0001
1000
0001
0000
0000
0100
0010
,
0000
0000
0000
0100
0000
0000
0000
0000
0000
0001
0000
0000
1000
0000
0000
0000
0001
0000
0000
0000
0010
0000
0000
0000
,
0000
0100
0010
0000
0001
1000
0001
1000
,
0000
0010
0100
0010
0100
0001
0010
0100
,
1000
0010
1000
0000
0001
0010
0001
0000
,
1000
0100
1000
0000
0001
0100
0001
0000
,
1000
0100
0010
0001
0100
0010
1000
0000
,
1001
0220
0000
0000
,
0000
0000
0000
0000
,
0000
0000
0000
0000
,
0000
0000
0000
0000
,
0000
0000
0000
0000
,
0000
0000
0000
0000
,
0000
0330
0000
0101
,
1010
1100
0011
0001
,
1000
0010
1000
0000
0001
0010
0001
0000
,
0100
0010
1000
0000
0100
0010
0002
0000
,
0100
2003
0010
3001
,
0010
0100
0010
0000
0001
1000
0001
0000
,
0100
0000
0000
0000
0010
0000
0000
0000
1000
0000
0000
0000
0100
0000
0000
0010
,
0000
0000
0100
0000
0010
0000
0000
0000
0001
0000
0000
0000
0100
0000
0000
0010
,
0000
0100
0010
0000
1000
0000
0001
0000
,
0010
0100
0000
0010
0001
0000
1000
0000
,
0010
0100
0000
0010
1000
0000
0002
0000
,
0010
2003
0100
3002
,
0100
2003
0010
3200
,
0010
1000
0310
0002
,
0100
1000
0103
0001
,
0010
0100
0010
0000
0001
1000
0010
0000
,
1000
0001
0010
0000
0100
0000
2002
0000
,
3003
0000
0001
1000
0001
1000
0001
0000
,
1001
0000
1000
0000
0100
0010
0001
0000
,
0100
0010
2000
0000
0100
0000
3002
0000
,
0010
0000
1003
0000
0010
0100
0010
0000
,
1000
0001
1000
0000
0100
0000
0010
0000
,
0001
0000
0000
0000
0100
0000
0000
0010
0000
0000
0100
0000
0010
0000
0000
0000
,
1000
0000
0000
0000
0100
0000
0000
0010
0000
0000
0100
0000
0010
0000
0000
0000
,
0001
0000
1000
0000
0010
0100
0000
0010
,
1000
0000
0001
0000
0010
0100
0000
0010
,
0001
2000
0010
3002
,
0100
2003
0100
3002
,
0010
0203
0010
0001
,
0310
2000
0100
0001
,
3100
0000
1000
0000
0010
0100
0010
0000
,
1000
0001
0010
0000
0001
1000
0010
0000
,
0100
0001
0010
1000
,
0010
0000
0001
1000
0001
1000
0001
1000
,
0020
0200
0000
0000
0000
0000
0000
0000
,
0000
0330
2002
0000
,
0000
0000
0000
0000
,
0000
0000
0000
0000
,
0000
0000
0000
0000
,
0000
0000
3003
0000
;

//---------------dance-single - Daff_4K----------------
#NOTEDATA:;
#CHARTNAME:Daff_4K;
#STEPSTYPE:dance-single;
#DESCRIPTION:Daff_4K;
#CHARTSTYLE:;
#DIFFICULTY:Hard;
#METER:16;
#RADARVALUES:0.718923,1.142936,0.545774,0.666270,0.421735,710.000000,633.000000,77.000000,94.000000,0.000000,0.000000,0.000000,0.000000,0.000000,0.718923,1.142936,0.545774,0.666270,0.421735,710.000000,633.000000,77.000000,94.000000,0.000000,0.000000,0.000000,0.000000,0.000000;
#CREDIT:Daff_4K;
#DISPLAYBPM:60.000000:240.000000;
#NOTES:
0000
0000
0000
0000
,
0000
0000
0000
0000
,
0000
0000
0000
0000
,
0000
0000
0000
0000
,
2000
0000
0000
0010
0000
0000
0002
0000
0000
0000
0003
0000
3100
0000
0010
0000
,
0002
0000
0000
0100
0000
0000
2000
0000
0000
0000
3000
0000
0013
0000
0100
0000
,
0002
0000
0000
2003
0000
0000
3020
0000
0000
0000
0000
0000
0230
0000
0000
0000
,
1300
0010
1000
0010
0100
0001
0100
0001
0010
0100
1000
0001
1000
0000
0000
0000
,
0001
1000
0001
1001
0000
0000
0010
0110
,
0000
0000
0000
0000
0000
0000
1001
0000
0000
0000
0000
0000
0000
0000
0000
0000
0000
0000
1000
0000
0000
0000
0000
0000
0200
0300
0000
0000
0000
0000
0000
0000
0200
0300
0000
0000
0000
0000
0000
0000
0001
0000
0000
0000
0000
0000
0000
0000
,
0000
1000
0001
0000
1000
0001
1000
0010
,
0000
0000
0000
0100
0000
0000
0001
0000
0000
1000
0000
0000
0100
0000
0010
0000
0100
0000
0010
0000
0001
0000
1000
0000
,
0001
0100
0010
0100
0001
1000
0100
0010
,
0100
1000
0001
0100
0010
1000
0100
0010
,
0001
1000
0001
0000
1000
0001
1000
0000
0010
0100
0010
0000
0200
0000
0000
0000
,
0310
1001
2100
3010
,
0012
0103
0110
1001
,
0110
1001
0012
0103
,
2010
3100
1001
0110
,
1001
0000
0000
0000
0000
0000
0000
0000
0001
0000
1000
0000
0200
0000
0000
0000
0310
0000
0001
1000
0001
0000
2000
0000
0000
0000
3010
0000
0100
0000
0010
0000
,
0001
0000
0000
0000
0000
0000
0000
0000
0000
0000
0000
0000
0010
0000
0000
0000
0000
0000
0000
0000
0000
0000
0000
0000
1000
0000
0000
0000
0000
0000
0000
0000
0000
0000
0000
0000
0001
0000
0000
0000
0000
0000
0000
0000
0000
0000
0000
0000
0020
0000
0000
0000
0000
0000
0000
0000
0000
0000
0000
0000
0000
0000
0000
0000
0000
0000
0000
0000
0000
0000
0000
0000
0130
0000
0000
0000
0000
0000
0000
0000
0000
0000
0000
0000
1000
0000
0000
0000
0000
0000
0000
0000
0000
0000
0000
0000
0001
0000
0000
0000
0000
0000
0000
0000
0000
0000
0000
0000
0200
0000
0000
0000
0000
0000
0000
0000
0000
0000
0000
0000
0000
0000
0000
0000
0000
0000
0000
0000
0000
0000
0000
0000
0310
0000
0000
0000
0000
0000
0000
0000
0000
0000
0000
0000
1000
0000
0000
0000
0000
0000
0000
0000
0000
0000
0001
0000
0000
0000
0000
0000
0000
0000
0000
1000
0000
0000
0000
0000
0000
0000
0000
0000
0000
0001
0000
0000
0000
0000
0000
0000
0000
0000
1000
0000
0000
0000
0000
0000
0000
0000
0000
0000
,
0200
0310
1001
0000
0102
0000
0013
0000
,
2010
3100
0110
1001
,
0110
1001
1100
0101
,
0010
0100
0010
0100
0010
0000
0110
0000
,
1001
0220
0000
0330
,
2002
0000
0000
0000
,
0000
0000
0000
3003
,
0001
1000
0001
0100
0020
0000
1030
0002
,
0000
0000
0013
0000
0100
0010
0100
0000
1000
0000
0010
0000
0100
0000
0010
0000
,
0001
0000
0010
1000
0000
1001
0000
0001
,
0010
0100
1000
0010
0100
0001
1000
0000
,
1100
0000
0011
0000
0001
1000
0001
0010
,
0100
0000
1000
0000
0000
0000
1001
0000
0000
0000
0001
0000
1000
0001
1000
0000
,
0020
0000
0000
0000
0000
0000
0100
0000
0000
0000
0130
0000
0000
0000
0001
0000
1000
0001
1000
0000
0200
0000
0000
0000
0310
0000
0002
0000
0000
0000
1003
0000
,
0001
0100
0010
0100
0001
1000
0100
0010
,
0100
0000
1000
0000
0001
0000
0100
0000
0010
0000
1000
0000
0100
0000
0010
0100
,
0010
0000
0001
1000
0010
0100
0001
0010
,
1000
0010
0001
0100
0010
1000
0001
0000
,
0011
0000
1100
0000
0010
0001
1000
0000
,
1010
0000
0101
0000
0010
1000
0001
0000
,
1000
0100
0001
0100
0010
0100
1000
0001
,
0100
0010
0100
0000
0010
0100
0010
0000
2000
0000
0000
0000
3001
0000
0000
0000
,
2002
3000
0020
0003
,
2000
0030
0200
3000
,
0302
0000
0000
1000
0000
0000
0023
0000
0000
0000
0000
0000
0230
0000
0000
0000
2300
0000
0000
0001
0000
0000
3020
0000
0000
0000
0000
0000
0230
0000
0302
0000
,
2003
0000
0000
0100
0000
0000
3002
0000
0000
0000
0000
0000
0203
0000
0000
0000
0310
1000
0001
1000
0001
0010
0100
0010
0100
1000
0001
1000
0001
0100
0010
0000
,
1000
0000
0000
0000
0000
0000
0000
0000
0010
0000
0000
0000
0000
0000
0000
0000
0001
0000
0000
0000
0000
0000
0000
0000
0010
0000
0000
0000
0200
0000
0000
0000
0000
0000
0000
0000
0000
0000
0000
0000
0301
0000
0000
0000
0000
0000
0000
0000
0020
0030
0000
0000
0000
0000
0000
0000
0020
0030
0000
0000
0000
0000
0000
0000
,
1000
0000
0100
0000
0001
0000
0100
0020
0000
0000
0031
0000
1002
0000
0000
0000
,
0103
0000
0010
0000
1000
0000
0001
0020
0000
0000
0130
0000
0010
0000
0001
0000
,
1001
1010
0110
0101
,
0001
0000
0000
0000
0000
0000
0000
0000
0010
0000
0000
0000
0000
0000
0000
0000
1000
0000
0000
0000
0000
0000
0000
0000
0010
0000
0000
0000
0200
0000
0000
0000
0000
0000
0000
0000
0000
0000
0000
0000
1300
0000
0000
0000
0000
0000
0000
0000
0020
0030
0000
0000
0000
0000
0000
0000
0020
0030
0000
0000
0000
0000
0000
0000
,
0001
0000
0100
0000
1000
0000
0100
0020
0000
0000
1030
0000
2001
0000
0000
0000
,
3100
0000
0010
0000
0001
0000
1000
0020
0000
0000
0130
0000
0010
0000
1000
0000
,
0100
0000
0010
0000
0100
0000
0010
0000
0001
0000
1000
0000
0001
0000
1000
0000
0010
0100
0010
0100
0010
0100
0010
0100
0010
0000
0000
0000
0000
0000
0000
0000
,
1000
0001
1000
1001
0000
0000
0010
0110
,
0000
0000
0000
0000
0000
0000
1001
0000
0000
0000
0000
0000
0000
0000
0000
0000
0000
0000
0001
0000
0000
0000
0000
0000
0200
0300
0000
0000
0000
0000
0000
0000
0200
0300
0000
0000
0000
0000
0000
0000
1000
0000
0000
0000
0000
0000
0000
0000
,
0000
0001
1000
0000
0001
1000
0001
0010
,
0000
0000
0000
0100
0000
0000
1000
0000
0000
0001
0000
0000
0100
0000
0010
0000
0100
0000
0010
0000
1000
0000
0001
0000
,
1000
0100
0010
0100
1000
0001
0100
0010
,
0100
0001
1000
0100
0010
0001
0100
0010
,
1000
0001
1000
0000
0001
1000
0001
0000
0010
0100
0010
0000
0200
0000
0000
0000
,
0310
2002
0000
0000
,
0000
0000
0000
0000
,
0000
0000
0000
0000
,
0000
0000
0000
0000
,
0000
0000
0000
0000
,
0000
0000
0000
0000
,
0000
3003
0000
1010
,
0101
0000
0011
0000
1100
0000
1000
0001
,
0010
0100
0010
1000
0010
0001
1000
0010
,
0200
0000
0301
0010
0100
0000
1100
0000
,
0011
1010
0101
2001
,
3100
0000
0010
0000
0001
0000
0000
1000
0001
0000
1000
0000
0010
0000
0100
0010
,
0000
0100
0001
0000
1000
0000
0100
0000
0010
0000
0001
0000
0200
0000
0000
0010
,
0000
0000
0301
0000
2000
0000
0000
0000
3001
0000
1000
0000
0200
0000
0000
0010
,
0000
1300
0002
0000
1003
0001
0200
0000
,
0310
0000
2000
0000
0000
0000
3001
0000
1000
0001
1000
0000
0200
0000
0000
0000
,
0310
0000
0002
0000
0000
0000
1003
0000
0001
1000
0001
0000
0200
0000
0000
0000
,
0310
1000
0200
0000
0310
0001
0100
1000
,
0100
0001
0010
0100
1000
0000
1020
0000
,
0001
0000
0130
0001
1000
0000
0021
0000
,
1000
0000
0130
1000
0001
0000
0110
0000
,
1001
1010
0011
0101
,
1100
1001
0110
2002
,
3003
0000
0000
0000
0001
0000
1000
0001
1000
0000
0001
1000
0000
0001
1000
0000
,
0001
1000
0001
0010
0200
0000
1300
0010
,
0100
0101
1010
0011
,
1100
0000
0000
0000
1002
0000
0000
0000
0103
0000
0010
0000
1000
0000
0000
0001
,
1000
0000
0001
0000
0010
0000
0100
0010
0000
0100
1000
0000
0001
0000
0100
0000
,
0010
0000
1000
0000
0200
0000
0000
0001
0000
0000
0310
0000
0002
0000
0000
0000
,
1003
0000
0001
0000
0100
0000
0010
0000
0100
0000
0001
1000
0000
0001
0000
1000
,
0000
0001
1000
0000
0200
0000
0000
0000
0310
0000
0002
0000
0000
0000
1003
0000
,
0001
1000
0001
0000
0200
0000
0000
0000
0310
0000
2000
0000
0000
0000
3001
0000
,
1000
0001
1000
0000
0200
0000
0000
0000
0310
0000
0001
0000
0200
0000
0000
0000
,
0310
1000
0100
0001
0100
1000
0010
0100
,
0001
0000
0011
0000
1100
0000
1000
0001
,
0100
0000
1010
0000
0101
0000
0001
1000
,
0100
0000
1000
0010
0100
0010
0001
0010
,
1000
0000
0001
0000
1000
0100
1000
0000
0100
1000
0100
0000
0010
0001
0010
0000
,
0001
0010
0001
0000
0100
0000
0010
0000
1000
0000
0001
0000
0010
0000
0100
0000
,
0010
0000
0001
1000
0001
1000
0001
1000
0001
1000
0001
1000
0001
1000
0001
1000
,
0020
0200
0000
0000
0000
0000
0000
0000
,
0000
0330
2002
0000
,
0000
0000
0000
0000
,
0000
0000
0000
0000
,
0000
0000
0000
0000
,
0000
0000
3003
0000
;

//---------------dance-single - Daff -Train No. 0-----------------
#NOTEDATA:;
#CHARTNAME:Daff -Train No. 0-;
#STEPSTYPE:dance-single;
#DESCRIPTION:Daff -Train No. 0-;
#CHARTSTYLE:;
#DIFFICULTY:Challenge;
#METER:18;
#RADARVALUES:0.862708,1.186527,0.382751,0.538686,0.552862,852.000000,798.000000,54.000000,76.000000,52.000000,0.000000,0.000000,0.000000,0.000000,0.862708,1.186527,0.382751,0.538686,0.552862,852.000000,798.000000,54.000000,76.000000,52.000000,0.000000,0.000000,0.000000,0.000000;
#CREDIT:Daff -Train No. 0-;
#DISPLAYBPM:60.000000:240.000000;
#NOTES:
// measure 0
0000
0000
0000
0000
,  // measure 1
0000
0000
0000
0000
,  // measure 2
0000
0000
0000
0000
,  // measure 3
0000
0000
0000
0000
,  // measure 4
0002
0000
0000
0023
0000
0000
2030
0000
0000
0000
0000
0000
3010
0000
0100
0000
,  // measure 5
2000
0000
0000
3020
0000
0000
0032
0000
0000
0000
0000
0000
0013
0000
0100
0000
,  // measure 6
0002
0000
0000
2003
0000
0000
3200
0000
0000
0000
0000
0000
0310
0000
0001
0000
,  // measure 7
1000
0010
0100
0001
1000
0001
0010
0100
1000
0010
0001
0010
1000
0000
0000
0000
,  // measure 8
0001
1000
0001
1001
0000
0000
0110
0110
,  // measure 9
0000
0000
0000
0000
0000
0000
1001
0000
0000
0000
0000
0000
0000
0000
0000
0000
0000
0000
0001
0000
0000
0000
0000
0000
0200
0300
0000
0000
0000
0000
0000
0000
0200
0300
0000
0000
0000
0000
0000
0000
1000
0000
0000
0000
0000
0000
0000
0000
,  // measure 10
0000
0000
1001
0000
1001
0000
0000
0000
0001
1000
0001
0000
0100
0000
0010
0000
,  // measure 11
0000
0000
0000
0000
0000
0000
1000
0000
0000
0000
0000
0000
0001
0000
0000
0000
0000
0000
0010
0000
0000
0100
0000
0000
0010
0000
0000
0000
0100
0000
0000
0000
1000
0000
0000
0000
0001
0000
0000
0000
1000
0000
0000
0000
0001
0000
0000
0000
,  // measure 12
1000
0010
0001
0010
1000
0100
0001
0100
,  // measure 13
1000
0010
0100
0001
1000
0001
0010
0100
,  // measure 14
1000
0001
1000
0000
0001
1000
0001
0000
0100
0010
0100
0000
0010
0100
0010
0000
,  // measure 15
0100
0000
MMMM
0000
0002
0010
2003
0100
,  // measure 16
3002
0010
2003
0100
3002
0010
2003
0100
,  // measure 17
3001
0000
MMMM
0000
2000
0010
3002
0100
,  // measure 18
2003
0010
3002
0100
2003
0010
3002
0100
,  // measure 19
1003
0000
0000
0000
0000
0000
0000
0000
0001
0000
1000
0000
0200
0000
0000
0000
0301
0000
0100
0010
0100
0000
2000
0000
0000
0000
3001
0000
1000
0000
0010
0000
,  // measure 20
0100
0000
0000
0000
0000
0000
0000
0000
0000
0000
0000
0000
0001
0000
0000
0000
0000
0000
0000
0000
0000
0000
0000
0000
1000
0000
0000
0000
0000
0000
0000
0000
0000
0000
0000
0000
0100
0000
0000
0000
0000
0000
0000
0000
0000
0000
0000
0000
0020
0000
0000
0000
0000
0000
0000
0000
0000
0000
0000
0000
0000
0000
0000
0000
0000
0000
0000
0000
0000
0000
0000
0000
0031
0000
0000
0000
0000
0000
0000
0000
0000
0000
0000
0000
1000
0000
0000
0000
0000
0000
0000
0000
0000
0000
0000
0000
0000
0000
0000
0000
0000
0000
0000
0000
0000
0000
0000
0000
0010
0000
0000
0000
0000
0000
0000
0000
0000
0000
0000
0000
0100
0000
0000
0000
0000
0000
0000
0000
0000
0000
0000
0000
0010
0000
0000
0000
0000
0000
0000
0000
0000
0000
0000
0000
1000
0000
0000
0000
0000
0000
0000
0000
0000
0000
0001
0000
0000
0000
0000
0000
0000
0000
0000
1000
0000
0000
0000
0000
0000
0000
0000
0000
0000
0001
0000
0000
0000
0000
0000
0000
0000
0000
0010
0000
0000
0000
0000
0000
0000
0000
0000
0000
,  // measure 21
0100
1000
0001
0000
MMMM
0000
0000
0000
2000
0000
0100
0000
3002
0000
0010
0000
,  // measure 22
2003
0100
3002
0010
2003
0100
3002
0010
,  // measure 23
1003
0000
MMMM
0000
0002
0100
2003
0010
,  // measure 24
3002
0100
2003
0010
3002
0100
2003
0010
,  // measure 25
3001
0220
0000
0330
,  // measure 26
1000
0001
1000
0001
1000
0001
1000
0001
,  // measure 27
1000
0001
1000
0001
1000
0001
1000
0001
,  // measure 28
1000
0001
1000
0100
0010
0100
1000
0001
,  // measure 29
0000
0000
0100
0010
0100
0000
0010
0000
1000
0000
0100
0000
0010
0000
0001
0000
,  // measure 30
0101
0000
0000
0000
1010
0000
0000
0000
1000
0001
1000
0000
0100
0000
0010
0000
,  // measure 31
0011
0000
0000
0000
1001
0000
0000
0000
1010
0000
0000
0000
0010
0000
0100
0010
,  // measure 32
0100
0000
1001
0000
0001
0010
1000
0010
,  // measure 33
0001
0000
1000
0000
0000
0000
1001
0000
0000
0000
0001
0000
1000
0001
1000
0000
,  // measure 34
0020
0000
0000
0000
0100
0000
0130
0000
0000
0000
1001
0000
0000
0000
0001
0000
1000
0001
1000
0000
0200
0000
0000
0000
0010
0000
0320
0000
0000
0000
0031
0000
,  // measure 35
1000
0000
0010
0000
1000
0000
0001
0000
0010
0000
0001
0000
0100
0000
0010
0100
,  // measure 36
0010
0000
1000
0000
0100
0000
0001
0000
1000
0000
0010
0000
0001
1000
0001
1000
,  // measure 37
0001
0000
0100
0010
0100
0001
1000
0100
,  // measure 38
0010
0000
0001
1000
0001
0000
1000
0000
0010
0000
0100
0000
0001
0000
1000
0000
,  // measure 39
1100
0000
0011
0000
0001
1000
0010
0100
,  // measure 40
0101
0000
1010
0000
1000
0001
0010
0100
,  // measure 41
1000
0010
0001
0010
1000
0100
0001
0100
,  // measure 42
1000
0001
1000
0000
0001
1000
0001
0000
0100
0010
0100
0010
0200
0000
0000
0000
,  // measure 43
0302
0000
0020
0003
,  // measure 44
2000
0030
0200
3000
,  // measure 45
0002
0300
0020
0003
,  // measure 46
2030
0000
0000
0000
0000
0000
0000
0000
3002
0000
0000
0000
0203
0000
0000
0000
1300
0010
0100
0001
1000
0010
0100
0001
1000
0001
0010
0100
1000
0001
0010
0100
,  // measure 47
1000
0000
0000
0000
0000
0000
0000
0000
0001
0000
0000
0000
0000
0000
0000
0000
1000
0000
0000
0000
0000
0000
0000
0000
0100
0000
0000
0000
0010
0000
0000
0000
0000
0000
0000
0000
0010
0000
0000
0000
0001
0000
0000
0000
0000
0000
0000
0000
0200
0300
0000
0000
0000
0000
0000
0000
0200
0300
0000
0000
0000
0000
0000
0000
,  // measure 48
1000
0100
1000
0000
0010
0000
0100
0001
0000
0001
0010
0000
0021
0000
0000
0000
,  // measure 49
0130
1000
0100
0000
0010
0000
0001
1000
0000
1000
0010
0000
0100
0000
0001
0000
,  // measure 50
0011
MMMM
1010
MMMM
1100
MMMM
0101
MMMM
,  // measure 51
0001
0000
0000
0000
0000
0000
0000
0000
1000
0000
0000
0000
0000
0000
0000
0000
0001
0000
0000
0000
0000
0000
0000
0000
0100
0000
0000
0000
0010
0000
0000
0000
0000
0000
0000
0000
0010
0000
0000
0000
1000
0000
0000
0000
0000
0000
0000
0000
0200
0300
0000
0000
0000
0000
0000
0000
0200
0300
0000
0000
0000
0000
0000
0000
,  // measure 52
0001
0100
0001
0000
0010
0000
0100
1000
0000
1000
0010
0000
1020
0000
0000
0000
,  // measure 53
0130
0001
0100
0000
0010
0000
1000
0001
0000
0001
0010
0000
0100
0000
1000
0000
,  // measure 54
0010
0000
0100
0000
0010
0000
0100
0000
0001
0000
1000
0000
0001
0000
1000
0000
0100
0010
0100
0010
0001
1000
0001
1000
0001
0000
0000
0000
0000
0000
0000
0000
,  // measure 55
1000
0001
1000
1001
0000
0000
0110
0110
,  // measure 56
0000
0000
0000
0000
0000
0000
1001
0000
0000
0000
0000
0000
0000
0000
0000
0000
0000
0000
1000
0000
0000
0000
0000
0000
0200
0300
0000
0000
0000
0000
0000
0000
0200
0300
0000
0000
0000
0000
0000
0000
0001
0000
0000
0000
0000
0000
0000
0000
,  // measure 57
0000
0000
1001
0000
1001
0000
0000
0000
1000
0001
1000
0000
0100
0000
0010
0000
,  // measure 58
0000
0000
0000
0000
0000
0000
0001
0000
0000
0000
0000
0000
1000
0000
0000
0000
0000
0000
0010
0000
0000
0100
0000
0000
0010
0000
0000
0000
0100
0000
0000
0000
0001
0000
0000
0000
1000
0000
0000
0000
0001
0000
0000
0000
1000
0000
0000
0000
,  // measure 59
0001
0010
1000
0010
0001
0100
1000
0100
,  // measure 60
0001
0010
0100
1000
0001
1000
0010
0100
,  // measure 61
0001
0010
0001
0000
1000
0010
1000
0000
0001
0100
0001
0000
1000
0100
1000
0000
,  // measure 62
0001
MMMM
1000
0000
0001
0000
1000
0000
,  // measure 63
0001
1000
0001
1000
,  // measure 64
0001
1000
0001
1000
,  // measure 65
0001
1000
0001
1000
,  // measure 66
0001
0000
1000
0001
1000
0001
1000
0001
,  // measure 67
1000
0001
1000
0001
1000
0001
1000
0001
,  // measure 68
1000
0001
1000
MMMM
MMMM
MMMM
1100
0000
,  // measure 69
0101
0000
0000
0000
0011
0000
0000
0000
1010
0000
0000
0000
1000
0000
0001
1000
,  // measure 70
0001
0010
0100
0010
1000
0010
0001
1000
,  // measure 71
0020
0000
0000
0000
0130
0000
0001
0100
0001
0000
1000
0000
1100
0000
0000
0000
,  // measure 72
0101
0000
0000
0000
0011
0000
0000
0000
1010
0000
0000
0000
1001
0000
0000
0001
,  // measure 73
0010
0000
0100
0000
1000
0000
0000
1000
0001
0000
0100
0000
0010
0000
1000
0001
,  // measure 74
0000
1000
0001
0000
0010
0000
0100
0000
1000
0000
0010
0200
0010
0000
0000
0001
,  // measure 75
0000
0000
0310
0000
2000
0000
0000
0000
3001
0000
0010
0200
0010
0000
0000
1000
,  // measure 76
0000
0000
0310
0000
0002
0000
0000
0000
1003
0000
0001
0000
0100
0000
0010
1000
,  // measure 77
0010
0000
0200
0000
0000
0000
0301
0000
1000
0000
0001
0000
0010
0000
0100
1000
,  // measure 78
0100
0000
0020
0000
0000
0000
0031
0000
1000
0000
0010
0100
0010
0000
1000
0000
,  // measure 79
0001
0000
1000
0000
0100
0000
0010
0000
0100
0000
1000
0000
0001
0000
0100
0010
,  // measure 80
0100
0010
1000
0100
0010
0001
0101
0000
,  // measure 81
1010
0000
1000
0100
0001
0000
0110
0000
,  // measure 82
1001
0000
0001
1000
0010
0100
0001
1000
,  // measure 83
0100
0000
0010
0000
0001
0000
0100
0000
0010
0000
1000
0100
1000
0000
0100
0000
,  // measure 84
0010
0001
0010
0000
0001
0000
1000
0000
0010
0000
0100
0000
0110
0000
0000
0000
,  // measure 85
MMMM
0000
0000
0000
0001
1000
0001
1000
0001
0000
1000
0001
0000
1000
0001
0000
,  // measure 86
0100
0000
0010
0000
1000
0000
0001
0000
0020
0000
0000
0000
0130
0000
1000
0100
,  // measure 87
1000
0001
0101
0000
1100
0000
1010
0000
,  // measure 88
0011
0000
0000
0000
1001
0000
0000
1000
0010
0000
0100
0000
0001
0000
0000
0001
,  // measure 89
1000
0000
0100
0000
0010
0000
0001
1000
0000
0001
1000
0000
0010
0000
0100
0000
,  // measure 90
0001
0000
0010
0200
0010
0000
0000
1000
0000
0000
0310
0000
0002
0000
0000
0000
,  // measure 91
1003
0000
0001
0000
0100
0010
0100
0000
0010
0000
0100
0010
0000
0100
0010
0100
,  // measure 92
0000
0010
1000
0000
0100
0000
0010
0001
0010
0000
0200
0000
0000
0000
1300
0000
,  // measure 93
0001
0000
1000
0000
0010
0000
0100
0001
0100
0000
0020
0000
0000
0000
1030
0000
,  // measure 94
0001
0000
0010
0100
0010
0000
0001
0000
1000
0000
0001
0000
0100
0000
0010
0000
,  // measure 95
0100
0000
0001
0000
1000
0000
0100
0010
0100
0000
0010
0000
0001
0000
1000
0000
,  // measure 96
0010
0100
0001
1000
0011
0000
1000
0001
,  // measure 97
1010
0000
0001
1000
0101
0000
1000
0001
,  // measure 98
1100
0000
0001
0010
1000
0010
0001
0100
,  // measure 99
1000
0000
0100
0000
0001
0010
0001
0010
0001
0010
0001
0000
1000
0010
1000
0010
,  // measure 100
1000
0010
1000
0000
0100
0000
0010
0100
0010
0000
0001
0000
0100
0000
0010
0000
,  // measure 101
1000
0000
0100
0001
0100
0001
0100
0001
0100
0001
0100
0001
0100
0001
0100
0001
,  // measure 102
0200
0020
0000
0000
0000
0000
0300
0000
,  // measure 103
0000
0000
0000
0000
0031
1000
0001
1000
,  // measure 104
0001
1000
0001
1000
0001
1000
0001
1000
,  // measure 105
0001
1000
0001
1000
0001
1000
0001
1000
,  // measure 106
0001
1000
0001
1000
0001
1000
0001
1000
,  // measure 107
0001
1000
0001
1000
0020
0000
0000
0000
,  // measure 108
0030
0000
0000
0000
;
