#VERSION:0.83;
#TITLE:Karma D-Live;
#SUBTITLE:;
#ARTIST:BOOGEY VOXX vs PSYQUI;
#TITLETRANSLIT:;
#SUBTITLETRANSLIT:;
#ARTISTTRANSLIT:;
#GENRE:Touhou;
#CREDIT:Melody Love;
#MUSIC:Karma D-Live.ogg;
#BANNER:Karma D-Live.png;
#BACKGROUND:Karma D-Live-bg.png;
#CDTITLE:;
#SAMPLESTART:93.899;
#SAMPLELENGTH:25.600;
#SELECTABLE:YES;
#OFFSET:-0.299;
#BPMS:0.000=150.000;
#STOPS:;
#WARPS:331.083=7.000;
#SPEEDS:0.000=1.000=0.000=0,
62.000=0.000=0.000=0,
62.021=1.000=3.500=0,
162.000=0.000=0.000=0,
162.021=1.000=4.300=0,
230.000=0.000=0.000=0,
230.021=1.000=3.000=0
;
#SCROLLS:0.000=1.000,
18.000=0.000,
20.000=1.000,
22.500=0.000,
24.000=1.000,
26.000=0.000,
28.000=1.000,
65.000=2.000,
66.000=1.000,
106.000=0.900,
107.000=0.800,
108.000=0.700,
108.500=0.600,
109.000=0.500,
110.000=1.000,
137.750=0.600,
138.500=2.000,
139.000=1.000,
145.500=0.000,
146.000=2.000,
146.500=1.000,
178.000=0.900,
182.000=0.800,
186.000=0.700,
194.000=0.600,
200.000=0.700,
200.750=0.800,
201.500=0.900,
202.000=1.000,
233.000=2.000,
234.000=0.600,
234.250=0.700,
234.500=0.800,
234.750=0.900,
235.000=1.000,
298.000=0.600,
299.000=1.000
;
#ATTACKS:TIME=49.297:LEN=0.300:MODS=*5 200% Beat: TIME=49.692:LEN=0.200:MODS=*9 0% Beat: TIME=68.299590:LEN=12.000000:MODS=60% Drunk;
#DISPLAYBPM:90.000:150.000;
#JACKET:Karma D-Live-jacket.png;
#JACKET:Gensokyo Mystery Discovery V2-jacket.png;
#BGCHANGES:-0.200=bgmv.png=1.000=0=0=0=StretchNoLoop==CrossFade_Fastest==,
99999.000=-nosongbg-=1.000=0=0=0=StretchNoLoop====
;
#FGCHANGES:;

//--------------- dance-single - Melody Love ----------------
#NOTEDATA:;
#STEPSTYPE:dance-single;
#DESCRIPTION:Melody Love;
#DIFFICULTY:Beginner;
#METER:4;
#RADARVALUES:0,0,0,0,0;
#CREDIT:Melody Love;
#NOTES:
0000
0000
0000
0000
,
0000
0000
0000
0000
,
0000
0000
0000
0000
,
0000
0000
0001
0000
,
1000
0000
0001
0000
,
0000
0000
0000
0000
,
0000
0000
0200
0000
,
0000
0300
0001
0001
,
0001
0000
1000
0000
,
0100
0000
1000
0000
,
0001
0000
0000
0000
,
0001
0000
0100
0000
,
0010
0000
0000
0000
,
1000
0000
0100
0000
,
0010
0000
0001
0000
,
0010
0000
1001
0000
,
0000
0000
1000
0000
,
0001
0000
1000
0000
,
0001
0000
1000
0000
,
1000
0000
0100
0000
,
0010
0000
0001
0010
,
0001
0000
0100
0000
,
0010
0000
0100
0000
,
0001
0000
1000
0100
,
1000
0000
2000
0000
,
3000
0000
0002
0000
,
0003
0000
2002
0000
,
0000
3003
0000
0000
,
1000
0000
0100
0000
,
0010
0001
0010
0000
,
0001
1000
1000
0000
,
0010
0000
0100
0000
,
0001
0000
1000
0000
,
0001
0000
1000
0001
,
1000
0000
0000
0000
,
0100
0100
0010
0000
,
0010
0010
0000
0000
,
0100
0100
0000
1000
,
0000
0001
0100
0000
,
0001
0000
1000
0000
,
1000
0000
1001
0000
,
0000
0000
0001
0000
,
1000
0000
0200
0000
,
0000
0000
0300
0000
,
0000
0000
0020
0000
,
0000
0000
0030
0000
,
0000
0000
0002
0000
,
0000
0000
0003
0000
,
0000
0000
2000
0000
,
0000
0000
3000
0000
,
0000
0000
0001
0000
,
0100
0000
0001
0000
,
0100
0000
0010
0000
,
1000
0000
0100
0000
,
1000
0000
0010
0000
,
0100
0000
0001
0000
,
1000
0000
0001
1000
,
0001
0000
1000
0001
,
1000
0000
0000
1001
,
1000
0000
0001
0100
,
0001
0000
1000
0100
,
1000
0000
0001
0000
,
0010
0000
0001
0010
,
0001
0000
1000
0010
,
1000
0000
0001
0000
,
1000
0000
0010
0000
,
0100
0000
1001
0000
,
0100
0000
0001
0000
,
1000
0000
0100
0000
,
1000
0000
0001
0000
,
0100
0000
0001
0000
,
0010
0000
0100
0000
,
1000
0000
0001
0000
,
1000
0000
2002
0000
,
0000
0000
3003
0000
,
1000
0000
0001
0000
,
0100
0000
0001
0000
,
0001
0000
1000
0000
,
0100
0000
1000
0001
,
1000
0000
0001
0000
,
0100
0000
0010
0000
,
1000
0000
0001
1000
,
0001
0000
0000
1001
;

//--------------- dance-single - Melody Love ----------------
#NOTEDATA:;
#STEPSTYPE:dance-single;
#DESCRIPTION:Melody Love;
#DIFFICULTY:Easy;
#METER:8;
#RADARVALUES:0,0,0,0,0;
#CREDIT:Melody Love;
#NOTES:
0000
0000
0000
0000
,
0000
0000
0000
0000
,
0000
0000
0000
0000
,
0000
0000
0001
1000
,
0001
1000
0001
0000
,
0000
0000
0000
0000
0000
1000
0000
0000
,
0000
0000
1001
0000
,
0000
0000
0001
0100
,
0010
1000
0100
0100
,
0010
0000
0001
0001
,
1000
0001
0100
0100
,
0010
0000
1000
1000
,
0001
1000
0100
0100
,
0010
0010
0001
0001
,
1000
1000
0001
1000
,
0010
0100
0001
0000
,
0000
1000
1001
0000
,
0000
0000
0000
0000
,
0000
0000
1000
0100
,
0010
0100
0010
0100
,
0010
0100
1000
1000
,
0001
0100
0010
0100
,
0010
0100
0001
0001
,
1000
0100
0010
0001
,
1000
0010
0200
0300
,
0020
0030
2000
3002
,
1003
0001
0002
0023
,
0230
2300
3001
0100
,
0010
0100
0001
0001
,
1000
0100
0010
0100
,
0010
0100
1000
1000
,
0001
0100
0010
1000
,
0001
0010
0200
0300
,
0020
0030
0002
2003
,
3001
1000
0000
1001
,
0001
0100
0100
0001
,
0010
0011
0000
1100
,
1000
0010
0100
0001
,
0010
0100
1000
1000
,
0001
0000
0000
0001
0000
0001
0000
1000
,
0000
0001
1001
0000
,
0000
0000
0020
0230
,
0320
0130
0110
0000
,
0002
0000
0003
0000
,
2000
0000
3000
0000
,
0200
0000
0300
0000
,
2000
0000
3000
0000
,
0002
0000
0003
0000
,
0200
0000
0300
0000
,
0020
0000
0030
0000
,
0200
0000
0300
0100
,
0001
1000
0100
0100
,
1000
0001
0100
0010
,
0100
0001
1000
0100
,
0010
0100
1000
1000
,
0001
0001
1000
0001
,
1000
0001
1000
0010
,
0100
0001
1000
0000
,
0000
2002
3003
0001
,
0100
0010
1000
0100
,
0010
0100
1000
0001
,
0100
0010
0100
0001
,
1000
0100
0010
0001
,
0100
0010
1000
0100
,
0010
0001
0101
0000
,
0100
0000
1100
0100
,
1000
0001
1000
0000
0001
0000
1000
0000
,
0100
0010
0100
1000
,
0010
0100
0001
0010
,
0100
0010
0001
0100
,
0010
1000
0001
0010
,
0100
0010
0001
0100
,
0010
1000
1001
0000
,
0110
0000
2002
0000
,
0000
0000
3003
0001
,
1000
0100
1000
0000
0010
0000
0100
0000
,
0001
0010
0100
1000
,
0001
0100
0001
0000
0010
0000
0100
0000
,
1000
0000
0001
0000
1000
0001
1000
0000
,
0010
1000
0100
0010
,
0001
1000
0020
0030
,
0200
0300
0002
2003
,
3001
1001
1000
1001
;

//--------------- dance-single - Melody Love ----------------
#NOTEDATA:;
#STEPSTYPE:dance-single;
#DESCRIPTION:Melody Love;
#DIFFICULTY:Medium;
#METER:13;
#RADARVALUES:0,0,0,0,0;
#CREDIT:Melody Love;
#NOTES:
0000
0000
0000
0000
,
0000
0000
0000
0000
,
0000
0000
0000
0000
,
0000
1002
0203
0320
,
0230
0302
1003
0000
,
0000
0000
0000
2100
0000
0000
3001
0000
0000
0000
1001
0000
0000
0000
0000
0000
,
0000
0000
0000
0100
0000
0000
0001
0000
1000
0000
0000
0000
0000
0000
0000
0000
,
0000
0001
2001
3200
,
0320
0230
1300
0010
,
0100
0010
1000
0001
,
0010
0100
0010
0010
0001
0000
0100
0000
,
0010
0100
0001
1000
,
0100
0010
0100
0100
1000
0100
1000
0000
,
0001
0100
0001
0000
1000
0100
1000
0000
,
0001
0100
0001
0000
1000
0100
1000
0001
,
0100
0001
0020
0000
0130
0000
0000
0000
,
0000
0000
0000
0000
0110
0000
0000
0000
0100
0000
0000
0000
1000
0000
0000
0001
,
0000
0000
0100
0000
0010
0000
0000
1000
0000
0000
0100
0000
0010
0000
0000
0001
,
0000
0100
0010
1000
0010
0100
0001
0000
,
0001
0010
0100
0010
0001
0010
0200
0000
,
0301
0100
1000
0000
0100
0100
0100
0000
,
1000
0010
0100
0010
1000
0010
0200
0000
,
1300
0100
0001
1000
0001
0010
0100
0000
,
0100
1000
0010
0001
0010
1000
0010
0100
,
0001
0001
0001
0000
0201
0000
0320
0000
,
2030
0000
0000
0000
3200
0000
0000
0000
0310
0000
0000
0010
0000
0000
0010
0000
,
0100
0000
1001
0000
0002
0203
0320
2030
,
3002
0023
0230
0000
1300
0010
0200
0000
,
1300
0100
0001
0000
0100
0100
0100
0000
,
0001
0010
0100
0010
0001
0010
0200
0000
,
0301
0100
1000
0001
1000
0010
0200
0300
,
0100
0001
0010
1000
0010
0001
0010
0100
,
1000
1000
0001
0001
0200
0000
0320
0000
,
0032
0000
0000
0000
0023
0000
0000
0000
0130
0000
0000
0100
0000
0000
0100
0000
,
0010
0100
1000
0001
0000
0000
1001
1000
,
0010
0000
0000
0010
0000
0000
0100
0000
0001
0000
0100
0000
0010
0000
0100
0000
,
0001
0000
0000
1000
0000
0000
1100
0000
0000
0000
0100
0000
0100
0000
1000
0000
,
0010
0000
0000
0100
0000
0000
0101
0000
0000
0000
1001
0000
0000
0000
1100
0000
,
0000
0100
0010
0000
0110
0010
0001
1000
,
0010
0100
0001
0100
0000
0101
0000
0001
,
0000
1000
0000
1000
1100
0000
0000
0000
,
0000
0000
2100
3001
,
0102
1003
2001
0000
,
3200
0000
2300
0000
,
3002
0000
0203
0000
,
0302
0000
2003
0000
,
3200
0000
0000
0000
0000
0000
0000
0000
0320
0000
0030
0000
0000
0010
0000
0000
,
0002
0000
0003
0000
0000
0001
0000
0000
2000
0000
3000
0000
0000
1000
0000
0000
,
0020
0000
0030
0000
0000
0010
0000
0000
0200
0000
0300
0000
0000
0100
0000
0000
,
0002
0000
0003
0000
0000
0001
0000
0000
2000
0000
3000
0000
0000
1000
0000
0000
,
0002
0000
0003
0000
0000
0001
0000
0000
1001
0000
1000
0000
0010
0000
0000
0000
,
0100
0010
1000
0000
0010
0100
0001
0000
,
0001
0010
0100
0000
1000
0010
0100
0000
,
0100
0010
0100
0000
0001
0010
0100
0000
,
0100
0010
0100
0000
1000
0010
0100
0000
,
0100
0001
0010
0000
0100
1000
0010
0000
,
0010
0100
0001
0000
0001
1000
0100
0010
,
0100
1000
0010
0100
0020
0000
0000
0000
,
0000
0000
0130
0000
0110
0000
0100
0001
,
0010
0100
1000
0020
0000
0130
1000
0100
,
0010
1000
0100
0020
0000
0130
0001
0100
,
0010
0001
0100
0010
1000
0000
1001
0000
,
0001
0000
1001
0000
1000
0010
0100
1000
,
0100
0001
0010
0200
0000
0301
0100
1000
,
0010
0100
0001
0000
0101
0000
0000
0000
,
1100
0000
0102
1003
,
1100
0100
0020
0000
0031
0100
0010
1000
,
0001
0100
1000
0001
0010
1000
0100
0010
,
0001
1000
0100
0001
1000
0010
0001
1000
,
0010
0100
0001
0010
1000
0010
0100
0010
,
0001
1000
0020
0000
1030
0100
0010
0001
,
1000
0100
0001
1000
0010
0001
0100
0010
,
1000
0001
0100
1000
0200
0000
0301
0000
,
0002
0000
1003
0000
2000
0000
3100
0001
,
0100
1000
0100
0001
0100
0000
0110
0000
,
1100
0000
0000
1000
0000
0010
0100
0000
0010
0000
1000
0000
0010
0000
0100
0000
,
0010
0000
1000
0000
0010
0000
0100
0000
0001
0000
0010
0000
0100
0000
0000
0100
,
0010
0001
0100
0010
0100
0001
0100
0010
,
0100
0000
0001
0000
0010
0000
0100
0000
1000
0000
0010
1000
0000
1000
0000
0000
,
0010
0000
1000
0100
0000
0000
0010
0000
0100
0000
1000
0000
0100
0000
0010
0000
,
0001
0100
0010
0100
0002
0000
0100
0000
,
2003
0000
0000
0000
0100
0000
0000
0000
3002
0000
0000
2003
0000
0000
3002
0000
,
2003
3020
0230
0000
0001
0010
1000
0000
,
0000
0300
0000
0000
;

//--------------- dance-single - Melody Love ----------------
#NOTEDATA:;
#STEPSTYPE:dance-single;
#DESCRIPTION:Melody Love;
#DIFFICULTY:Hard;
#METER:15;
#RADARVALUES:0,0,0,0,0;
#CREDIT:Melody Love;
#NOTES:
0000
0000
0000
0000
,
0000
0000
0000
0000
,
0000
0000
0000
0000
,
0000
1010
1020
0130
,
0021
0130
1100
0000
,
0000
0000
0000
1100
0000
0000
1100
0000
0000
0000
0011
0000
0000
0000
0000
0000
,
0000
0000
0000
0011
0000
0000
0011
0000
0101
0000
0000
0000
0000
0000
0000
0000
,
0000
0000
0101
0000
2001
3000
1200
0300
,
0120
0000
0030
0000
0012
0000
0000
0000
1003
0000
0010
0000
0100
0000
0000
0010
,
1000
0000
0100
0000
0010
0000
0000
0100
0010
0000
0001
0000
0100
0000
0000
0001
,
0100
0000
1000
0000
0001
0000
0010
0000
1000
0000
0100
0000
0010
0000
0000
0100
,
1000
0000
0010
0000
0100
0000
0000
0010
0100
0000
0001
0000
0010
0000
0000
0001
,
0010
0000
1000
0000
0001
0000
0100
0000
1000
0000
1000
0000
0100
1000
0001
0000
,
0100
0000
0100
0000
0001
0010
0100
0000
0010
0000
0010
0000
0100
1000
0010
0000
,
0100
0000
0100
0000
0010
1000
0001
0000
0010
0100
0010
0100
1000
0100
1000
0100
,
1000
0001
1000
0001
0100
0001
0010
0100
1000
0000
0000
0000
0000
0000
0000
0000
,
0000
0000
0000
0000
0001
0000
0000
0000
1001
0000
0000
0000
1000
0000
0000
0010
,
0000
0010
0100
0000
0001
0000
0000
0010
0000
0010
0100
0000
1000
0000
0000
0010
,
0000
0010
0100
0000
0001
0010
0100
0010
0100
1000
0010
0000
0010
0000
0000
0000
,
1000
0100
0010
0001
0000
0100
0010
0000
0100
0000
1000
0100
0000
0001
1000
0000
,
0400
0000
0000
0301
0000
0100
2000
0000
0100
0000
0001
0000
3100
0000
0000
0100
,
0010
0001
0100
0010
0000
0010
1000
0000
0100
0010
0001
0100
0000
0100
0010
0000
,
1000
0001
0010
0100
1000
0010
1000
0100
0010
0000
0001
0001
0000
0001
0000
0000
,
0001
0100
0010
1000
0000
1000
0010
0000
0100
0001
0010
0001
1000
0001
0000
1000
,
0000
1000
0100
0010
0000
0001
0100
0000
0101
0000
0100
0000
0010
1000
0000
0001
,
0010
0000
0100
0000
1000
0001
0000
0100
0010
0000
0100
0010
0000
0100
0010
0000
,
0110
0000
0010
1000
0001
0000
0000
0000
0001
0010
0100
1000
0001
0010
0100
1000
,
0001
0010
0100
1000
0200
0000
0000
0000
0301
0000
0001
0100
0000
1000
0001
0000
,
0400
0000
0000
1300
0000
0100
0002
0000
0100
0000
1000
0000
0103
0000
0000
0100
,
0010
1000
0100
0010
0000
0010
0001
0000
0100
0010
1000
0100
0000
0100
0010
0000
,
0001
1000
0010
0100
0010
1000
0100
0010
0001
0100
0001
0000
4000
0000
0000
0000
,
3001
0010
0100
1000
0000
1000
0010
0000
0100
0001
0100
0010
0100
1000
0100
0010
,
0000
1000
0100
0010
0100
0001
0100
0000
1100
0000
0100
0000
0010
0001
0000
1000
,
0010
0000
0100
0000
0001
1000
0000
0100
0010
0000
0100
0010
0000
0100
0010
0000
,
0110
0000
0010
0001
1000
0001
1000
0001
0000
0000
0000
0000
1001
0000
0000
0000
,
1100
0000
0100
0010
0000
0001
0100
0000
1000
0000
0100
0000
0001
1000
0010
0100
,
0001
0000
0010
0100
0000
0000
0110
0000
0000
0000
0011
0000
1100
0000
1000
0000
,
0001
0000
0100
0010
0000
1000
0100
0000
0001
0000
0100
0000
1000
0001
0010
0100
,
1000
0000
0010
0100
0000
0000
0010
0000
0110
0000
0100
0000
0001
0000
0010
0000
,
0100
0000
0100
0010
0000
0000
0012
0000
0000
0000
1003
0000
0000
0000
2010
0000
,
0000
3001
0000
0001
1001
0000
0000
0000
,
0000
0000
0000
0000
0201
0300
2100
3000
,
1020
0030
0012
0003
2001
0000
0000
0000
,
3020
0000
0230
0000
,
0302
0000
0023
0000
,
2030
0000
3002
0000
,
0203
0000
0000
0000
1300
2000
0000
0000
,
3010
0020
0000
0000
0031
0002
0000
0000
,
1003
0000
2000
0000
0000
0000
0000
0000
3100
0000
0100
0000
0000
0200
0000
0000
,
0310
0000
0010
0000
0000
0020
0000
0000
1030
0000
1000
0000
0000
2000
0000
0000
,
3001
0000
0001
0000
0000
0002
0000
0000
1003
0000
0100
0000
1000
0000
0010
0000
,
0100
1000
0100
0010
0100
0001
0010
0100
,
0001
0100
0010
0100
1000
0100
0010
1000
,
0010
0100
0010
0001
0100
0010
0001
0010
,
0100
0000
0001
0000
1000
0000
0100
0000
0010
0100
1000
0000
0001
0000
0100
0000
,
0010
0100
0001
0000
0010
0000
1000
0000
0010
0100
1000
0000
0010
0000
0001
0000
,
0010
0100
0001
0000
1000
0000
0001
0000
0100
0010
0100
0010
1000
0001
1000
0001
,
0010
0100
1000
0010
0100
0001
0010
0100
2000
0000
0000
0000
0000
0000
0000
0000
,
0000
0000
0000
0000
3001
0000
0000
0000
1001
0000
0000
0000
0001
0010
0000
0010
,
0001
0100
0001
0000
1000
0100
0000
0100
0010
0000
0001
0000
1000
0010
0000
0010
,
1000
0100
1000
0000
0010
0000
0100
0000
0001
0000
0010
0000
0100
0010
0000
0010
,
0100
1000
0001
0000
0100
0000
0010
0000
1000
0000
0000
0000
0101
0000
0000
0100
,
0010
0000
1000
0000
0100
0010
0000
0100
0001
0000
0100
0000
1000
0010
0000
0010
,
1000
0100
1000
0000
0001
0100
0000
0100
0010
0000
1000
0000
0001
0010
0000
0010
,
0001
0100
0001
0000
0010
0000
0100
0000
1100
0000
0000
0000
0000
0000
0000
0000
,
0101
0000
0101
1100
,
1001
0000
0001
0100
0020
0000
0000
0000
0130
0000
0001
0000
0010
0100
0000
0010
,
0001
0000
0100
0000
0010
0100
0000
0010
1000
0000
0100
0000
0001
0100
0000
0010
,
0001
0000
0100
0000
1000
0100
0000
0010
1000
0000
0001
0000
0010
0001
0000
0100
,
0001
0000
1000
0000
0010
1000
0000
0100
0010
0000
0100
0000
0001
0100
0000
1000
,
0010
0000
0100
0000
1000
0100
0000
0010
0100
0000
0001
0000
0010
0100
0000
0001
,
0100
0000
1000
0000
0010
0100
0000
1000
0100
0000
0010
0000
1000
0100
0000
0001
,
0100
0000
0010
0000
0001
0100
0000
1000
0100
0000
0000
0000
0000
0000
0000
0000
,
0101
0000
0000
0000
0000
0000
0000
0000
2100
0000
0000
0000
3100
1000
0100
1000
,
0001
1000
0001
1000
0010
1000
0010
1000
0020
0000
0000
0000
0130
0000
0100
0000
,
0001
0100
0010
1000
0000
0100
0010
0000
0100
0000
0001
0100
0000
1000
0001
0000
,
0400
0000
0000
1300
0000
0100
0002
0000
0100
0000
1000
0000
0103
0000
0000
0100
,
0010
1000
0100
0010
0000
0010
0001
0000
0100
0010
1000
0100
0000
0100
0010
0000
,
0001
1000
0010
0100
0001
0010
0001
0100
0010
0000
1000
1000
0000
1000
0000
0000
,
1000
0100
0010
0001
0000
1000
0010
0000
0100
1000
0100
0001
0000
1000
0001
0000
,
0010
0100
0001
0100
1000
0000
0001
0000
1001
0000
1000
0000
0010
0100
0000
0001
,
0010
0000
0001
0000
0100
0010
0000
1000
0010
0000
1000
0100
0000
1000
0001
0100
,
0010
0100
0010
0100
0020
0000
0000
0000
0130
0001
1000
0100
0020
0000
0000
0000
,
0000
0030
0000
0000
;

//--------------- dance-single - Melody Love ----------------
#NOTEDATA:;
#STEPSTYPE:dance-single;
#DESCRIPTION:Melody Love;
#DIFFICULTY:Challenge;
#METER:17;
#RADARVALUES:0,0,0,0,0;
#CREDIT:Melody Love;
#NOTES:
0000
0000
0000
0000
,
0000
0000
0000
0000
,
0000
0000
0000
0000
,
0000
1010
1020
0100
,
0001
0130
1010
0000
,
0000
0000
0000
0011
0000
0000
0011
0000
0000
0000
0101
0000
0000
0000
0000
0000
,
0000
0000
0000
0101
0000
0000
1100
0000
1100
0000
0000
0000
0000
0000
0000
0000
,
0000
0000
1100
0000
0120
0030
0012
0003
,
2001
0000
3000
0000
1020
0000
0000
0000
0130
0000
0100
0000
0010
1000
0000
1000
,
0100
0000
0100
0000
0010
0001
0000
0001
0100
0000
0100
0000
1000
0100
0000
0100
,
0010
0000
1000
0000
0100
0000
0010
0000
0100
0000
0100
0000
0010
0001
0000
0001
,
0100
0000
0100
0000
0010
1000
0000
1000
0100
0000
0100
0000
0001
0100
0000
0100
,
0010
0000
0001
0000
0100
0000
0010
0000
0100
0000
0100
0000
0001
0100
0001
0000
,
0010
0000
0100
0000
1000
0100
1000
0000
0010
0000
0100
0000
0001
0100
0001
0000
,
0010
0000
0100
0000
1000
0100
1000
0000
0100
0010
0100
0010
0001
0010
0001
0010
,
0001
1000
0001
1000
0010
1000
0010
0100
0001
0000
0000
0000
0000
0000
0000
0000
,
0000
0000
0000
0000
1000
0000
0000
0000
1001
0000
0000
0000
0001
0000
0000
1000
,
0000
0000
0100
00M0
0100
0000
0000
0000
0001
0000
0000
0000
0000
0000
0001
0000
0000
0000
0100
00M0
0100
0000
0000
0000
1000
0000
0000
0000
0000
0000
1000
0000
,
0000
0000
0100
00M0
0100
0000
0000
0000
0001
0000
0010
0M00
0010
0000
1000
0000
0100
0000
0010
0000
0001
0000
0000
0000
0100
0000
0000
0000
0000
0000
0000
0000
,
0100
0000
0010
0000
1000
0000
0100
0000
00M0
0000
0100
0000
0001
0000
0000
0000
0010
0000
0000
0000
0100
M000
0100
0000
0000
0000
0010
0000
0100
0000
0000
0000
,
0004
0000
0000
1003
0000
1000
0020
0000
0001
0000
0100
0000
1030
0000
0000
1000
,
0010
1000
0001
0100
00M0
0100
1000
0000
0010
1000
0001
0100
0000
0100
0010
0000
,
1000
0000
0100
00M0
0100
0000
0001
0000
0010
0000
0100
0000
1000
0000
0010
0000
0100
0000
0000
0000
0001
0000
0001
0000
0000
0000
0001
0000
0000
0000
0000
0000
,
0100
0010
1000
0100
00M0
0100
0001
0000
0010
0001
0100
0010
1000
0100
0000
0010
,
0001
0100
0010
1000
0000
0100
0010
0000
0110
0000
0010
0000
0001
1000
0000
0010
,
0100
0000
0010
0000
1000
0001
0000
0200
0010
0000
0302
0010
0000
0203
0010
0000
,
0301
0000
0010
0100
1000
0000
0000
0000
1000
0100
0010
0001
1000
0010
0100
0001
,
1000
0100
0010
0001
0200
0000
0000
0000
1300
0000
1000
1000
0000
0100
0001
0000
,
4000
0000
0000
3001
0000
0001
0020
0000
1000
0000
0100
0000
0031
0000
0000
0001
,
0010
0001
1000
0100
00M0
0100
0001
0000
0010
0001
1000
0100
0000
0100
0010
0000
,
0001
0000
0100
00M0
0100
0000
1000
0000
0010
0M00
0010
0000
0001
0000
0100
0000
0010
0000
1000
0000
0100
0000
0000
0000
0004
0000
0000
0000
0000
0000
0000
0000
,
0103
0010
0001
0100
00M0
0100
1000
0000
0010
0100
0001
0010
0001
0100
0010
1000
,
0000
1000
0100
0010
0001
0010
0100
0000
0110
0000
0100
0000
1000
0001
0000
0100
,
0010
0000
0100
0000
0001
1000
0000
0200
0010
0000
2300
0010
0000
3200
0010
0000
,
1300
0000
0010
0100
0001
1000
0001
1000
0000
0000
0000
0000
1001
0000
0000
0000
,
0101
0000
0100
0010
0000
0010
1000
0100
0010
0000
0010
0001
0100
0000
0100
0010
,
1000
0001
0010
0100
0000
0000
0110
0000
0000
0000
0110
0000
1100
0000
1000
0010
,
0100
0000
0100
0010
0000
0010
0100
0001
0010
0000
0010
0100
1000
0000
1000
0010
,
0100
0001
0010
0100
0000
0000
0110
0000
1001
0000
1000
0000
0010
0000
0001
0000
,
1000
0000
0100
0010
0000
0000
0102
0000
0000
0000
1003
0000
0000
0000
2100
0000
,
0000
0000
3001
0010
0000
0000
0100
0000
1001
0000
0000
0000
0000
0000
0000
0000
,
0000
0000
0000
0000
0000
0000
0000
0000
0001
1000
0100
0000
1000
0001
0100
0000
,
0001
1000
0100
0001
0000
0100
1000
0010
0200
0000
0000
0000
0000
0000
0000
0000
,
2300
0000
3200
0000
,
0302
0000
2003
0000
,
3200
0000
0302
0000
,
2003
0000
0000
0000
3010
0020
0000
0000
,
0031
0002
0000
0000
1003
2000
0000
0000
,
3010
0000
0020
0000
0000
0000
0000
0000
0130
0000
0100
0000
0000
0200
0000
0000
,
0310
0000
0010
0000
0000
0020
0000
0000
1030
0000
1000
0000
0000
2000
0000
0000
,
3001
0000
0001
0000
0000
0002
0013
0100
1000
0000
0010
0000
0100
0000
1000
0000
,
0100
0010
1000
0100
0010
0001
0010
0100
,
0001
0100
0010
0001
0100
1000
0100
0010
,
1000
0100
0001
0100
0010
0001
0100
0010
,
0100
0000
0001
0000
1000
0000
0100
0010
0100
0000
1000
0000
0001
0000
0100
0010
,
0100
0000
0001
0000
1000
0000
0100
0010
1000
0000
0010
0000
0001
0000
0100
0010
,
0001
0000
0010
0000
0100
0000
1000
0000
0100
0010
0100
0010
1000
0001
1000
0001
,
0010
0100
1000
0010
0100
0001
0010
0100
2000
0000
0000
0000
0000
0000
0000
0000
,
0000
0000
0000
0000
0000
0000
0000
0000
0000
0000
0000
0000
3001
0000
0000
0000
0000
0000
0000
0000
0000
0000
0000
0000
2002
0000
3003
0000
0000
0000
0000
0000
0000
0000
0000
0000
0001
0000
0000
1000
0000
0000
0000
0000
0000
1000
0000
0000
,
0100
1000
0010
0000
0100
0001
0000
0001
1000
0000
0100
0000
0010
0001
0000
0001
,
0100
0001
0010
0000
0100
0000
1000
0000
0010
0000
0100
0000
0001
0010
0000
0010
,
0100
0010
0001
0000
1000
0100
0000
1000
0001
0000
0100
0000
0201
0000
0000
0310
,
0100
0000
0001
0000
0001
0100
0000
0001
1000
0000
0010
0000
0100
0001
0000
0001
,
0100
0001
0010
0000
0100
1000
0000
1000
0001
0000
0100
0000
0010
1000
0000
1000
,
0100
1000
0010
0000
0100
0000
0001
0000
0011
0000
0000
0000
M000
0000
0000
0000
,
1100
0000
0000
0000
000M
0000
0000
0000
2001
0000
0000
0000
3002
0000
0000
1003
,
0100
0000
0010
0001
0200
0000
0000
0000
0310
0000
0100
0000
0001
0100
0000
0010
,
0100
0000
0001
0000
0010
0100
00M0
0100
0001
0000
1000
0000
0100
0010
0000
0100
,
1000
0000
0010
0000
0100
0010
0M00
0010
0001
0000
0100
0000
1000
0100
0000
0010
,
0100
0000
0001
0000
1000
0100
00M0
0100
0001
0000
0010
0000
0100
0001
0000
0100
,
1000
0000
0001
0000
0100
0010
0M00
0010
0100
0000
0010
0000
0001
0010
0000
0100
,
0010
0000
0001
0000
0100
0010
0M00
0010
0001
0000
1000
0000
0010
0100
0000
0010
,
1000
0000
0100
0000
0010
0100
00M0
0100
0002
0000
0000
0000
0100
0000
0000
0000
,
2003
0000
0000
0000
0100
0000
0000
0000
3001
0000
0000
0000
0001
1000
0001
1000
,
0001
1000
0001
1000
0001
0010
0100
1000
0020
0000
0000
0000
0130
0000
0100
0000
,
0001
0000
0010
0000
0001
0000
0100
0000
00M0
0000
0100
0000
1000
0000
0000
0000
0010
0000
0000
0000
0100
000M
0100
0000
0000
0000
0010
0000
0100
0000
0000
0000
,
4000
0000
0000
3001
0000
0001
0020
0000
1000
0000
0100
0000
0031
0000
0000
0001
,
0010
0001
1000
0100
00M0
0100
0001
0000
0010
0001
1000
0100
0000
0100
0010
0000
,
0001
0000
0100
00M0
0100
0000
1000
0000
0010
0000
0100
0000
0001
0000
0010
0000
0100
0000
0000
0000
1000
0000
1000
0000
0000
0000
1000
0000
0000
0000
0000
0000
,
0100
0010
0001
0100
00M0
0100
1000
0000
0100
0010
0001
0100
0000
0100
0010
0000
,
1000
0010
0100
0001
0010
0100
1000
0000
0100
0000
0010
0000
0001
1000
0000
0010
,
0100
0000
0010
0000
1000
0001
0000
0020
0100
0000
0032
1000
0000
0203
0010
0000
,
0301
0010
0100
1000
0020
0000
0000
0000
0130
1000
0100
0001
0020
0000
0000
0000
,
0000
0030
0000
0000
;
