#TITLE:KYAMISAMA ONEGAI!;
#SUBTITLE:;
#ARTIST:Dr.Honda feat. Moe;
#TITLETRANSLIT:;
#SUBTITLETRANSLIT:;
#ARTISTTRANSLIT:;
#GENRE:;
#CREDIT:;
#BANNER:KYAMISAMA ONEGAI!-bn.png;
#BACKGROUND:KYAMISAMA ONEGAI!-bg.png;
#LYRICSPATH:KYAMISAMA ONEGAI!.lrc;
#CDTITLE:;
#MUSIC:KYAMISAMA ONEGAI!.ogg;
#OFFSET:-0.454000;
#SAMPLESTART:48.240002;
#SAMPLELENGTH:27.429001;
#SELECTABLE:YES;
#BPMS:0.000000=140.000000
;
#STOPS:
;
#BGCHANGES:;
#KEYSOUNDS:;
#ATTACKS:;

//---------------dance-single - ----------------
#NOTES:
     dance-single:
     :
     Easy:
     8:
     0.363289,0.415341,0.000000,0.127951,0.000000,318.000000,318.000000,0.000000,16.000000,0.000000,0.000000,0.363289,0.415341,0.000000,0.127951,0.000000,318.000000,318.000000,0.000000,16.000000,0.000000,0.000000:
// measure 0
0000
0000
0000
0000
,  // measure 1
0000
0000
0000
0000
,  // measure 2
0000
0000
0000
0000
,  // measure 3
0000
0000
0000
0000
,  // measure 4
1000
0000
0001
0000
0100
0000
0001
0001
,  // measure 5
1000
0000
0100
0000
0010
0010
0001
0000
,  // measure 6
1000
0000
0010
0000
0100
0000
0001
0001
,  // measure 7
0100
0000
0001
0000
1000
1000
0010
0000
,  // measure 8
1000
0100
1000
0000
0001
0100
0001
0001
,  // measure 9
1000
0010
1000
0000
0001
0010
0001
0001
,  // measure 10
1000
0100
1000
0000
0100
0010
0100
0000
,  // measure 11
0010
0001
0010
0001
1000
0100
1000
0000
,  // measure 12
0010
0100
0010
0000
0010
0100
0001
0000
,  // measure 13
0001
0100
0001
0000
0001
1000
0100
0000
,  // measure 14
0100
0010
0100
0000
0010
0001
0010
0000
,  // measure 15
0010
0001
0100
0000
0001
1000
0100
0000
,  // measure 16
0010
0100
1000
0000
1000
1000
1000
0000
,  // measure 17
0010
0100
0001
0000
0001
0001
0001
0000
,  // measure 18
1000
0001
0001
1000
,  // measure 19
0002
0000
0003
1000
,  // measure 20
0100
0000
0100
1000
0100
0000
0100
1000
,  // measure 21
0100
0010
0001
0010
0001
0000
0100
0000
,  // measure 22
0010
0000
0010
1000
0010
0000
0010
1000
,  // measure 23
0010
0100
0001
0100
0001
0000
0100
0000
,  // measure 24
0001
0010
0100
0000
0100
0000
1000
0010
,  // measure 25
1000
0010
0100
0000
0100
0000
0001
0000
,  // measure 26
2000
0000
0000
3000
0002
0000
0000
0003
,  // measure 27
2000
0000
0000
3000
,  // measure 28
1000
0100
0010
0000
0001
0100
0010
0000
,  // measure 29
0100
0001
1000
0001
0000
0000
0010
0000
,  // measure 30
0001
1000
0100
0000
1000
0001
0100
0000
,  // measure 31
0010
0100
0001
1000
0000
0000
0100
0000
,  // measure 32
0010
0000
0001
0100
0010
0000
0010
0100
,  // measure 33
0001
0000
1000
0100
0010
0100
1000
0000
,  // measure 34
0001
0100
0001
0000
1000
0100
1000
0000
,  // measure 35
0002
0003
2000
3000
,  // measure 36
0010
0000
0100
0001
1000
0000
0100
1000
,  // measure 37
0001
0000
0100
0001
0020
0000
0030
0000
,  // measure 38
0100
0000
1000
0010
0100
0000
0001
0010
,  // measure 39
0100
1000
0001
0000
2000
0000
3000
0000
,  // measure 40
0100
0000
1000
0001
0010
0000
0100
1000
,  // measure 41
0001
1000
0100
0000
0010
0000
0001
0000
,  // measure 42
2000
0000
3000
0000
,  // measure 43
0002
0000
0003
0000
,  // measure 44
0001
0000
0100
0000
,  // measure 45
0001
0000
1000
0000
,  // measure 46
0010
0000
1000
0000
,  // measure 47
0100
0000
0010
0000
,  // measure 48
0001
0100
0010
0000
0010
1000
0100
0000
,  // measure 49
0100
1000
0001
0000
0001
1000
0100
0000
,  // measure 50
0010
0100
1000
0000
0010
0100
0001
0000
,  // measure 51
0001
0010
0001
0100
0001
1000
0001
0000
,  // measure 52
0200
0000
0300
0000
,  // measure 53
0010
0100
0001
0000
0001
0100
0010
0000
,  // measure 54
0010
1000
0001
0100
0000
0000
0010
0000
,  // measure 55
1000
0100
1000
0000
0001
0100
0001
0000
,  // measure 56
1000
0010
0100
0001
0000
0000
0010
0000
,  // measure 57
0100
0000
1000
0100
0010
0000
0010
0100
,  // measure 58
1000
0000
0010
0100
0001
0100
0010
0000
,  // measure 59
1000
0100
0010
0000
0001
0100
0010
0000
,  // measure 60
2000
3000
0002
0003
,  // measure 61
0010
0000
0100
0010
0001
0000
0010
0100
,  // measure 62
1000
0000
0001
0100
0020
0000
0030
0000
,  // measure 63
1000
0000
0001
0010
0100
0000
1000
0001
,  // measure 64
0010
0100
1000
0000
0002
0000
0003
0000
,  // measure 65
1000
0000
0100
1000
0010
0000
0100
0001
,  // measure 66
0010
0001
0100
0000
0010
0000
1000
0000
,  // measure 67
0010
1000
0010
0000
0100
0000
0100
0000
,  // measure 68
0001
1000
0001
0000
0200
0000
0000
0000
,  // measure 69
0000
0300
0000
0000
;

//---------------dance-single - XO-----------------
#NOTES:
     dance-single:
     :
     Medium:
     11:
     0.461537,0.527997,0.023991,0.311880,0.047982,404.000000,401.000000,3.000000,39.000000,0.000000,0.000000,0.461537,0.527997,0.023991,0.311880,0.047982,404.000000,401.000000,3.000000,39.000000,0.000000,0.000000:
0000
0000
0000
0000
,
0000
0000
0000
0000
,
0000
0000
0000
0000
,
0000
0000
0000
0000
,
1000
0010
0100
0001
1000
1000
0001
0001
,
1000
0100
0010
0001
1000
1000
0001
0000
,
0010
0001
1000
0010
1000
1000
0001
0001
,
0100
0001
1000
0100
0010
0010
0100
0000
,
1000
0000
1000
0100
0000
0000
1000
0000
0010
0000
0100
0000
0001
0000
0100
0000
,
0001
0000
0001
0100
0000
0000
0001
0000
1000
0000
0100
0000
0010
0000
0000
0000
,
0100
0000
0100
1000
0000
0000
0001
0000
0100
0000
0010
0000
1000
0000
0010
0000
,
0100
0000
0100
0001
0000
0000
1000
0000
0100
0000
1000
0000
1100
0000
0000
0000
,
0100
0000
0010
0001
0000
0000
1000
0000
0010
0000
0100
0000
0001
0000
0100
0000
,
0010
0000
0100
0001
0000
0000
1000
0000
0010
0000
0100
0000
0001
0000
0000
0000
,
1000
0000
0100
0010
0000
0000
0100
0000
1000
0000
0001
0000
0010
0000
0001
0000
,
0100
0000
0001
0010
0000
0000
0001
0000
0100
0000
0001
0000
0101
0000
0000
0000
,
0001
0100
0010
0100
0001
0001
0001
0000
,
1000
0100
0010
0100
1000
1000
1000
0000
,
0010
0100
0001
1000
,
0200
0000
0300
1000
,
0100
0000
0000
1000
0000
0000
0100
0000
0000
0010
0000
0000
0001
0000
0010
0100
0000
0000
1000
0000
0000
1000
0000
0000
,
0001
0000
0000
0100
0000
0000
0010
0000
0000
1000
0000
0000
1000
0000
0010
0100
0000
0000
0001
0000
0000
0001
0000
0000
,
0100
0000
0000
0010
0000
0000
1000
0000
0000
0001
0000
0000
0100
0000
0010
0100
0000
0000
0001
0000
0000
1000
0000
0000
,
0100
0000
0000
0010
0000
0000
0001
0000
0000
1000
0000
0000
0100
0000
0010
0001
0000
0000
0100
0000
0000
0100
0000
0000
,
0010
0100
0001
0100
0020
0030
1000
0001
,
1000
0100
0010
0001
0002
0000
0003
0000
,
0100
0010
0100
0000
0001
1000
0001
0000
,
0010
0100
1000
1000
0020
0000
0030
0000
,
1000
0100
0001
0100
1000
0100
0020
0000
,
0030
0100
1000
1000
0020
0030
0200
0300
,
0001
0100
1000
0100
0001
0100
0020
0000
,
0030
0100
0001
0001
2000
3000
0200
0300
,
1000
0100
0010
0100
1000
0010
0200
0300
,
0010
0100
0001
0100
0010
0100
0002
0000
,
1003
0100
0000
0010
0000
0001
0100
0020
,
0000
0030
0000
1000
1000
0001
0001
0100
,
0010
1000
0001
1000
0100
0010
0002
0000
,
0003
0010
0100
1000
0002
0003
2000
3000
,
0001
1000
0010
0200
0300
0020
0030
0100
,
0001
1000
0002
0000
2003
0000
3000
1000
,
0010
0100
0001
1000
0100
0010
0001
0000
,
0100
0001
0100
0010
1000
0000
0100
0000
,
0001
0001
1000
1000
,
0010
0100
0010
1000
0100
0000
0000
0000
,
0100
1000
0001
1000
,
0001
0010
0001
1000
,
0010
0100
0001
0100
,
0010
1000
0001
0010
,
0001
0100
0001
0000
1000
0010
1000
0000
,
0100
1000
0100
0000
0010
0001
0010
0000
,
0100
1000
0001
0000
0100
0001
1000
0000
,
0010
1000
0001
0000
0010
0100
1000
0000
,
2002
0000
0000
0000
0000
3003
0000
0000
,
1000
0001
0010
0001
1000
0010
2000
0000
,
3000
0010
0100
1000
0200
0300
0002
0003
,
0010
0001
1000
0100
1000
0001
0200
0000
,
0300
0010
1000
0100
0020
0030
0200
0300
,
1000
0010
0100
0010
0100
0001
0020
0030
,
0001
0100
0010
1000
0001
0100
0020
0000
,
1030
0100
0000
0010
0000
0001
0100
0020
,
0000
0030
0000
0100
0001
0100
0010
0100
,
0001
1000
0100
0010
0001
1000
0002
0000
,
0003
0010
0100
1000
0002
0003
2000
3000
,
0001
0100
0010
0200
0300
0020
0030
0100
,
0010
1000
0200
0000
0320
0000
0030
0100
,
1000
0001
0100
1000
0100
0010
1000
0000
,
0001
1000
0100
0001
0100
0010
0001
0000
,
0100
0001
0100
0001
1000
0000
1000
0000
,
0010
1000
0001
0100
0002
0000
0000
0000
,
0000
0000
0003
0000
;

//---------------dance-single - XO SKT-----------------
#NOTES:
     dance-single:
     :
     Hard:
     14:
     0.584918,0.611365,0.063975,0.199923,0.295886,512.000000,504.000000,8.000000,25.000000,0.000000,0.000000,0.584918,0.611365,0.063975,0.199923,0.295886,512.000000,504.000000,8.000000,25.000000,0.000000,0.000000:
0000
0000
0000
0000
,
0000
0000
0000
0000
,
0000
0000
0000
0000
,
0000
0000
0000
0000
,
1000
0000
0001
0100
0000
0000
1000
0000
0100
0000
0001
0000
1000
0000
0001
0000
,
0000
0000
1000
0100
0000
0000
0001
0000
0100
0000
1000
0000
0001
0000
0000
0000
,
1000
0000
0010
0100
0000
0000
0100
0000
0001
0000
0010
0000
0100
0000
0100
0000
,
1000
0000
0100
0010
0000
0000
0001
0000
0010
0000
0100
0000
1000
0000
0000
0000
,
1000
0000
0100
0010
0000
0001
0000
0001
0100
0000
0010
0000
1000
0000
0000
0000
,
0010
0000
0100
1000
0000
0100
0000
0100
0001
0000
1000
0000
0100
0000
0000
0000
,
1000
0000
0010
1000
0000
0010
0000
0010
0100
0000
0001
0000
0100
0000
0010
0000
,
1000
0000
0001
0010
0000
0010
0000
0100
1000
0000
0100
0000
1000
0000
0000
0000
,
1000
0000
0100
0010
0000
0100
0000
0100
1000
0000
0001
0000
0100
0000
1000
0000
,
0100
0000
0001
0010
0000
0001
0000
1000
0001
0000
0010
0000
0100
0000
0000
0000
,
1000
0000
0010
0100
0000
0000
0001
0000
0010
0000
1000
0000
0010
0000
0001
0000
,
1000
0000
0100
0010
0000
0000
0001
0000
0100
0000
1000
0000
0100
0000
0001
0000
,
0010
0000
0100
1000
0000
1000
0100
0000
1100
0000
0001
0000
0201
0000
0300
0000
,
0001
0000
0100
0010
0000
0010
0100
0000
0101
0000
1000
0000
1100
0000
0000
0000
,
0100
0010
0100
0000
1000
0001
1000
0000
,
0020
0000
0030
0110
,
1001
0000
0000
0001
0000
0000
1000
0000
0000
0100
0000
0010
0001
0000
1000
0010
0000
0000
0100
0000
0000
1000
0000
0000
,
0100
0000
0000
0010
0000
0000
1000
0000
0000
0100
0000
0010
0100
0000
1000
0001
0000
0000
0100
0000
0000
0010
0000
0000
,
1000
0000
0000
0001
0000
0000
0100
0000
0000
0001
0000
0100
0010
0000
1000
0010
0000
0000
1000
0000
0000
0100
0000
0000
,
0001
0000
0000
0100
0000
0000
1000
0000
0000
0001
0000
0010
0001
0000
0100
0001
0000
0000
0100
0000
0000
0010
0000
0000
,
1000
0000
0000
0100
0000
0000
0010
0000
0000
0001
0000
1000
0002
0000
0000
0003
0000
0000
0100
0000
0000
0010
0000
0000
,
1000
0000
0000
0001
0000
0000
0100
0000
0000
0010
0000
1000
0010
0000
0000
0100
0000
0000
0001
0000
0000
0001
0000
0000
,
1000
0100
1000
0000
0100
0010
0100
0000
1000
0001
1000
0000
0001
0010
0001
0000
,
4000
0004
0000
0000
0000
0000
0000
0000
3003
0000
0000
0000
0000
0000
0001
0100
,
0010
0000
1000
0000
0100
0000
0010
0000
0011
0000
0001
0010
0001
0000
0100
0000
,
0010
0000
1000
0000
0010
0000
1010
0000
1000
0000
0100
0000
0010
0000
0001
0010
,
0001
0000
0010
0000
0100
0000
0100
0000
1000
0000
0010
1000
0010
0000
0100
0000
,
0100
0000
0001
0000
1000
0000
0001
0000
1000
0000
0100
0000
0010
0000
0001
0100
,
0010
0000
0100
0000
0001
0000
0001
0000
1000
0000
0100
0010
0001
0000
0100
0000
,
0001
0000
1000
0000
0100
0000
0001
0000
0100
0000
1000
0000
0001
0000
0100
0001
,
0100
0100
0000
0100
0000
0010
0100
0010
,
0100
0000
0001
0000
1000
0000
0100
0000
0001
0000
0100
0000
1000
0000
0001
0100
,
0002
0000
0003
0000
1000
0010
2000
0000
3000
0000
0001
0100
0002
0000
0003
0000
,
1000
0000
0100
0000
0010
0000
0100
0000
0001
0000
0100
0000
0010
0000
0100
1000
,
0100
0000
1000
0000
0001
1000
0002
0000
0003
0000
2000
0000
3000
0000
0010
0000
,
0100
0000
0001
0000
0200
0000
0300
0000
0020
0000
0030
0000
1000
0000
0100
0010
,
0001
0000
1000
0000
0010
0100
0001
0000
1000
0000
0100
0010
0001
0000
0100
0000
,
0001
0100
0010
1000
0001
0010
0100
1000
,
0001
0002
0100
0003
1000
2000
0100
3000
,
1000
0100
0010
0001
0100
0000
0000
0000
,
0002
0100
0203
1000
,
2300
0010
3020
0001
,
0032
0010
0023
1000
,
2030
0100
3200
0001
,
0301
0100
0001
1000
0100
1000
0100
0100
,
0100
0010
0001
0010
0100
1000
0100
0100
,
0100
0010
0001
0010
0100
1000
0001
0100
,
0010
1000
0001
0010
0100
1000
0001
1000
,
0004
0000
4000
0000
0000
0000
0000
0000
0000
0000
3003
0000
0000
0000
0010
0100
,
1000
0000
0001
0000
0100
0000
1000
0000
1000
0000
0100
0001
1000
0000
0100
0000
,
0010
0000
1000
0000
0010
0000
0001
0000
0100
0000
0010
0000
1000
0000
0100
1000
,
0001
0000
0100
0000
1000
0000
1000
0000
0100
0000
0001
1000
0100
0000
0010
0000
,
0010
0000
1000
0000
0010
0000
0001
0000
0010
0000
0100
0000
1000
0000
0010
0001
,
0010
0000
0100
0000
0010
1000
0010
0000
0100
0000
0001
0100
0010
0000
1000
0000
,
0100
0000
1000
0000
0100
0000
0001
0000
0100
0000
0010
0000
0001
0000
0100
0010
,
0100
0001
0000
1000
0000
0001
1000
0001
,
0010
0000
0100
0000
1000
0000
0100
0000
0001
0000
0100
0000
1000
0000
0010
1000
,
0010
0000
0100
0000
0001
0010
0001
0000
0100
0000
0010
1000
0010
0000
0100
0000
,
1000
0000
0100
0000
0010
0000
0100
0000
0001
0000
1000
0000
0100
0000
0010
0100
,
0001
0000
0100
0000
1000
0100
0002
0000
0003
0000
2000
0000
3000
0000
0010
0000
,
0001
0000
1000
0000
0020
0000
0030
0000
0200
0000
0300
0000
0001
0000
1000
0100
,
0010
0000
0001
0000
0010
0100
1000
0000
0001
0000
1000
0100
0010
0000
0001
0000
,
0100
0010
1000
0100
1000
0001
0100
0001
,
0010
0100
1000
0100
0001
0000
0001
0000
,
0100
1000
0010
0100
0002
0000
0000
0000
,
0000
0000
0003
0000
;
