#VERSION:0.83;
#TITLE:KOTONOHA;
#SUBTITLE:ft. Kotoha;
#ARTIST:EmoCosine × BEMANI Sound Team "HuΣeR";
#TITLETRANSLIT:;
#SUBTITLETRANSLIT:;
#ARTISTTRANSLIT:;
#GENRE:EMOISM FUTURE POP;
#ORIGIN:;
#CREDIT:;
#BANNER:KOTONOHA-banner.mp4;
#BACKGROUND:KOTONOHA-bg.png;
#PREVIEWVID:;
#JACKET:KOTONOHA-jacket.png;
#CDIMAGE:KOTONOHA-jacket2.png;
#DISCIMAGE:KOTONOHA-stillbanner.png;
#LYRICSPATH:;
#CDTITLE:;
#MUSIC:KOTONOHA.ogg;
#OFFSET:0.315000;
#SAMPLESTART:70.171967;
#SAMPLELENGTH:11.999998;
#SELECTABLE:YES;
#BPMS:0.000=160.000;
#STOPS:;
#DELAYS:;
#WARPS:;
#TIMESIGNATURES:0.000=4=4;
#TICKCOUNTS:0.000=4;
#COMBOS:0.000=1;
#SPEEDS:0.000=1.000=0.000=0;
#SCROLLS:0.000=1.000;
#FAKES:;
#LABELS:0.000=Song Start;
#BGCHANGES:1.000=KOTONOHA.mp4=1.000=0=0=1=====,
99999=-nosongbg-=1.000=0=0=0 // don't automatically add -songbackground-
;
#KEYSOUNDS:;
#ATTACKS:
;

//---------------dance-single - ----------------
#NOTEDATA:;
#CHARTNAME:;
#STEPSTYPE:dance-single;
#DESCRIPTION:;
#CHARTSTYLE:;
#DIFFICULTY:Challenge;
#METER:15;
#RADARVALUES:0.760391,0.982841,0.170831,0.503502,0.759749,592.000000,573.000000,19.000000,56.000000,0.000000,0.000000,0.000000,0.000000,0.000000,0.760391,0.982841,0.170831,0.503502,0.759749,592.000000,573.000000,19.000000,56.000000,0.000000,0.000000,0.000000,0.000000,0.000000;
#CREDIT:Ben Speirs;
#NOTES:
0000
0000
0000
0000
,
0000
0000
0000
0000
,
0000
0000
0000
0000
,
0000
0000
0000
0000
,
0000
0000
0000
3000
,
2100
0000
0000
3001
0100
0001
0200
0000
0000
0301
0310
0100
,
2000
3010
1010
1001
,
0012
0000
0000
1003
0010
1030
0020
0000
0000
1030
0100
0010
,
0002
0000
0000
0000
0000
0000
0103
0000
0010
0000
0100
0000
0001
0000
0010
0000
0100
0000
1000
0000
0000
0001
0000
0000
,
0201
0000
0000
0000
0301
0000
0010
0000
1000
0000
0000
0010
0100
0000
1000
0100
,
1000
0000
0001
0000
0100
0000
0010
0000
1000
0100
0000
0010
0001
0000
1000
0000
,
1200
0000
0000
0000
1300
0000
0010
0000
0001
0000
0000
0010
0100
0000
0001
0100
,
0001
0000
1000
0000
0100
0000
0010
0000
0001
0100
0000
0100
0010
0000
1000
0001
,
1000
0000
0100
0000
0010
0000
0001
0000
0100
0010
0100
0001
0010
0100
1000
0001
,
0100
0000
0000
0000
0000
0000
0000
0000
0000
0000
0000
0000
0000
0000
0001
1000
,
0002
0000
0000
0000
1003
0000
0010
0000
1010
0000
0000
0001
0010
0000
0100
0000
,
1000
0000
0010
0000
0100
0001
0000
1000
0010
0000
1000
0100
0010
0000
0001
0000
,
2000
0000
0000
0000
3001
0000
0010
0000
0011
0000
0000
1000
0010
0000
0100
0000
,
0001
0000
0010
0000
0100
1000
0000
0001
0100
0000
0010
0100
0010
0000
1000
0100
,
0020
0000
0000
0000
0031
0000
0100
0000
0101
0000
1000
0001
1000
0000
0200
0000
,
0000
0000
0310
0000
0001
0100
0000
0100
0010
0000
1000
0100
0010
0000
0001
0100
,
0002
0000
0000
0000
1033
0000
0100
0000
1100
0000
0001
1000
0001
0000
0100
0000
,
0120
0000
0300
0000
1030
0000
0001
0000
1000
0100
0010
0001
0100
0010
1000
0001
,
2000
0000
3000
0001
0020
0000
0030
0100
,
2000
0000
3000
0001
0100
1000
0100
0001
,
0020
0000
1000
0000
0031
0000
1000
0001
,
0200
0000
1300
0100
0001
0010
0100
1000
,
1010
0000
0001
1000
0002
0000
0023
0000
,
0230
0000
0301
0100
1000
0010
0100
0001
,
2000
0000
3100
0100
0010
1000
0010
0001
,
0100
0000
0010
0000
0000
0010
0000
0000
1000
0100
0010
0001
0100
0010
0100
0001
,
2000
0100
3100
1000
0002
0100
0103
0001
,
2000
0000
0010
0000
3010
0000
1000
0000
0001
0000
0010
0100
1000
0000
0001
0000
,
0100
0010
0110
0000
2010
0000
3001
0010
,
1000
0010
0100
1000
0010
0100
0001
0000
,
1000
0000
0100
0000
1000
0010
0000
0010
0200
0000
0000
0302
0000
0000
1003
0000
,
0100
0000
0100
0000
1000
0001
0000
0001
0200
0000
0000
0320
0000
0000
1030
0000
,
0200
0000
0301
0100
1000
0010
0100
0001
,
1000
0000
1100
0000
0000
0110
0000
0000
0001
0000
1000
0010
0100
0000
0001
0000
,
0202
0000
0000
3303
0000
0000
0001
0010
0100
0010
0100
1000
,
0020
0000
0000
0030
0000
0000
1000
0100
0010
0100
0010
0001
,
1000
0000
0001
0100
0001
0100
0020
0000
0000
2030
0000
0000
,
3001
0000
0000
1000
0100
1000
0001
0100
0001
0010
0100
1000
,
0001
0000
0100
0000
0010
0000
1000
0000
0001
0000
1000
0100
0010
0001
1000
0010
,
1000
0000
0100
0000
0010
0000
0001
0000
1000
0000
0001
0100
0010
1000
0001
0100
,
0001
0000
0010
0000
0100
0000
1000
0000
0010
0100
0010
1000
0100
0010
0001
1000
,
0010
0000
0000
0000
,
1001
0000
1000
0000
0020
0000
0031
0000
0020
0000
0130
0001
1000
0000
0001
0010
,
0100
0000
1000
0000
0001
0100
0000
0100
0010
0000
1000
0100
0010
0000
0001
0000
,
1000
0000
0001
0000
0020
0000
1030
0000
0020
0000
0130
1000
0001
0000
1000
0010
,
0100
0000
0001
0000
1000
0100
0000
0100
0010
0000
0001
0100
0010
0000
1000
0000
,
0200
0000
0000
0000
1300
0000
0010
0100
0001
0000
1000
0100
0000
1000
0001
0000
,
0100
0000
0001
0010
0000
0001
1000
0000
0010
0000
0100
0010
0100
0000
0001
0000
,
0020
0000
1030
0010
0100
0010
0001
0200
,
0000
0000
1300
0000
0100
0000
0001
0000
0010
0100
1000
0001
0100
0010
1000
0001
,
2000
0010
0002
3003
,
0001
0100
0001
0100
0010
1000
0010
1000
0100
0010
0001
1000
0010
0000
0000
0000
,
1000
0000
0001
0000
0100
0000
0010
0100
0010
0000
1000
0100
0000
0010
0002
0000
,
0103
0000
0020
0000
1030
0000
0200
0000
0310
0000
0002
0000
1003
0000
0010
0100
,
0020
0000
0000
0000
1030
0000
0001
0000
0010
0000
0001
0100
0000
0100
0010
0000
,
1000
0000
0100
0000
0010
0000
0001
0000
0100
0000
0010
1000
0010
0000
1000
0000
,
0200
0000
0000
0000
0301
0000
0100
0000
0010
0000
0100
0000
1000
0000
0010
0100
,
0002
0000
0000
0000
1303
0000
1000
0000
0001
0010
0100
1000
0001
0100
0010
1000
,
0200
0000
0000
0000
0000
0000
0300
0000
1000
0001
1000
0100
0000
1000
0010
0000
,
0100
0001
0100
0010
0000
1000
0100
0000
0010
0001
0010
0100
0000
1000
0001
0000
,
1000
0000
0010
0100
0000
0100
0001
1000
0001
0100
0010
1000
0100
0010
0001
1000
,
0001
0000
1000
0100
1000
0100
0010
0001
1000
0010
0100
0001
0010
0100
1000
0001
,
0100
0000
0000
0100
0010
1000
0010
1000
0100
0000
0000
0100
0010
0001
0010
0001
,
1000
0000
0000
0000
,
0012
0000
0000
1003
0010
1000
0010
0000
0000
0010
1000
0001
,
1000
0000
0000
0001
0010
0001
1000
0010
1000
0001
0010
0100
,
2000
0000
0000
3001
0100
0001
0100
0000
0000
0100
0001
1000
,
0001
0000
0000
0000
0000
0000
1000
0000
0100
0000
0010
0000
0001
0000
0000
0100
0000
0000
0010
0000
0000
1000
0000
0000
;

//---------------dance-single - ----------------
#NOTEDATA:;
#CHARTNAME:;
#STEPSTYPE:dance-single;
#DESCRIPTION:;
#CHARTSTYLE:;
#DIFFICULTY:Hard;
#METER:13;
#RADARVALUES:0.601120,0.655227,0.251751,0.647360,0.386618,468.000000,440.000000,28.000000,72.000000,0.000000,0.000000,0.000000,0.000000,0.000000,0.601120,0.655227,0.251751,0.647360,0.386618,468.000000,440.000000,28.000000,72.000000,0.000000,0.000000,0.000000,0.000000,0.000000;
#CREDIT:Ben Speirs;
#NOTES:
0000
0000
0000
0000
,
0000
0000
0000
0000
,
0000
0000
0000
0000
,
0000
0000
0000
0000
,
0000
0000
0000
0000
,
0102
0000
0000
1003
0000
1000
0002
0000
0000
0013
0000
0010
,
0230
0000
0000
1300
0001
1000
0002
0000
0000
0103
0000
0000
,
2010
0000
0000
3001
0000
0001
2000
0000
0000
3100
0000
0100
,
0320
0000
0000
0031
1000
0001
2000
0000
0000
3001
0000
0000
,
2010
0000
0000
0000
0100
0000
0000
0000
3001
0000
0000
1000
0001
0000
1000
0000
,
0100
0000
0001
0000
0100
0000
1000
0000
0010
0000
0000
0010
0030
0000
0100
0000
,
0002
0000
0000
0000
0010
0000
0000
0000
1003
0000
0000
0001
1000
0000
0001
0000
,
0010
0000
1000
0000
0010
0000
0001
0000
0100
0000
0000
0100
0300
0000
0010
0000
,
0100
0000
0100
0000
1000
0000
0100
0000
0001
0000
0010
0000
0001
1000
0001
1000
,
0001
0000
0000
0000
0000
0000
0000
0000
0000
0000
0000
0000
0000
0000
1000
0001
,
2000
0000
0000
0000
3100
0000
0000
0000
1100
0000
0000
0001
0100
0000
0020
0000
,
0000
0000
2030
0000
0000
3020
0000
0000
0032
0000
0000
0023
0000
0000
0130
0300
,
0002
0000
0000
0000
0013
0000
0000
0000
0011
0000
0000
1000
0010
0000
0200
0000
,
0000
0301
0100
1000
0100
0001
0010
0100
,
2000
0000
0000
0000
3100
0000
0000
0000
1001
0000
0000
0001
0100
0000
0020
0000
,
0000
0000
0032
0000
0000
0023
0000
0000
2030
0000
0000
3200
0000
0000
0310
0000
,
0002
0000
0000
0000
0103
0000
0000
0000
1001
0000
0000
1000
0100
0000
0010
0000
,
0011
0000
1033
0001
0100
1000
0100
0001
,
2000
0000
3000
0100
0020
0000
0330
0001
,
0200
0000
0330
0010
1000
0001
1000
0010
,
0200
0000
0010
0000
0310
0000
0100
0001
,
2000
0000
3001
0010
1000
0010
0001
0000
,
1000
0010
0100
0001
0020
0000
0230
0000
,
2300
0000
3010
0010
0100
0001
1000
0001
,
0020
0000
0130
0001
0100
0010
0100
1000
,
0020
0000
0130
0001
2000
0000
3001
0010
,
0010
0001
1000
0010
0010
1000
0001
0100
,
0100
0001
1000
0100
0001
0100
1000
0010
,
0100
0000
0101
0000
2010
0000
3001
0010
,
1000
0010
0100
1000
0002
0000
1003
0010
,
0200
0000
0000
0000
0301
0000
0010
0000
0100
0000
0000
0100
0000
0000
0100
0000
,
1000
0000
0000
0000
0001
0000
0100
0000
0010
0000
0000
0010
0000
0000
0010
0000
,
2000
0000
3001
0010
1000
0010
0001
0100
,
0000
0000
0101
0000
0000
0110
0000
0000
2010
0000
0000
0000
3001
0000
0000
0000
,
2002
0000
0000
3003
0000
0000
1000
0100
0010
0001
0000
2000
,
0020
0000
0000
3033
0000
0000
0001
0100
0010
1000
0000
0001
,
0010
0000
0000
0001
1000
0001
2000
0000
0000
3010
0000
0000
,
1010
0000
0000
0001
0100
0001
1000
0100
1000
0001
0000
0000
,
2001
0000
0000
0000
3010
0000
0100
0000
0001
0000
0000
1000
0100
0000
0010
0000
,
0002
0000
0000
0000
0103
0000
0010
0000
1000
0000
0000
0001
0010
0000
0100
0000
,
1000
0000
1000
0000
0001
0000
0001
0000
0100
0010
0100
0000
0010
0100
0010
0000
,
1000
0000
0000
0000
,
0101
0000
0000
0000
0001
0000
1000
0000
1100
0000
0000
1000
0001
0000
0100
0010
,
0100
0000
0010
0000
0001
0000
0010
0000
1000
0000
0000
0001
3010
0000
0100
0000
,
1100
0000
0000
0000
1000
0000
0001
0000
0101
0000
0000
0001
1000
0000
0100
0010
,
0100
0000
0010
0000
1000
0000
0010
0000
0001
0000
0000
1000
0013
0000
0100
0000
,
0002
0000
0000
0000
1003
0000
0100
0000
0010
0000
0000
0010
0000
0000
0001
0000
,
0100
0000
0000
0100
0000
0000
0010
0000
1000
0000
0000
0001
0000
0000
1000
0000
,
0200
0000
0310
0010
0001
0100
0010
1010
,
0000
0000
3101
0000
0000
0000
1000
0000
0100
0000
0010
0000
0001
1000
0001
0000
,
2000
0010
0002
3003
,
3001
0000
0010
0000
0100
0000
1000
0000
0010
0100
0010
0100
0010
0000
0000
0000
,
2001
0000
0000
0000
3100
0000
0010
0000
0100
0000
0000
1000
0010
0000
0200
0000
,
0000
0302
0000
0023
0000
0230
0000
1300
,
0020
0000
0000
0000
0130
0000
0000
0000
0110
0000
0000
0100
0001
0000
0010
0000
,
0200
0000
0000
0000
0310
0000
0000
0000
0110
0000
0000
0100
1000
0000
0001
0000
,
0200
0000
0000
0000
0310
0000
1000
0000
0001
0000
0000
1000
0000
0000
0100
0000
,
0200
0000
0000
0000
0310
0000
0001
0000
1000
0010
1000
0000
0031
0010
0001
0000
,
2002
0000
0000
0000
3003
0000
0000
0000
3001
0000
1000
0100
0000
1000
0100
0000
,
1000
0000
0001
0100
0000
0001
0100
0000
0010
0000
0000
0010
0130
0000
0001
0000
,
1000
0000
0001
0010
0000
0001
0010
0000
0001
0000
1000
0010
0000
1000
0010
0000
,
0200
0000
0000
0302
0000
0000
1003
0000
0100
0000
0001
0000
0100
0000
1000
0000
,
0010
0000
0000
0010
0100
0000
0001
0000
0010
0000
0000
0010
0100
0000
1000
0001
,
1000
0000
0000
0000
,
2001
0000
0000
3001
0100
0001
0200
0000
0000
0301
0010
0100
,
2000
0000
0000
3001
0010
0001
0020
0000
0000
0130
0000
0000
,
1002
0000
0000
1003
0010
1000
0020
0000
0000
1030
0100
0010
,
0002
0000
0000
0000
0000
0000
1003
0000
0001
0000
1000
0000
0001
0000
0000
0100
0000
0000
0310
0000
0000
1000
0000
0000
;

//---------------dance-single - ----------------
#NOTEDATA:;
#CHARTNAME:;
#STEPSTYPE:dance-single;
#DESCRIPTION:;
#CHARTSTYLE:;
#DIFFICULTY:Medium;
#METER:9;
#RADARVALUES:0.448271,0.491420,0.278724,0.728280,0.076424,349.000000,318.000000,31.000000,81.000000,0.000000,0.000000,0.000000,0.000000,0.000000,0.448271,0.491420,0.278724,0.728280,0.076424,349.000000,318.000000,31.000000,81.000000,0.000000,0.000000,0.000000,0.000000,0.000000;
#CREDIT:Ben Speirs;
#NOTES:
0000
0000
0000
0000
,
0000
0000
0000
0000
,
0000
0000
0000
0000
,
0000
0000
0000
0000
,
0000
0000
0000
0000
,
2010
0000
3001
0010
,
0012
0000
1003
0100
,
2100
3001
0101
0110
,
2010
0100
0002
3003
,
0001
0010
0200
0000
1300
0000
1100
0000
,
1000
0001
1000
0001
0200
0000
0310
0000
,
1000
0100
0020
0000
0031
0000
0011
0000
,
0001
1000
0001
1000
0020
0000
0130
0000
,
0001
0100
0001
0100
0010
1000
0010
0000
,
1001
0000
0000
0000
,
2000
0000
0000
0000
3100
0000
0000
0000
0010
0000
0000
0010
0000
0000
0010
0000
,
0000
0001
1000
0000
0020
0000
0130
0000
,
0002
0000
0000
0000
0013
0000
0000
0000
0100
0000
0000
0100
0000
0000
0100
0000
,
0000
0000
1000
0000
0002
0000
0000
0003
1000
0000
0010
0000
0100
0000
0000
0000
,
0102
0000
0000
0000
1003
0000
0000
0000
0010
0000
0000
0010
0000
0000
0010
0000
,
0000
1000
0001
0000
1000
0100
1000
0000
,
2100
0000
0000
0000
3001
0000
0000
0000
0010
0000
0000
0010
0000
0000
0010
0000
,
0002
0000
2003
0000
3010
0100
0001
1000
,
0002
0000
0003
0001
0200
0000
0300
0100
,
0020
0000
0030
0010
2000
0000
3002
0000
,
0013
0000
0011
0000
0011
0000
0001
1000
,
0020
0000
0130
0001
2000
0000
3100
0000
,
1001
0000
0001
0010
0200
0000
2300
0000
,
3020
0000
0130
0000
0002
0000
1003
0100
,
2000
0000
3001
0100
0000
0100
0001
1000
,
0200
0320
0031
0000
,
2100
0000
3310
0100
0002
0000
0013
0100
,
2000
0000
3010
0100
0010
0100
0031
0000
,
1000
0000
1100
0000
1100
0000
0001
0100
,
0001
0100
0010
1000
0002
0000
0013
0000
,
0022
0000
0030
0000
1003
0000
0001
0100
,
0020
1030
0001
2000
,
3230
0000
0310
0001
1000
0000
0001
0100
,
0010
0000
1000
0000
0000
1000
0000
0000
0002
0000
0000
0000
0013
0000
0000
0000
,
2002
0000
0000
3003
0000
0000
0001
0000
0001
0100
0000
0000
,
0202
0000
0000
0303
0000
0000
1000
0000
1000
0010
0000
0000
,
2000
0100
3002
0100
,
1003
0000
1000
0100
0000
0100
0020
0000
0000
0032
0000
0000
,
1003
0000
0000
0000
1000
0000
0000
0000
0010
0000
0000
0010
0000
0000
0010
0000
,
0100
0000
0000
0000
0100
0000
0000
0000
0001
0000
0000
0001
0000
0000
0001
0000
,
2000
0000
3100
0020
0000
0031
0100
0000
,
1001
0000
0000
0000
,
0101
0000
0101
0000
0101
0000
0000
1000
,
0100
1000
0001
0010
0200
0000
2300
0000
,
3010
0000
1010
0000
1010
0000
0000
0001
,
0100
0001
1000
0100
0020
0000
0031
0000
,
0022
0000
0000
0000
0033
0000
1000
0000
0010
0000
0000
0010
0030
0000
0100
0000
,
0002
0000
0000
0000
0003
0000
1000
0000
0100
0000
0000
0100
0000
0000
0010
0000
,
0002
0000
0103
0000
0001
0100
0010
0000
,
1000
0100
0010
0000
0001
1000
0010
0000
,
2010
0010
0002
3003
,
1000
0001
1000
0001
1000
0001
0100
0000
,
0002
0000
0010
0000
2003
0000
3010
0200
,
0000
0302
0000
2003
0000
3200
0000
0310
,
0002
0000
0000
0000
1003
0000
0001
0100
,
0020
0000
1030
0000
1010
0000
0001
1000
,
0002
0000
1003
0100
0010
0100
0010
0001
,
2000
0010
0002
3003
,
0020
0030
1001
1100
,
1000
0000
0000
1000
0000
0000
1000
0000
0020
0000
0000
0000
0230
0000
0000
0000
,
0301
0000
0000
0001
0000
0000
0001
0000
0020
0000
0000
0000
0130
0000
1000
0000
,
0010
0000
0000
0010
0000
0000
0010
0000
0100
0000
0001
0000
1000
0000
0001
0000
,
0020
0000
0230
0000
1300
0010
0100
0001
,
1000
0000
0000
0000
,
0002
0010
1003
0000
,
2000
0010
3001
0000
,
0002
0100
1003
0000
,
2000
0000
0100
0000
3001
0010
0100
1000
;

//---------------dance-single - ----------------
#NOTEDATA:;
#CHARTNAME:;
#STEPSTYPE:dance-single;
#DESCRIPTION:;
#CHARTSTYLE:;
#DIFFICULTY:Easy;
#METER:5;
#RADARVALUES:0.267164,0.360375,0.179822,0.332671,0.000000,208.000000,188.000000,20.000000,37.000000,0.000000,0.000000,0.000000,0.000000,0.000000,0.267164,0.360375,0.179822,0.332671,0.000000,208.000000,188.000000,20.000000,37.000000,0.000000,0.000000,0.000000,0.000000,0.000000;
#CREDIT:Ben Speirs;
#NOTES:
0000
0000
0000
0000
,
0000
0000
0000
0000
,
0000
0000
0000
0000
,
0000
0000
0000
0000
,
0000
0000
0000
0000
,
2002
3003
0001
0010
,
0200
0300
1000
0010
,
0200
0300
0010
0010
,
2000
0000
0002
3003
,
1001
1001
1001
0000
,
0001
0010
0100
0000
,
0110
0110
0110
0000
,
0010
0001
1000
0000
,
0010
0010
0100
0100
,
1001
0000
0000
0000
,
0002
0013
0100
0100
,
1000
0001
0100
0000
,
0001
0001
0100
0100
,
0010
1000
0001
0000
,
2000
3100
0010
0010
,
0001
1000
0010
0000
,
1000
1000
0010
0010
,
0200
0000
0000
0300
,
0002
0003
0020
0030
,
0200
0300
1000
0001
,
0100
0100
0100
0000
,
0010
0010
0010
0000
,
2000
0000
3000
0000
,
0100
0100
0010
0000
,
0001
1000
0010
0100
,
0010
0010
1000
0000
,
0002
0003
2000
3000
,
0200
0300
1000
0001
,
0100
0100
0100
0010
,
1000
1000
1000
0000
,
0002
0003
1000
0000
,
2000
3000
0100
0000
,
1000
0100
0010
0001
,
0100
0010
0100
0000
,
2002
0000
3003
0000
,
0220
0000
0330
0000
,
2000
3000
0200
0300
,
0010
0001
1000
0000
,
0001
0100
0010
0000
,
1000
0100
0010
0000
,
0001
1000
0010
0100
,
0001
0000
0000
0000
,
1001
1001
1001
0000
,
1000
0100
0010
0000
,
0110
0110
0110
0000
,
0010
0001
1000
0000
,
0001
0100
0010
1000
,
0100
0010
0001
0000
,
1000
0010
0100
0001
,
0010
0100
1000
0000
,
0010
0010
0010
0000
,
2002
0000
0000
3003
,
1000
0100
0010
0001
,
1000
0010
0100
0001
,
0020
0000
0030
0010
,
0200
0000
0300
0100
,
1000
1000
0001
0001
,
0200
0000
0000
0300
,
2002
3003
0001
1000
,
0010
0100
0001
0000
,
1000
0100
0010
0001
,
0100
0010
1000
0000
,
0010
0010
0100
0100
,
1001
0000
0000
0000
,
2000
0000
3000
0000
,
0200
0000
0300
0000
,
0020
0000
0030
0000
,
0002
0000
0003
0000
1000
0000
2002
3003
;

//---------------dance-single - ----------------
#NOTEDATA:;
#CHARTNAME:;
#STEPSTYPE:dance-single;
#DESCRIPTION:;
#CHARTSTYLE:;
#DIFFICULTY:Beginner;
#METER:2;
#RADARVALUES:0.119453,0.196231,0.026973,0.062938,0.000000,93.000000,90.000000,3.000000,7.000000,0.000000,0.000000,0.000000,0.000000,0.000000,0.119453,0.196231,0.026973,0.062938,0.000000,93.000000,90.000000,3.000000,7.000000,0.000000,0.000000,0.000000,0.000000,0.000000;
#CREDIT:Ben Speirs;
#NOTES:
0000
0000
0000
0000
,
0000
0000
0000
0000
,
0000
0000
0000
0000
,
0000
0000
0000
0000
,
0000
0000
0000
0000
,
1000
0000
0000
0000
,
0010
0000
0000
0000
,
0100
0000
0000
0000
,
0001
0000
0000
0000
,
1000
1000
1000
0000
,
1000
0000
0000
0000
,
0100
0100
0100
0000
,
0100
0000
0000
0000
,
0010
0000
0010
0000
,
0010
0000
0000
0000
,
1001
0000
0000
0000
,
0001
0000
0001
0000
,
0001
0000
0000
0000
,
0100
0000
0100
0000
,
0100
0000
0000
0000
,
0010
0000
0010
0000
,
0010
0000
0000
0000
,
1000
0000
0000
0000
,
0001
0000
0000
0000
,
0001
0000
0000
0000
,
0010
0000
0010
0000
,
0010
0000
0000
0000
,
0100
0000
0000
0000
,
1000
0000
0000
0000
,
0010
0000
0010
0000
,
0010
0000
0000
0000
,
1001
0000
0000
0000
,
1000
0000
0000
0000
,
0100
0000
0100
0000
,
0100
0000
0000
0000
,
0010
0000
0000
0000
,
0010
0000
0000
0000
,
0001
0000
0001
0000
,
0001
0000
0000
0000
,
2000
0000
3000
0000
,
0020
0000
0030
0000
,
0200
0000
0300
0000
,
0002
0000
0003
0000
,
1000
0000
1000
0000
,
1000
0000
0000
0000
,
0100
0000
0100
0000
,
0100
0000
0000
0000
,
0010
0010
0010
0000
,
0000
0000
0000
0000
,
0010
0010
0010
0000
,
0000
0000
0000
0000
,
0001
0000
0001
0000
,
0001
0000
0000
0000
,
1000
0000
1000
0000
,
1000
0000
0000
0000
,
0010
0000
0000
0000
,
0000
0000
0000
0000
,
0100
0100
0100
0000
,
0000
0000
0000
0000
,
0001
0000
0000
0000
,
0001
0000
0000
0000
,
0010
0000
0010
0000
,
0010
0000
0000
0000
,
0000
0000
1000
0000
,
1000
0000
0000
0000
,
0001
0000
0001
0000
,
0001
0000
0000
0000
,
0100
0100
0100
0000
,
0100
0000
0000
0000
,
2002
0000
0000
0000
,
0000
0000
3003
0000
,
0020
0000
0000
0000
,
0030
0000
1000
1000
;

//---------------dance-double - ----------------
#NOTEDATA:;
#CHARTNAME:;
#STEPSTYPE:dance-double;
#DESCRIPTION:;
#CHARTSTYLE:;
#DIFFICULTY:Challenge;
#METER:15;
#RADARVALUES:0.751400,0.982841,0.206795,0.512493,0.714793,585.000000,562.000000,23.000000,57.000000,0.000000,0.000000,0.000000,0.000000,0.000000,0.751400,0.982841,0.206795,0.512493,0.714793,585.000000,562.000000,23.000000,57.000000,0.000000,0.000000,0.000000,0.000000,0.000000;
#CREDIT:Ben Speirs;
#NOTES:
00000000
00000000
00000000
00000000
,
00000000
00000000
00000000
00000000
,
00000000
00000000
00000000
00000000
,
00000000
00000000
00000000
00000000
,
00000000
00000000
00000000
00000000
,
00001002
00000000
00000000
00000103
00000010
00000100
00000020
00000000
00000000
00001030
00000001
00001000
,
00000200
00000000
00000000
00010300
00000000
00000000
00010100
00000000
00010000
00001000
00010000
00001000
,
02000000
00000000
00000000
03010000
10000000
00010000
20000000
00000000
00000000
30310000
00100000
00010000
,
02000000
00000000
00000000
03100000
00000000
00000000
10000000
00100000
10000000
00010000
00100000
00010000
,
20000000
00000000
00000000
00000000
30010000
00000000
01000000
00000000
10000000
00000000
00000000
01000000
00100000
00000000
01000000
00000000
,
00010000
00000000
00100000
00000000
00001000
00000000
00010000
00000000
00000100
00000000
00001000
00000010
00001000
00000000
00000001
00000000
,
00000102
00000000
00000000
00000000
00001003
00000000
00000010
00000000
00000001
00000000
00000000
00000010
00000100
00000000
00000010
00000000
,
00001000
00000000
00000100
00000000
00010000
00000000
00001000
00000000
00100000
00000000
00010000
01000000
00010000
00000000
10000000
00010000
,
10000000
00000000
01000000
00000000
00100000
00000000
00010000
00000000
01000000
00001000
01000000
00001000
00010000
00000100
00010000
00000100
,
00001000
00000000
00000000
00000000
00000000
00000000
00000000
00000000
00000000
00000000
00000000
00000000
00000000
00000000
00000001
00001000
,
00000002
00000000
00000000
00000000
00000103
00000000
00000000
00000000
00000101
00000000
00000000
00001000
00000001
00000000
00000010
00000000
,
00000100
00000000
00000001
00000000
00000100
00010000
00000000
00010000
00001000
00000000
00100000
00010000
10000000
00000000
00100000
00000000
,
20100000
00000000
00000000
00000000
31000000
00000000
00000000
00000000
10010000
00000000
00000000
00010000
10000000
00000000
01000000
00000000
,
00100000
00000000
10000000
00000000
00100000
00000000
00001000
00000000
00010000
00000000
00000010
00001000
00000001
00000000
00000010
00000000
,
00000011
00000000
00000000
00000000
00001001
00000000
00000000
00000000
00001100
00000000
00000001
00000100
00000010
00000000
00002000
00000000
,
00000000
00000000
00003100
00000000
00010000
00001000
00000000
00001000
00010000
00000000
00001000
01000000
00100000
00000000
10000000
00000000
,
11000000
00000000
00000000
00000000
10010000
00000000
00000000
00000000
00110000
00000000
10000000
00100000
01000000
00000000
00010000
00000000
,
00200000
00000000
00000000
00000000
00301000
00000000
00010000
00000000
00000010
00001000
00000100
00000010
00000001
00000100
00000010
00001000
,
00000002
00000000
00000003
00000100
00000020
00000000
00000030
00001000
,
00000200
00000000
00000300
00010000
00001000
00010000
00100000
10000000
,
02000000
00000000
00010000
00000000
13000000
00000000
00010000
10000000
,
00200000
00000000
00310000
00001000
00000100
00000010
00001000
00000001
,
00000011
00000000
00001000
00000001
00000200
00000000
00000320
00000000
,
00020030
00000000
00031000
00001000
00100000
00010000
01000000
00100000
,
20000000
00000000
31000000
01000000
00010000
01000000
10000000
00100000
,
01000000
00000000
00020000
00000000
00000000
20030000
00000000
00000000
30010000
01000000
00100000
10000000
01000000
00100000
00010000
01000000
,
00002000
00100000
00013000
00001000
00020000
00000010
00031000
00010000
,
00002000
00000000
00100000
00000000
00013000
00000000
00001000
00000000
00010000
00000000
00000010
00001000
00000010
00000000
00000100
00000000
,
00000001
00000000
00000010
00000000
00000011
00000000
00000000
00000000
00001100
00000000
00000000
00000001
00000100
00000000
00000010
00000000
,
00001000
00000000
00000100
00000000
00000001
00000000
00000100
00000000
00001000
00000000
00000100
00010000
00001000
00000000
00100000
00000000
,
00120000
00000000
00000000
00000000
10030000
00000000
00100000
00000000
02000000
00000000
00000000
03020000
00000000
00000000
10030000
00000000
,
01000000
00000000
00010000
00000000
01000000
00000000
00100000
00000000
00010000
00000000
01000000
00001000
00000000
00010000
00000010
00000000
,
00000200
00000000
00001300
00001000
00000100
00000001
00000010
00000100
,
00010000
00000000
00010100
00000000
00000000
00011000
00000000
00000000
00100000
00000000
00010000
01000000
00100000
00000000
10000000
00000000
,
20200000
00000000
00000000
30300000
00000000
00000000
10000000
01000000
00100000
01000000
00100000
00001000
,
00020000
00000000
00000000
00030000
00000000
00000000
00000010
00001000
00000100
00001000
00000100
00000010
,
00000001
00000000
00001000
00000010
00001000
00000010
00020000
00000000
00000000
00031000
00000000
00000000
,
00201000
00000000
00000000
00301000
01000000
00001000
00010000
00000010
00010000
00001000
01000000
00100000
,
10000000
00000000
00100000
00000000
00010000
00000000
00100000
00000000
10000000
00000000
00010000
00100000
00010000
10000000
01000000
00100000
,
00001000
00000000
00010000
00000000
00000010
00000000
00000100
00000000
00000001
00000000
00001000
00000010
00001000
00000001
00000100
00000010
,
00010000
00000000
00010000
00000000
00001000
00000000
00001000
00000000
00100000
00010000
10000000
00100000
01000000
00010000
00100000
00001000
,
00010000
00000000
00000000
00000000
,
00010100
00000000
00000100
00000000
00000020
00000000
00001030
00000000
00000020
00000000
00000031
00000100
00000010
00000000
00001000
00000001
,
00001000
00000000
00000010
00000000
00010000
00000000
00000100
00000000
00010000
00000000
00001000
00100000
00010000
00000000
00100000
00001000
,
01000000
00000000
01000000
00000000
00200000
00000000
00310000
00000000
00200000
00000000
10300000
01000000
00100000
00000000
00010000
10000000
,
00010000
00000000
01000000
00000000
00001000
00000000
00100000
00000000
00001000
00000000
00010000
00000010
00000100
00000000
00000001
00001000
,
00000002
00000000
00000000
00000000
00001003
00000000
00000010
00000000
00010000
00000000
00000100
00010000
00000000
00010000
00001000
00000000
,
00100000
00000000
00010000
01000000
00000000
01000000
00100000
00000000
10000000
00000000
00010000
10000000
00010000
00000000
00100000
01000000
,
20000000
00000000
30100000
00010000
00100000
10000000
01000000
00200000
,
00000000
00000000
00302000
00000000
00000000
00000000
00013000
00000000
00000010
00001000
00000100
00000010
00000001
00000100
00000010
00001000
,
00000200
00001000
00020000
00030300
,
00010000
00001000
00010000
00001000
00010000
00001000
00010000
00001000
00100000
00010000
01000000
00100000
10000000
00000000
00000000
00000000
,
01010000
00000000
00010000
00000000
20000000
00000000
31000000
00000000
00020000
00000000
01030000
00100000
01000000
00000000
00200000
00000000
,
00000000
00000000
00301000
00000000
00010000
00000000
00002000
00000000
00000000
00000000
00013000
00000000
00000010
00000000
00000100
00000001
,
00000100
00000000
00000000
00000001
00000010
00000000
00000100
00000000
00001000
00000000
00000010
00000000
00010000
00000000
00001000
00000000
,
00200000
00000000
00000000
00000000
00310000
00000000
10000000
00000000
00100000
00000000
01000000
00100000
01000000
00000000
00010000
00100000
,
02000000
00000000
00000000
00000000
03010000
00000000
01000000
00000000
20000000
00000000
00000000
30200000
00000000
00000000
00310000
00000000
,
00002000
00000000
00000000
00000000
00013000
00000000
00010000
00000000
00000100
00001000
00000010
00000100
00000001
00000010
00000100
00001000
,
00000020
00000000
00000000
00000000
00000030
00000000
00000000
00000000
00001000
00000010
00001000
00000100
00000000
00010000
00001000
00000000
,
00100000
00010000
00100000
00001000
00000000
01000000
00010000
00000000
10000000
01000000
10000000
00010000
00000000
01000000
00100000
00000000
,
10000000
00000000
00010000
01000000
00000000
01000000
00010000
10000000
00010000
00100000
00001000
00010000
00001000
00010000
00000100
00001000
,
00000010
00000000
00001000
00000001
00001000
00000001
00000100
00000010
00001000
00000100
00000010
00000001
00000100
00000010
00001000
00000100
,
00010000
00000000
00000000
00010000
00001000
00100000
00010000
00100000
00001000
00000000
00000000
00001000
00010000
00000010
00001000
00000010
,
00010000
00000000
00000000
00000000
,
00012000
00000000
00000000
00103000
00010000
00100000
00010000
00000000
00000000
00010000
10000000
00100000
,
01000000
00000000
00000000
00100000
01000000
00100000
10000000
01000000
00100000
00010000
01000000
00001000
,
00020000
00000000
00000000
00030010
00001000
00000010
00001000
00000000
00000000
00001000
00000001
00000010
,
00000100
00000000
00000000
00000000
00000000
00000000
00000010
00000000
00000100
00000000
00000010
00000000
00000001
00000000
00000000
00000100
00000000
00000000
00001000
00000000
00000000
00010000
00000000
00000000
;

//---------------dance-double - ----------------
#NOTEDATA:;
#CHARTNAME:;
#STEPSTYPE:dance-double;
#DESCRIPTION:;
#CHARTSTYLE:;
#DIFFICULTY:Hard;
#METER:13;
#RADARVALUES:0.593413,0.622466,0.206795,0.692315,0.364140,462.000000,439.000000,23.000000,77.000000,0.000000,0.000000,0.000000,0.000000,0.000000,0.593413,0.622466,0.206795,0.692315,0.364140,462.000000,439.000000,23.000000,77.000000,0.000000,0.000000,0.000000,0.000000,0.000000;
#CREDIT:Ben Speirs;
#NOTES:
00000000
00000000
00000000
00000000
,
00000000
00000000
00000000
00000000
,
00000000
00000000
00000000
00000000
,
00000000
00000000
00000000
00000000
,
00000000
00000000
00000000
00000000
,
10010000
00000000
00000000
10000000
00000000
10000000
02000000
00000000
00000000
03100000
00010000
00100000
,
00020000
01030000
01001000
00011000
,
00010020
00000000
00000000
00001030
00000000
00001000
00000200
00000000
00000000
00000310
00000001
00000010
,
00000002
00000000
00000000
00001003
00000000
00000000
00000001
00000100
00000001
00001000
00000010
00001000
,
00000001
00000010
00000200
00003000
00000302
00000000
00000103
00001000
,
00000010
00000000
00000010
00000000
00010000
00000000
00010000
00000000
00001000
00000000
00000000
00100000
00010000
00000000
10000000
00000000
,
02000000
00000000
03200000
00030000
20300000
00000000
30100000
00010000
,
01000000
00000000
01000000
00000000
00001000
00000000
00001000
00000000
00010000
00000000
00000000
00000010
00002000
00000000
00000000
00000000
,
00003001
00000000
00000010
00000000
00000001
00000000
00000010
00000000
00000100
00000000
00010000
00000000
00001000
00010000
00001000
00010000
,
00001000
00000000
00000000
00000000
00000000
00000000
00000000
00000000
00000000
00000000
00000000
00000000
00000000
00000000
00010000
00001000
,
00020000
00000000
00230000
00000000
10300000
00010000
10000000
02000000
,
00000000
00000000
03200000
00000000
00000000
20300000
00000000
00000000
30200000
00000000
00000000
00320000
00000000
00000000
01030000
00000000
,
00002000
00000000
00023000
00000000
00030010
00001000
00000001
00002000
,
00000000
00003100
00000001
00000100
00001000
00000010
00010000
00000000
,
00012000
00000000
00003200
00000000
00000301
00001000
00000001
00000020
,
00000000
00000000
00000230
00000000
00000000
00000302
00000000
00000000
00000203
00000000
00000000
00002300
00000000
00000000
00003010
00000000
,
00020000
00000000
00032000
00000000
01003000
00010000
10000000
00010000
,
00200000
00000000
01300000
01000000
10000000
00100000
00010000
00001000
,
00000200
00000000
00000300
00000001
00000020
00000000
00000030
00000100
,
00020000
00000000
00030000
00001000
00010000
00001000
00100000
00010000
,
02000000
00000000
00100000
00000000
03100000
00000000
01000000
00010000
,
00200000
00000000
01300000
00010000
01000000
10000000
00100000
01000000
,
00020000
00000000
01033000
00001000
02000000
00000000
03302000
00000000
,
00023000
00000000
00030100
00000100
00000010
00000001
00000100
00000010
,
00002000
00000000
00003010
00000100
00001000
00000100
00000010
00001000
,
00000001
00000000
00000010
00000000
00000000
00000010
00000000
00000000
00000100
00000000
00000000
00000000
00001100
00000000
00000000
00000000
,
00001001
00000001
00000100
00000010
00000010
00001000
00000100
00010000
,
00010000
00001000
00100000
00010000
01000000
10000000
01000000
00010000
,
20000000
00000000
00000000
00000000
01000000
00000000
00000000
00000000
30010000
00000000
00000000
10000000
00010000
00000000
01000000
00000000
,
00100000
00010000
00100000
10000000
01000000
00100000
00002000
00000000
,
00013000
00000000
00000000
00000000
00001000
00000000
00010000
00000000
00000010
00000000
00000000
00000010
00000000
00000000
00000100
00000000
,
00000002
00000000
00001003
00000100
00000010
00000001
00000200
00000000
,
00000320
00000000
00000031
00000001
00000010
00001000
00000100
00010000
,
00000000
00000000
00010100
00000000
00000000
00011000
00000000
00000000
00201000
00000000
00000000
00000000
00310000
00000000
10000000
00000000
,
20020000
00000000
00000000
30030000
00000000
00000000
10000000
00100000
10000000
00010000
00000000
00100000
,
00002000
00000000
00000000
00003000
00000000
00000000
00010000
00000010
00010000
00000100
00000000
00001000
,
00000010
00000000
00000010
00000100
00000000
00000001
00000010
00000000
00000010
00000100
00000000
00010000
,
00002000
00000000
00000000
00103000
00010000
00100000
00001000
00010000
00000010
00010000
00000000
00000000
,
00012000
00000000
00000000
00000000
00103000
00000000
00010000
00000000
01000000
00000000
00000000
01000000
00100000
00000000
10000000
00000000
,
02000000
00000000
00000000
00000000
03100000
00000000
00001000
00000000
00010000
00000000
00000000
00010000
00000010
00000000
00000100
00000000
,
00000001
00000000
00000001
00000000
00001000
00000000
00001000
00000000
00000001
00000000
00000010
00000000
00001000
00000000
00010000
00001000
,
00010000
00000000
00000000
00000000
,
00011000
00000000
00000000
00000000
00101000
00000000
00000000
00000000
00010010
00000000
00000000
00010000
00001000
00000000
00100000
00010000
,
00100000
00010000
10000000
00100000
02000000
00000000
03001000
00010000
,
00011000
00000000
00000000
00000000
00010100
00000000
00000000
00000000
01001000
00000000
00000000
00001000
00010000
00000000
00000100
00001000
,
00000100
00000000
00001000
00000000
00000001
00000000
00000100
00000000
00000010
00000000
00000000
00001000
00000001
00000000
00001000
00000000
,
00000200
00003000
00000000
00000000
00000310
00000000
00000001
00000000
00000100
00000000
00000000
00000100
00000000
00000000
00000010
00000000
,
00001000
00000000
00000000
00001000
00000000
00000000
00000100
00000000
00010000
00000000
00000000
00010000
00000000
00000000
00001000
00000000
,
02000000
00000000
03100000
00100000
00010000
00100000
10000000
02000000
,
00000000
03200000
00000000
00310000
10000000
00010000
01000000
00100000
,
00020000
00000010
00002000
00033000
,
00010000
00000000
00001000
00000000
00010000
00000000
00000010
00000000
00010000
00001000
00010000
00001000
00010000
00000000
00000000
00000000
,
00010100
00000000
00000000
00000000
00001100
00000000
00000000
00000000
00001001
00000000
00000000
00000001
00000100
00000000
00000020
00000000
,
00000000
00000032
00000000
00000023
00000000
00001030
00000100
00010000
,
00002000
00000000
01000000
00000000
00103000
00000000
00100000
00010000
,
02000000
00000000
00000000
00000000
03100000
00000000
00000000
00000000
01100000
00000000
00000000
10000000
00010000
00000000
10000000
00000000
,
02000000
00000000
03100000
00100000
10000000
00100000
00010000
01000000
,
00002000
00000000
00000000
00000000
00013000
00000000
00010000
00000000
00000010
00000000
00000100
00000300
00000001
00001000
00000001
00000000
,
00000200
00000000
00000000
00000000
00000300
00000000
00000000
00000000
00000001
00000000
00001000
00000100
00000000
00001000
00000100
00000000
,
00010000
00000000
00001000
01000000
00000000
00001000
01000000
00000000
00200000
00000000
00000000
00000000
10300000
00000000
01000000
00000000
,
10000000
00000000
00010000
00100000
00000000
00010000
00100000
00000000
00001000
00000000
01000000
00010000
00000000
01000000
00010000
00000000
,
00200000
00000000
00000000
00302000
00000000
00000000
00013000
00000000
00000010
00000000
00000100
00000000
00000001
00000000
00000010
00000000
,
00000100
00000000
00000000
00000100
00001000
00000000
00000010
00000000
00000100
00000000
00000000
00000100
00000001
00000000
00001000
00000001
,
00001000
00000000
00000000
00000000
,
00000102
00000000
00000000
00001003
00000100
00001000
00000200
00000000
00000000
00010300
00001000
00010000
,
00002000
00000000
00000000
01003000
00000000
00000000
00001000
00100000
00010000
00100000
00001000
00100000
,
00020000
00000000
00000000
10030000
00100000
10000000
00200000
00000000
00000000
01300000
00001000
01000000
,
00002000
00000000
00000000
00000000
00000000
00000000
00013000
00000000
00000100
00000000
00010000
00000000
00001000
00000000
00000000
00000100
00000000
00000000
00000001
00000000
00000000
00001000
00000000
00000000
;

//---------------dance-double - ----------------
#NOTEDATA:;
#CHARTNAME:;
#STEPSTYPE:dance-double;
#DESCRIPTION:;
#CHARTSTYLE:;
#DIFFICULTY:Medium;
#METER:9;
#RADARVALUES:0.449555,0.491420,0.278724,1.007004,0.062938,350.000000,319.000000,31.000000,112.000000,0.000000,0.000000,0.000000,0.000000,0.000000,0.449555,0.491420,0.278724,1.007004,0.062938,350.000000,319.000000,31.000000,112.000000,0.000000,0.000000,0.000000,0.000000,0.000000;
#CREDIT:Ben Speirs;
#NOTES:
// measure 0
00000000
00000000
00000000
00000000
,  // measure 1
00000000
00000000
00000000
00000000
,  // measure 2
00000000
00000000
00000000
00000000
,  // measure 3
00000000
00000000
00000000
00000000
,  // measure 4
00000000
00000000
00000000
00000000
,  // measure 5
00022000
00000000
00000000
00033000
00000000
00000000
00020000
00000000
00000000
00030020
00000000
00000030
,  // measure 6
00000200
00000000
00000000
00000301
00000000
00001000
00000002
00000000
00000000
00000023
00000000
00000000
,  // measure 7
00000230
00000010
00002300
00003020
,  // measure 8
00020030
00001000
00002000
00033000
,  // measure 9
00101000
00110000
20020000
30030000
,  // measure 10
10000000
00100000
01000000
00000000
00010000
00100000
00001000
00010000
,  // measure 11
00001000
00000000
00010010
00000000
00002002
00000300
00003003
00000000
,  // measure 12
00000001
00000010
00000100
00001000
00000020
00000000
00000130
00000000
,  // measure 13
00000010
00001000
00000010
00001000
00000100
00010000
00000100
00010000
,  // measure 14
00001000
00000000
00000000
00000000
,  // measure 15
00012000
00000000
00203000
00000000
00320000
00000000
10030000
00200000
,  // measure 16
00000000
01300000
01000000
00000000
00010000
00100000
00001000
00000000
,  // measure 17
00021000
00000000
00030020
00000000
00002030
00000000
00003001
00000020
,  // measure 18
00000000
00000130
00000100
00000000
00001000
00000001
00001000
00000010
,  // measure 19
00020000
00000000
00032000
00000000
02003000
00000000
03100000
00200000
,  // measure 20
00000000
10300000
01000000
00100000
00020000
00000000
01030000
00000000
,  // measure 21
00002000
00000000
00023000
00000000
00030200
00000000
00000310
00000001
,  // measure 22
00000200
00000000
00000000
00000000
00000301
00000010
00000100
00001000
,  // measure 23
00000020
00000000
00000030
00010000
00002000
00000000
00003000
00100000
,  // measure 24
00020000
00000000
00030000
10000000
00200000
00000000
01300000
00010000
,  // measure 25
20000000
00000000
01000000
00000000
31000000
00000000
10000000
00010000
,  // measure 26
02000000
00000000
03001000
00010000
00002000
00000000
00013000
00000100
,  // measure 27
00000020
00000031
00002000
00003002
,  // measure 28
00000203
00000000
00000310
00001000
00000000
00000001
00000010
00000100
,  // measure 29
00020000
00000000
00031000
00200000
00000000
00320000
00000000
02030000
,  // measure 30
00000000
00000000
03100000
00000000
10100000
00000000
00010000
00100000
,  // measure 31
00200000
00000000
00301000
00010000
00020000
00000000
00030010
00001000
,  // measure 32
00002000
00000000
00003001
00000010
00000100
00001000
00000010
00000000
,  // measure 33
00001001
00000000
00000101
00000000
00002001
00000000
00003100
00010000
,  // measure 34
00002000
00000000
01003000
00100000
02000000
00000000
03010000
00000000
,  // measure 35
20020000
30030000
20000000
32000000
,  // measure 36
03200000
00000000
00310000
10000000
00100000
00000000
01000000
00000000
,  // measure 37
01010000
00000000
10000000
01000000
00000000
01000000
00200000
00000000
,  // measure 38
00301000
00010000
00003000
00001000
00010000
00000000
00011000
00000000
,  // measure 39
00000020
00000000
00000030
00011000
,  // measure 40
00200000
00000000
00000000
00000000
00000000
00000000
00300000
00000000
00000000
00011000
00000000
00100000
,  // measure 41
00002000
00000000
00000000
00013000
00000000
00000010
00020000
00000000
00000000
00031000
00000000
01000000
,  // measure 42
00020000
00230000
02300000
13000000
,  // measure 43
10200000
00000000
01300000
00010000
00200000
00000000
00301000
00010000
,  // measure 44
00002000
00000000
00013000
00000010
00000200
00000000
00000301
00001000
,  // measure 45
00000010
00000100
00000010
00000100
00000001
00000010
00000100
00010000
,  // measure 46
00001000
00000000
00000000
00000000
,  // measure 47
00011000
00000000
00101000
00000000
00220000
00000000
00330000
10000000
,  // measure 48
00010000
10000000
00100000
01000000
00002000
00000000
00013000
00000000
,  // measure 49
00011000
00000000
00010010
00000000
00002020
00000000
00003030
00000001
,  // measure 50
00001000
00000001
00000010
00000100
00020000
00000000
00031000
00000000
,  // measure 51
00201000
00000000
00310000
01000000
00200000
00000000
10300000
01000000
,  // measure 52
00200000
00000000
00310000
10000000
00020000
00000000
00130000
00000000
,  // measure 53
00210000
00000000
00301000
00020000
00000000
00030020
00000000
00000230
,  // measure 54
00000000
00000302
00000000
00001003
00000100
00000010
00000001
00000000
,  // measure 55
00002000
00000010
00000002
00003003
,  // measure 56
00001000
00000100
00001000
00000100
00020000
00000000
00031000
00000000
,  // measure 57
00011000
00000000
01001000
00000000
00011000
00000000
00010000
00002000
,  // measure 58
00000000
00203000
00000000
00320000
00000000
02030000
00000000
03100000
,  // measure 59
20000000
00000000
00100000
00000000
30100000
00000000
10000000
01000000
,  // measure 60
00200000
00000000
00001000
00000000
00301000
00000000
00100000
00001000
,  // measure 61
00020000
00000000
00000000
00000000
00030010
00000000
00000100
00000000
00000001
00000000
00000000
00001000
00000000
00000000
00000001
00000000
,  // measure 62
00000020
00000000
00000000
00000030
,  // measure 63
00002002
00000000
00000000
00000000
00003003
00000000
00000000
00000000
00001000
00000000
00000000
00001000
00000000
00000000
00000100
00000000
,  // measure 64
00010000
00000000
00000000
00010000
00000000
00000000
00001000
00000000
01000000
00000000
00000000
00000000
00100000
00000000
00000000
00000000
,  // measure 65
10000000
00000000
00000000
10000000
00000000
00000000
01000000
00000000
00100000
00000000
00000000
00100000
00000000
00000000
00010000
00000000
,  // measure 66
02000000
00000000
03002000
00000000
00013000
00000100
00010000
00000100
,  // measure 67
00002000
00003020
00000230
00000302
,  // measure 68
00001003
00000000
00000000
00000000
,  // measure 69
00002002
00000000
00000000
00003003
00000000
00000000
00001003
00000000
00000000
00000100
00000000
00010000
,  // measure 70
00002000
00000000
00000000
00003000
00000000
00000000
01000000
00000000
00000000
00010000
00000000
10000000
,  // measure 71
00200000
30000000
00000000
00300000
00000000
00000000
10000000
00000000
00000000
01000000
00000000
00100000
,  // measure 72
00002000
00000000
00023000
00000000
00030100
00010000
00001000
01000000
;

//---------------dance-double - ----------------
#NOTEDATA:;
#CHARTNAME:;
#STEPSTYPE:dance-double;
#DESCRIPTION:;
#CHARTSTYLE:;
#DIFFICULTY:Easy;
#METER:5;
#RADARVALUES:0.255604,0.360375,0.098902,0.368635,0.000000,199.000000,188.000000,11.000000,41.000000,0.000000,0.000000,0.000000,0.000000,0.000000,0.255604,0.360375,0.098902,0.368635,0.000000,199.000000,188.000000,11.000000,41.000000,0.000000,0.000000,0.000000,0.000000,0.000000;
#CREDIT:Ben Speirs;
#NOTES:
// measure 0
00000000
00000000
00000000
00000000
,  // measure 1
00000000
00000000
00000000
00000000
,  // measure 2
00000000
00000000
00000000
00000000
,  // measure 3
00000000
00000000
00000000
00000000
,  // measure 4
00000000
00000000
00000000
00000000
,  // measure 5
00002000
00003000
00100000
00100000
,  // measure 6
00020000
00030000
10000000
10000000
,  // measure 7
00200000
00300000
01000000
01000000
,  // measure 8
00002000
00000000
00003000
00000000
,  // measure 9
00010000
00010000
00010000
00000000
,  // measure 10
00010000
00000100
00000010
00000000
,  // measure 11
00000001
00000001
00000001
00000000
,  // measure 12
00001000
00000010
00000100
00000000
,  // measure 13
00000001
00000100
00000010
00010000
,  // measure 14
00001000
00000000
00000000
00000000
,  // measure 15
00100000
00100000
00010000
10000000
,  // measure 16
00100000
00000000
00100000
00000000
,  // measure 17
10000000
10000000
00010000
01000000
,  // measure 18
00001000
00000000
00010000
00000000
,  // measure 19
00001000
00001000
00010000
00000100
,  // measure 20
00000010
00000000
00000010
00000000
,  // measure 21
00000001
00000001
00000100
00000010
,  // measure 22
00000020
00000000
00000000
00000030
,  // measure 23
00002000
00003000
00000200
00000300
,  // measure 24
00020000
00030000
00001000
00001000
,  // measure 25
01000000
00100000
20000000
30000000
,  // measure 26
01000000
00100000
00020000
00030000
,  // measure 27
20000000
30000000
00020000
02030000
,  // measure 28
03002000
00003000
00010000
00000100
,  // measure 29
00000010
00000010
00000001
00001000
,  // measure 30
00000020
00000000
00000030
00000000
,  // measure 31
00002002
00003003
00002000
00003000
,  // measure 32
00000200
00000300
00010000
00001000
,  // measure 33
01000000
00100000
00100000
10000000
,  // measure 34
01000000
00100000
00100000
00010000
,  // measure 35
20000000
30000000
00020000
02030000
,  // measure 36
03200000
00300000
10000000
00010000
,  // measure 37
00100000
00100000
00001000
00001000
,  // measure 38
00010000
00000100
00000010
00000000
,  // measure 39
00002002
00003003
00001000
00000100
,  // measure 40
00020000
00030000
00001000
01000000
,  // measure 41
00200000
00300000
10000000
01000000
,  // measure 42
00200000
00300000
00010000
00000000
,  // measure 43
10000000
10000000
00010000
00010000
,  // measure 44
01000000
00001000
00010000
00000100
,  // measure 45
00000010
00000010
00000001
00000100
,  // measure 46
00000010
00000000
00000000
00000000
,  // measure 47
00001001
00001001
00001001
00000000
,  // measure 48
00001000
00000100
00010000
00000000
,  // measure 49
00011000
00011000
00011000
00000000
,  // measure 50
00001000
01000000
00010000
00000000
,  // measure 51
20000000
30000000
00200000
00300000
,  // measure 52
02000000
03000000
00020000
00030000
,  // measure 53
10000000
01000000
00100000
00010000
,  // measure 54
01000000
01000000
00100000
00000000
,  // measure 55
10000000
00010000
10000000
00000000
,  // measure 56
00200000
00000000
00000000
00300000
,  // measure 57
10010000
10000000
01000000
00100000
,  // measure 58
00010000
01000000
00001000
00010000
,  // measure 59
00000020
00000000
00000030
00000100
,  // measure 60
00000200
00000000
00000300
00000001
,  // measure 61
00001000
00001000
00000100
00000100
,  // measure 62
00020000
00000000
00000000
00030000
,  // measure 63
00001000
00000000
00011000
00000000
,  // measure 64
00001000
00100000
00010000
00000000
,  // measure 65
10000000
00100000
01000000
00000000
,  // measure 66
00010000
00100000
00001000
00000000
,  // measure 67
00010000
00010000
00000010
00000010
,  // measure 68
00000100
00000000
00000000
00000000
,  // measure 69
00002002
00000000
00000000
00000000
,  // measure 70
00000000
00000000
00003003
00000000
,  // measure 71
00002000
00003000
00000100
00000000
,  // measure 72
00020000
00000000
00030000
00000000
00001000
00000000
02000000
03000000
;
