#TITLE:Jailbreak;
#SUBTITLE:;
#ARTIST:Kozo Nakamura;
#TITLETRANSLIT:;
#SUBTITLETRANSLIT:;
#ARTISTTRANSLIT:;
#GENRE:SWING ROCK&ROLL;
#CREDIT:;
#BANNER:Jailbreak.png;
#BACKGROUND:Jailbreak-bg.png;
#LYRICSPATH:;
#CDTITLE:;
#MUSIC:Jailbreak.ogg;
#OFFSET:0.479107;
#SAMPLESTART:25.429993;
#SAMPLELENGTH:14.820000;
#SELECTABLE:YES;
#BPMS:0.000000=249.999985
;
#STOPS:
;
#BGCHANGES:;
#KEYSOUNDS:;
#ATTACKS:;

//---------------dance-single - ----------------
#NOTES:
     dance-single:
     :
     Hard:
     13:
     0.639659,0.760317,0.170833,0.359648,0.755260,498.000000,479.000000,19.000000,40.000000,0.000000,0.000000,0.639659,0.760317,0.170833,0.359648,0.755260,498.000000,479.000000,19.000000,40.000000,0.000000,0.000000:
0000
0000
0000
0000
,
0000
0000
0000
0000
,
0000
0000
0000
0000
,
0001
0000
0000
0100
0000
0001
0000
0000
0000
1000
0000
0001
,
0000
1000
0100
0010
,
0001
0010
0100
1000
,
0010
0000
0000
0100
0000
0000
0001
0000
0000
1000
0000
0010
,
0000
0000
0000
1000
0000
0001
0000
0000
0000
1000
0000
0100
,
0000
1000
0010
0100
,
0001
0100
0010
1000
,
0100
0000
0000
0010
0000
0000
0100
0000
0000
1000
0000
0010
,
0000
0000
0000
0100
0000
0001
0000
0000
0000
1000
0000
0100
,
0000
0010
0001
0100
,
1000
0100
0010
1000
,
0010
0000
0000
0100
0000
0000
0001
0000
0000
1000
0000
0100
,
0000
0000
0000
0010
0000
0001
0000
0000
0000
1000
0000
0010
,
0000
0100
0001
0010
,
1000
0010
0100
1000
,
0010
0100
0001
1000
,
0001
0000
0010
0000
0000
0010
0000
0000
0001
1000
0000
0000
,
0010
0000
1000
0000
0000
2000
0000
0000
0000
3000
0000
0000
,
0001
0000
0100
0000
0000
0100
0000
0000
0001
1000
0000
0000
,
0100
0000
1000
0000
0000
2000
0000
0000
0000
3000
0000
0000
,
0001
0011
0001
0011
,
1000
1010
1000
1010
,
1000
0000
0001
0000
0000
1000
0000
0000
0001
0000
0000
1000
,
0001
1000
2002
3003
,
0001
0000
0100
0001
0000
0000
1000
0000
0000
0100
0000
0000
,
0010
0000
0000
0100
0000
1000
0000
0000
0002
0000
0003
0000
,
1000
0000
0010
0000
0000
1000
0100
0000
0000
0010
0000
0000
,
0100
0000
0000
0100
0000
0000
1000
0000
0001
0000
0000
0000
,
1000
0000
0100
1000
0000
0000
0001
0000
0000
0100
0000
0000
,
0010
0000
0000
0100
0000
0001
0000
0000
2000
0000
3000
0000
,
0001
0000
0010
0000
0000
0001
0100
0000
0000
0010
0000
0000
,
0100
0000
0000
0100
0000
0000
0001
0000
1000
0000
0000
0000
,
0001
0000
0010
0100
0000
0000
1000
0000
0000
0010
0000
0000
,
0001
0000
0000
0010
0000
0100
0000
0000
0002
0000
0003
0000
,
1000
0000
0100
0000
0000
0010
0100
0000
0000
0010
0000
0000
,
1000
0000
0000
1000
0000
0000
0010
0000
0001
0010
0000
0000
,
0001
0000
0100
0010
0000
0000
1000
0000
0000
0100
0000
0000
,
0001
0000
0000
0100
0000
0010
0000
0000
0002
0000
0003
0000
,
1000
0000
0010
0000
0000
0100
0010
0000
0000
0100
0000
0000
,
1000
1000
0200
0320
,
1030
0000
0000
0000
0100
0000
1000
0000
0000
0000
0001
0000
0000
0000
0000
0000
1000
0000
0000
0000
0000
0001
0000
0000
,
0100
0000
0000
2002
0000
0000
3003
0000
,
0001
0000
0000
0000
0100
0000
0001
0000
0000
0000
1000
0000
0000
0000
0000
0000
0001
0000
0000
0000
0000
1000
0000
0000
,
0100
0000
0000
2002
0000
0000
3003
0000
,
0001
0000
0010
0001
0000
1000
0000
0000
0001
0000
0000
1000
,
0010
0000
1000
0010
0000
1000
0000
0000
0001
0000
0000
0100
,
0000
0000
0001
0000
0010
0000
0100
0000
1000
0000
0100
0000
,
0010
0000
2002
3003
,
0001
0000
0000
0000
0000
0102
0000
0000
0000
0000
0000
0000
,
0000
1000
0000
1003
,
0001
0000
0000
0000
0000
2100
0000
0000
0000
0000
0000
0000
,
0000
0001
0000
3001
,
1000
0000
0000
0000
0000
0012
0000
0000
0000
0000
0000
0000
,
0000
1000
0000
1003
,
0001
0000
0000
0000
0000
2020
0000
0000
0000
0000
0000
0000
,
3030
0000
1000
0000
0000
1000
0010
0000
0000
0100
0000
0000
,
0002
0010
1000
0010
,
0100
0010
1000
0013
,
0001
0000
0010
0000
0000
0100
0010
0000
0000
0100
0000
1000
,
0000
0000
0001
1000
0000
0000
0001
0000
0000
0100
0000
0000
,
0001
0000
0000
1000
0000
0020
0000
0000
0030
0100
0000
0002
,
0000
0000
0003
1000
0000
0200
0000
0000
0300
0010
0000
0000
,
0001
0000
0010
0000
0000
0001
1000
0000
0000
0001
0000
0100
,
0000
0000
0001
1000
0000
0000
0010
0000
0000
0100
0000
0000
,
0002
0100
2003
0010
,
3001
0000
0000
0010
0000
0000
0100
0000
0100
1000
0000
0000
,
0002
0010
2003
0100
,
3001
0000
0000
0010
0000
0000
0100
0000
0100
1000
0000
0000
,
0001
0000
0000
0100
0000
0000
1000
0000
1000
0000
0000
0000
,
0100
0001
0010
0001
,
1000
0000
0000
0010
0000
0000
0100
0000
0001
0000
0000
0020
,
0000
0000
0000
0030
,
0001
0000
0001
0100
0000
0000
0010
0000
0010
1000
0000
0000
,
0001
0000
0000
0010
0000
0000
0100
0000
1000
0001
0000
0000
,
1000
0000
1000
0010
0000
0000
0100
0000
0100
0001
0000
0000
,
1000
0000
0100
1000
0000
0000
0001
0000
0100
0001
0000
0000
,
1000
0000
0010
0000
0000
1000
0010
0000
0000
0100
0000
0000
,
0001
0000
0010
0000
0100
0000
1000
0000
0100
0000
0010
0000
,
0001
0000
0000
0000
,
0100
0000
0010
0000
0000
0100
0000
0000
0010
0100
0000
0000
,
1001
0000
0000
0000
,
2100
0000
0010
3000
,
0102
0000
0010
0003
,
0001
0000
1000
0010
0000
0000
1000
0000
0001
0010
0000
0000
,
0001
0000
0100
0000
0010
0000
1000
0000
0010
0000
0100
0000
,
0001
0000
0010
0000
0100
0000
2002
0000
0000
3003
0000
0000
,
1000
0000
0010
1000
0000
0010
0000
0000
0100
0010
0000
0100
,
0000
0000
0100
0001
0000
0000
0010
0000
0000
0100
0000
0000
,
0010
0000
0001
1000
0000
0000
0100
0000
0000
0010
0000
0000
,
0001
0000
1000
0010
0000
0000
0100
0000
0001
1000
0000
0001
,
0000
0000
0010
0001
0000
0010
0000
0000
0100
0010
0000
0100
,
0000
0000
0100
1000
0000
0000
0010
0000
0000
0100
0000
0000
,
0010
0000
1000
0001
0000
0000
0100
0000
0000
0010
0000
0000
,
1000
0000
0001
0010
0000
0000
0100
0000
1000
0001
0000
1000
,
0000
0000
0001
0100
0000
0010
0000
0000
1000
0010
0000
0100
,
0000
0000
0100
0001
0000
0000
0010
0000
0010
0100
0000
0000
,
1000
0000
1000
0100
0000
0000
1000
0000
0000
0010
0000
0000
,
0001
0000
0001
0010
0000
0000
0100
0000
0001
1000
0000
0010
,
0000
0000
1000
0100
0000
0010
0000
0000
0001
0010
0000
0100
,
0000
0000
0100
1000
0000
0000
0010
0000
0010
0100
0000
0000
,
0001
0000
0001
0100
0000
0000
0001
0000
0000
0010
0000
0000
,
1000
0000
1000
0010
0000
0000
0100
0000
1000
0001
0000
0010
,
0001
0000
0000
0000
0100
0000
0001
0000
0000
0000
1000
0000
0000
0000
0000
0000
0001
0000
0000
0000
0000
1000
0000
0000
,
0100
0000
0000
2002
0000
0000
3003
0000
,
1000
0000
0000
0000
0100
0000
1000
0000
0000
0000
0001
0000
0000
0000
0000
0000
1000
0000
0000
0000
0000
0001
0000
0000
,
0100
0000
0000
2002
0000
0000
3003
0000
,
1000
0000
0010
1000
0000
0001
0000
0000
1000
0000
0000
0001
,
0010
0000
0001
0010
0000
0001
0000
0000
1000
0000
0000
0001
,
1000
0000
0010
0100
0000
0001
1000
0000
0100
0010
0000
0001
,
1000
0000
2002
3003
;

//---------------dance-single - ----------------
#NOTES:
     dance-single:
     :
     Medium:
     10:
     0.470111,0.506878,0.116885,0.278727,0.193311,366.000000,353.000000,13.000000,31.000000,0.000000,0.000000,0.470111,0.506878,0.116885,0.278727,0.193311,366.000000,353.000000,13.000000,31.000000,0.000000,0.000000:
0000
0000
0000
0000
,
0000
0000
0000
0000
,
0000
0000
0000
0000
,
0001
0010
0001
0010
,
0100
1000
0100
1000
,
0001
0100
0010
1000
,
0010
0100
0001
0000
,
1000
0100
1000
0100
,
0010
0001
0010
0001
,
1000
0010
0100
0001
,
0100
0010
1000
0000
,
0001
0010
0001
0010
,
1000
0010
1000
0010
,
0100
1000
0001
0010
,
0001
0100
0010
0000
,
1000
0010
1000
0010
,
0001
0010
0001
0010
,
0100
0010
1000
0001
,
0010
0100
1000
0001
,
0100
0000
0000
0000
0000
0010
0000
0000
0010
0000
0000
0000
,
1000
0000
0000
0000
0000
0002
0000
0000
0000
0003
0000
0000
,
0010
0000
0000
0000
0000
0100
0000
0000
0100
0000
0000
0000
,
1000
0000
0000
0000
0000
0002
0000
0000
0000
0003
0000
0000
,
1000
0010
0001
0010
,
1000
0010
0001
0010
,
0100
0000
0000
0000
0000
0010
0000
0000
0010
0000
0000
0000
,
1000
0001
2002
3003
,
1000
0100
0010
0100
,
0001
0000
0000
0000
0000
0100
0000
0000
1000
0000
0000
0000
,
0001
0100
0010
0100
,
1000
1000
0100
0001
,
0001
0010
0100
0010
,
1000
0000
0000
0000
0000
0010
0000
0000
0001
0000
0000
0000
,
1000
0010
0100
0010
,
0001
0001
0010
1000
,
0001
0010
1000
0001
,
0100
0000
0000
0000
0000
0100
0000
0000
1000
0000
0000
0000
,
0001
0100
1000
0001
,
0010
0010
0100
0001
,
1000
0010
0001
1000
,
0100
0000
0000
0000
0000
0100
0000
0000
0001
0000
0000
0000
,
1000
0100
0001
1000
,
0010
0010
0100
1000
,
0001
0000
0000
0000
0000
0100
0000
0000
0010
0000
0000
0000
,
0100
0000
0000
2002
0000
0000
3003
0000
,
1000
0000
0000
0000
0000
0100
0000
0000
0010
0000
0000
0000
,
0100
0000
0000
2002
0000
0000
3003
0000
,
0001
0000
0000
0000
0000
0100
0000
0000
0010
0000
0000
0000
,
1000
0000
0000
0000
0000
0100
0000
0000
0010
0000
0000
0001
,
0000
0000
0100
0000
0000
0000
0100
0000
0000
0000
0000
0000
,
0100
0000
2002
3003
,
2000
0000
0000
0000
0000
0020
0000
0000
0000
0000
0000
0000
,
0000
0000
0000
0030
,
3002
0000
0000
0000
0000
0020
0000
0000
0000
0000
0000
0000
,
0000
0000
0000
0030
,
2003
0000
0000
0000
0000
0200
0000
0000
0000
0000
0000
0000
,
0000
0000
0000
0300
,
3002
0000
0000
0000
0000
0200
0000
0000
0000
0000
0000
0000
,
0000
0000
0000
0303
,
0001
0010
0001
0010
,
0100
1000
0100
1000
,
0001
0100
0010
1000
,
0010
0100
0001
1000
,
0100
0100
0010
0010
,
0001
0001
1000
1000
,
0001
0000
1001
0000
,
1000
0000
1001
0001
,
1000
1000
0100
0100
,
0010
0010
1000
1000
,
0010
0010
0001
0001
,
1000
1000
0100
0100
,
1000
0010
0100
0000
,
0001
0010
0100
0000
,
1000
0100
0010
0100
,
0002
0000
0103
0000
,
1000
1000
0001
0001
,
0100
0010
0100
0000
,
0001
0001
1000
1000
,
0100
0010
0001
0100
,
0010
0000
0100
0000
,
0001
0000
0000
0000
0001
0000
1000
0000
0000
0000
1000
0000
,
0001
0000
0000
0000
,
0100
0000
0000
0000
0000
0010
0000
0000
0000
0100
0000
0000
,
1001
0000
0000
0000
,
2020
0000
3030
0000
,
0202
0000
0303
0000
,
0001
0001
1000
1000
,
0100
0000
0000
0000
0100
0000
0010
0000
0000
0000
0010
0000
,
0001
1000
2002
3003
,
1000
0010
1000
0010
,
0100
0001
0100
0001
,
1000
0100
0010
0001
,
0010
0100
1000
0000
,
0001
0100
0001
0100
,
0010
1000
0010
1000
,
0001
0010
0100
1000
,
0100
0010
0001
0000
,
1000
0010
1000
0010
,
0001
0010
0001
0010
,
0100
0001
1000
0010
,
1000
0100
0010
0000
,
0001
0010
0001
0010
,
1000
0010
1000
0010
,
0100
0010
0001
1000
,
0010
0100
0001
1000
,
1000
0000
0000
0000
0000
0010
0000
0000
0100
0000
0000
0000
,
0010
0000
0000
2002
0000
0000
3003
0000
,
0001
0000
0000
0000
0000
0010
0000
0000
0100
0000
0000
0000
,
0010
0000
0000
2002
0000
0000
3003
0000
,
1000
0000
0000
0000
0000
0010
0000
0000
0100
0000
0000
0000
,
0001
0000
0000
0000
0000
0010
0000
0000
0100
0000
0000
0000
,
1000
0100
0001
1000
,
0010
0000
2002
3003
;

//---------------dance-single - ----------------
#NOTES:
     dance-single:
     :
     Easy:
     8:
     0.417448,0.456190,0.107894,0.107894,0.000000,325.000000,313.000000,12.000000,12.000000,0.000000,0.000000,0.417448,0.456190,0.107894,0.107894,0.000000,325.000000,313.000000,12.000000,12.000000,0.000000,0.000000:
0000
0000
0000
0000
,
0000
0000
0000
0000
,
0000
0000
0000
0000
,
0001
0010
0000
0100
,
0000
1000
0001
1000
,
0001
0000
0100
0000
,
0010
0010
0010
0000
,
1000
0100
0000
0010
,
0000
0100
1000
0100
,
1000
0000
0010
0000
,
0100
0001
1000
0001
,
0010
0100
0000
1000
,
0000
0001
0100
0010
,
0100
0000
0001
0000
,
1000
0100
0001
0100
,
1000
0010
0000
0100
,
0000
0001
0010
0100
,
0010
0000
0001
0000
,
1000
0010
0001
0010
,
1000
0000
0001
0000
,
0010
0010
0010
0000
,
0001
0000
1000
0000
,
0100
0100
0100
0000
,
0010
0010
0010
0000
,
0100
0100
0100
0000
,
1000
0000
0001
0000
,
1000
0001
1001
0000
,
0001
0100
0010
0000
,
1000
0010
0100
0000
,
0001
0010
0100
0000
,
1000
1000
1000
0000
,
0001
1000
0100
0000
,
1000
0001
0100
0000
,
0001
1000
0010
0000
,
0100
0100
0100
0000
,
0001
0010
0100
0000
,
0001
0100
0010
0000
,
0001
0100
0010
0000
,
1000
1000
0001
0000
,
1000
0100
0010
0000
,
1000
0010
0100
0000
,
1000
0010
0100
0000
,
0001
0001
1000
0000
,
0100
0000
0010
0001
,
1000
0000
1100
0000
,
1000
0000
0001
1000
,
0010
0000
0101
0000
,
0001
0000
1000
0100
,
0001
0000
1000
0010
,
0001
0000
1000
0000
,
0010
0100
0110
0000
,
0010
0000
2000
0000
,
0010
0000
0001
0000
,
0100
0000
3002
0000
,
0010
0000
1000
0000
,
0010
0000
0203
0000
,
0010
0000
0001
0000
,
0010
0000
0302
0000
,
0013
0100
1000
0001
,
1000
0000
0010
0000
,
0001
0000
0010
0000
,
0100
0001
0010
0000
,
0100
1000
0010
0000
,
0100
0100
0010
0000
,
1000
1000
0001
0000
,
0010
0000
0100
0000
,
1000
0001
0100
0010
,
1000
1000
0100
0000
,
0010
0010
0001
0000
,
0100
0100
0010
0000
,
1000
1000
0001
0000
,
0010
0100
1000
0000
,
0001
0100
0010
0000
,
1000
0100
0010
0100
,
0001
0000
0100
0000
,
1000
0010
1000
0010
,
0100
0001
0100
0000
,
0001
0010
0001
0010
,
0100
1000
0100
1000
,
0001
0000
0100
0000
,
0010
0000
1000
0000
,
1001
0000
0000
0000
,
0010
0000
0001
0000
,
1001
0000
0000
0000
,
2020
0000
3030
0000
,
0202
0000
0303
0000
,
0001
0001
1000
1000
,
0100
0000
0010
0000
,
0001
0000
2002
3003
,
0001
0100
0001
0100
,
0010
1000
0010
1000
,
0001
0010
0100
0000
,
0100
0010
0001
0000
,
1000
0010
1000
0010
,
0100
0001
0100
0001
,
1000
0100
0010
0000
,
0010
0100
1000
0000
,
0001
0100
0010
1000
,
0001
0010
0100
1000
,
0001
0100
1000
0000
,
1000
0100
0001
0000
,
1000
0100
0010
0001
,
1000
0010
0100
0001
,
1000
0010
0001
0000
,
0001
0010
1000
0010
,
1000
0000
0100
0010
,
0001
0000
1001
0000
,
0001
0000
0100
0010
,
1000
0000
1001
0000
,
1000
0000
0100
0001
,
1000
0000
0010
0001
,
1000
0010
0100
0001
,
1000
0000
2002
3003
;

//---------------dance-single - ----------------
#NOTES:
     dance-single:
     :
     Beginner:
     5:
     0.326252,0.405503,0.134868,0.107894,0.000000,254.000000,239.000000,15.000000,12.000000,0.000000,0.000000,0.326252,0.405503,0.134868,0.107894,0.000000,254.000000,239.000000,15.000000,12.000000,0.000000,0.000000:
0000
0000
0000
0000
,
0000
0000
0000
0000
,
0000
0000
0000
0000
,
0001
0001
0000
0010
,
0000
0100
0100
0000
,
1000
0000
0010
0000
,
0100
0000
0001
0000
,
1000
1000
0000
0100
,
0100
0000
0010
0000
,
0001
0000
0100
0000
,
0010
0000
1000
0000
,
0001
0001
0000
1000
,
1000
0000
0100
0000
,
0010
0000
0001
0000
,
0100
0000
0010
0000
,
1000
1000
0000
0001
,
0001
0000
1000
0000
,
0100
0000
0010
0000
,
0001
0000
0100
0000
,
0010
0000
0000
0000
,
0100
0000
0000
0000
,
0001
0000
0000
0000
,
1000
0000
0000
0000
,
0100
0000
0100
0000
,
0010
0000
0010
0000
,
0001
0000
1000
0000
,
0001
0000
1001
0000
,
1000
0000
0010
0000
,
0100
0100
0100
0000
,
0001
0000
1000
0000
,
0100
0000
0010
0000
,
0001
0000
1000
0000
,
0010
0010
0010
0000
,
1000
0000
0100
0000
,
0010
0000
0001
0000
,
1000
0000
0010
0000
,
0100
0100
0100
0000
,
0010
0000
1000
0000
,
0001
0000
0010
0000
,
0100
0000
1000
0000
,
0001
0001
0001
0000
,
0100
0000
0010
0000
,
1000
0000
0001
0000
,
0010
0000
0100
0100
,
0100
0000
1001
0000
,
0010
0000
0100
0100
,
0100
0000
1001
0000
,
0100
0000
0010
0010
,
0010
0000
0100
0100
,
0100
0000
1000
0000
,
0001
0000
1001
0000
,
0000
0000
2002
0000
,
0000
0000
0000
3003
,
0000
0220
0000
0000
,
0000
0000
0000
0330
,
0000
2002
0000
0000
,
0000
0000
0000
3003
,
0000
0220
0000
0000
,
0000
0000
0330
0000
,
0010
0000
0001
0000
,
0100
0000
0010
0000
,
1000
0000
0001
0000
,
0010
0010
0010
0000
,
0100
0100
0100
0000
,
1000
1000
1000
0000
,
0001
0000
0100
0000
,
0010
0000
1000
0000
,
0001
0001
0001
0000
,
1000
1000
1000
0000
,
0100
0000
0010
0000
,
0001
0001
0001
0000
,
1000
1000
1000
0000
,
0010
0010
0010
0000
,
0100
0000
0001
0000
,
0010
0000
0110
0000
,
0100
0100
0100
0000
,
1000
0000
0001
0000
,
0010
0010
0010
0000
,
0001
0000
0100
0000
,
0010
0000
1000
0000
,
0001
0000
1000
0000
,
1001
0000
0000
0000
,
0010
0000
0100
0000
,
0110
0000
0000
0000
,
0002
0000
0003
0000
,
2000
0000
3000
0000
,
0010
0000
0100
0000
,
0001
0000
1000
0000
,
0001
0000
1001
0000
,
0001
0001
0000
0010
,
0000
0100
0100
0000
,
1000
1000
1000
0000
,
0001
0001
0001
0000
,
0100
0100
0000
0010
,
0010
0000
1000
0000
,
0001
0001
0001
0000
,
1000
1000
1000
0000
,
0100
0100
0000
1000
,
1000
0000
0010
0000
,
0001
0001
0001
0000
,
0100
0100
0100
0000
,
0001
0001
0000
0010
,
0010
0000
1000
0000
,
0100
0100
0100
0000
,
0010
0010
0010
0010
,
0010
0000
0100
0100
,
0100
0000
1001
0000
,
0010
0000
0100
0100
,
0100
0000
1001
0000
,
1000
0000
0001
0001
,
0001
0000
1000
1000
,
1000
0000
0100
0000
,
0010
0000
2002
3003
;
