#VERSION:0.83;
#TITLE:Innocent Azure;
#SUBTITLE:;
#ARTIST:kuro;
#TITLETRANSLIT:;
#SUBTITLETRANSLIT:;
#ARTISTTRANSLIT:;
#GENRE:;
#CREDIT:;
#MUSIC:Innocent Azure.ogg;
#BANNER:banner.png;
#BACKGROUND:background.png;
#CDTITLE:;
#SAMPLESTART:83.950;
#SAMPLELENGTH:20.000;
#SELECTABLE:YES;
#OFFSET:-1.207;
#BPMS:0.000=203.000;
#STOPS:;
#DISPLAYBPM:203.000;
#ORIGIN:;
#TAGS:;
#PREVIEWVID:;
#JACKET:jacket.png;
#CDIMAGE:;
#DISCIMAGE:;
#BGCHANGES:;
#FGCHANGES:;

//--------------- dance-single - ----------------
#NOTEDATA:;
#STEPSTYPE:dance-single;
#DESCRIPTION:;
#DIFFICULTY:Beginner;
#METER:5;
#RADARVALUES:0.198215,0.332336,0,0.066467,0.004154,167,167,0,8,0,0,0,0,0,0.198215,0.332336,0,0.066467,0.004154,167,167,0,8,0,0,0,0,0;
#NOTES:
0000
0000
0000
0000
,
0000
0000
0000
0000
,
0000
0000
0000
0000
,
0000
0000
0000
0000
,
0000
0000
0000
0000
,
0001
0000
0000
0000
,
0010
0000
0000
0000
,
0100
0000
0000
0000
,
1000
0000
0000
0000
,
0001
0000
0100
0000
,
0001
0000
0000
0000
,
1000
0000
0100
0000
,
1000
0000
0000
0000
,
0010
0000
0100
0000
,
0010
0000
0100
0000
,
0001
0000
0000
0000
,
1000
0000
0000
0000
,
0100
0000
0010
0000
,
0100
0000
1000
0000
,
0010
0000
0100
0000
,
0001
0000
1000
0000
,
0100
0000
0010
0000
,
0100
0000
1000
0000
,
0001
0000
0100
0000
,
0010
0000
0100
0000
,
0001
0000
1000
0000
,
0100
0000
0010
0000
,
0001
0000
1000
0000
,
0001
0000
0100
0000
,
0010
0000
0100
0000
,
0001
0000
0010
0000
,
0100
0000
1000
0000
,
0001
0000
1000
0000
,
0010
0000
0000
0000
,
0100
0000
0000
0000
,
0010
0000
0000
0000
,
0100
0000
0000
0000
,
0001
0000
0000
0000
,
0010
0000
0000
0000
,
0100
0000
0000
0000
,
1000
0000
0000
0000
,
0001
0000
1000
0000
,
0001
0000
0000
0000
,
0010
0000
0100
0000
,
0010
0000
0000
0000
,
0100
0000
1000
0000
,
0001
0000
0200
0000
,
0000
0000
0000
0000
,
0320
0000
1030
1000
,
0000
0001
0001
0000
,
0100
0000
0010
0010
,
0000
1000
1000
0000
,
0001
0000
0010
0010
,
0000
0100
0100
0000
,
1000
0000
0001
0000
,
0100
0000
0010
0010
,
0000
0000
1000
0000
,
0001
0000
0010
0000
,
0100
0000
0010
0000
,
0000
0100
1000
0000
,
0010
0000
0100
0000
,
0001
0000
1000
0000
,
0100
0000
0010
0000
,
0001
0001
0001
0000
,
1000
0000
0000
0000
,
0010
0000
0000
0000
,
1000
0000
0000
0000
,
0001
0000
0000
0000
,
0010
0000
0000
0000
,
0100
0100
0100
0000
,
0010
0000
0001
0000
,
0100
0000
0010
0000
,
0100
0000
0001
0000
,
0010
0000
0100
0000
,
1000
0000
0010
0000
,
0100
0000
0001
0000
,
1000
0000
0100
0000
,
0010
0010
0010
0000
,
0001
0001
1000
0000
,
0100
0000
0010
0000
,
0100
0000
1000
0000
,
0010
0000
0010
0000
,
0100
0000
0001
0000
,
0010
0000
0100
0000
,
1000
0100
1000
0000
,
0001
0100
0001
0000
,
1000
0000
0001
0000
,
0000
0000
0000
0000
,
0010
0000
0100
0000
,
0000
0000
1000
0000
,
0001
0000
0100
0000
,
0001
0000
0010
0000
,
0100
0010
0100
0000
,
1000
0001
1000
0001
,
0100
0000
0000
0000
,
0010
0000
0000
0000
,
1000
0000
0000
0000
,
0001
0000
0000
0000
,
0020
0000
0000
0000
,
0000
0000
0000
0000
,
0030
0000
0000
0000
;

//--------------- dance-single - ----------------
#NOTEDATA:;
#STEPSTYPE:dance-single;
#DESCRIPTION:;
#DIFFICULTY:Easy;
#METER:9;
#RADARVALUES:0.410673,0.456962,0,0.099701,0.004154,346,346,0,12,0,0,0,0,0,0.410673,0.456962,0,0.099701,0.004154,346,346,0,12,0,0,0,0,0;
#NOTES:
0000
0000
0000
0000
,
0000
0000
0000
0000
,
0000
0000
0000
0000
,
0000
0000
0000
0000
,
0000
0000
0000
0000
,
0001
0000
0000
0010
0000
0100
0000
1000
,
0000
0001
0100
0001
,
1000
0000
0000
0100
0000
1000
0000
0000
,
0001
0000
0100
0000
,
0010
1000
0001
1000
,
0100
0010
0001
0000
,
0010
0100
1000
0001
,
0100
0010
1000
0000
,
0001
0010
0001
0100
,
0010
1000
0001
1000
,
0100
0000
0000
0010
,
0100
0000
0000
1000
0000
0000
0000
0000
,
0001
0000
0100
0010
0000
1000
0000
0010
,
0000
1000
0100
0010
,
0100
0000
1000
0001
0000
0100
0000
0001
,
0000
1000
0010
0100
,
0001
0000
0010
0100
0000
1000
0000
0100
,
0000
1000
0010
0100
,
0001
0000
1000
0000
0100
0000
1000
0010
,
0000
0100
0010
0000
1000
0000
0001
0000
,
0000
0010
0100
0000
0100
1000
0000
0001
,
0000
0100
0010
0000
0010
1000
0000
0001
,
0000
0100
0001
0000
0001
0010
0000
0100
,
0000
1000
0001
0000
0100
0010
0000
0000
,
1000
0001
0010
0001
,
0100
0010
1000
0100
,
0010
0100
1000
0001
,
0100
0010
0100
0001
,
1000
0000
0100
0000
,
0010
0000
0100
0000
,
1000
0000
0010
0000
,
0100
0000
0000
0010
0000
0000
1000
0000
,
0001
0000
0000
0010
0000
0100
0000
1000
,
0001
0000
0000
0100
0000
0000
0010
0000
,
1000
0000
0000
0100
0000
0000
1000
0100
,
0000
0010
0000
0000
0001
0000
2000
3000
,
0010
0000
0000
0100
0010
0000
1000
0000
,
0001
0000
0000
0010
0000
0000
0001
0000
,
1000
0000
0000
0010
0100
0000
0010
0000
,
1000
0000
0000
0001
0000
0000
0010
0000
,
0100
0000
0000
1000
0000
0000
0001
0000
,
0100
0100
0020
0000
,
0000
0000
0000
0000
,
0230
0000
0000
0000
0301
1000
0000
2000
,
0000
3100
0010
0000
0100
0000
0000
0000
,
1000
0000
0010
0000
0100
0000
0001
0100
,
0000
0001
0100
0000
0010
0000
1000
0000
,
0200
0000
0310
0000
0100
1000
0000
2000
,
0000
3001
0100
0000
0010
0000
0100
0000
,
0002
0000
0013
0000
0100
0000
0000
1000
,
0001
1000
0000
0001
0100
0000
0001
0000
,
1000
0000
0000
0000
1000
0100
1000
0000
,
0100
0010
0100
1000
,
0001
0000
0100
0000
0010
0000
0000
0100
,
0000
0001
1000
0000
,
0200
0000
0310
0000
0001
1000
0001
0000
,
0100
0010
0100
0001
,
1000
1000
0001
0001
,
0010
0100
0010
0000
,
0001
1000
0010
0000
,
0100
0001
1000
0000
,
0100
0010
0001
0000
,
0100
0010
1000
0000
,
0001
1000
0001
1000
,
0010
0100
0010
0100
0010
0000
0000
0000
,
1000
0001
0010
0100
,
1000
0000
0001
0100
0010
0000
0100
0000
,
0001
0000
0010
0100
0000
0100
0000
1000
,
0000
0000
0001
0100
0001
0000
1000
0000
,
0200
0000
0000
0000
0000
0300
0010
0000
0001
0000
0000
0000
1000
0000
0000
0000
,
0010
1000
0100
0010
,
0002
0000
0000
1003
0010
0000
0100
0000
,
0001
1000
0000
1000
0001
0000
0010
0000
,
0100
0100
0010
0001
,
0100
0000
0010
1000
0001
0000
1000
0000
,
0100
0000
1000
0010
0000
0010
0000
0100
,
0001
0000
0000
1000
0010
0000
0010
0000
,
1000
0100
0010
0100
,
1000
0001
0100
0010
,
0100
0100
0010
0010
,
1000
0001
0010
0100
,
1000
0000
0000
0001
0000
0010
0000
0001
,
0000
0100
0010
1000
,
0100
0000
0000
0010
0000
0100
0000
1000
,
0001
1000
0010
0010
,
0100
0001
0010
0100
,
0010
0001
0100
0010
,
1000
1000
0001
0010
,
0100
1000
0100
1000
0000
0001
0000
0100
,
0010
0000
1000
0000
,
0001
0000
0010
0000
,
0100
0000
0010
0000
,
0001
0000
1000
0000
,
0020
0000
0000
0200
0000
0000
0000
0000
,
0000
0000
0030
0000
,
0300
0000
0000
0000
;

//--------------- dance-single - ----------------
#NOTEDATA:;
#STEPSTYPE:dance-single;
#DESCRIPTION:;
#DIFFICULTY:Medium;
#METER:13;
#RADARVALUES:0.614822,0.706215,0,0.116318,0.045696,518,518,0,14,0,0,0,0,0,0.614822,0.706215,0,0.116318,0.045696,518,518,0,14,0,0,0,0,0;
#NOTES:
0000
0000
0000
0000
,
0000
0000
0000
0000
,
0000
0000
0000
0000
,
0000
0000
0000
0000
,
0000
0000
0000
0000
,
0001
0000
1000
0010
0000
0100
0000
0001
,
0000
1000
0010
1000
0100
0000
0010
0000
,
0001
0000
0000
1000
0000
0001
0000
0000
,
0100
0000
0000
0010
1000
0000
0100
1000
,
0001
0000
0010
0000
0001
0100
0001
0000
,
1000
0000
0010
0000
0100
0000
0010
1000
,
0010
0000
1000
0000
0100
0010
0100
0000
,
1000
0001
0000
0100
0000
0001
0000
0100
,
0010
0000
1000
0100
1000
0000
0001
0000
,
0010
0000
0100
1000
0001
0000
0100
0000
,
0010
0000
0000
0000
0000
0100
0001
0100
,
0010
0000
0000
1000
0001
0000
0100
0000
,
0001
0000
0010
0100
0000
1000
0000
0001
,
0000
0100
0010
1000
0100
0010
0100
1000
,
0010
0000
0100
0001
0000
0010
0000
0100
,
0000
0010
0001
0100
0010
1000
0100
0010
,
0100
0000
1000
0010
0000
0100
0000
0001
,
0000
1000
0010
1000
0100
0010
0001
0000
,
1000
0010
0000
0100
0001
0100
0010
1000
,
0000
0100
0010
0100
1000
0001
0100
0010
,
0000
1000
0010
1000
0001
0010
0000
0001
,
0000
1000
0100
1000
0001
0100
0010
1000
,
0000
0100
0010
0100
1000
0001
0100
0010
,
0000
0100
0001
1000
0100
0010
0000
0000
,
0100
1000
0100
1000
0001
0000
0100
0000
,
0010
0100
0010
0100
0001
1000
0000
1000
,
0100
0100
0010
0001
1000
1000
0010
0100
,
0001
0010
0100
1000
0000
1000
0100
0010
,
0001
0000
0000
1000
0010
0100
0010
0000
,
0100
0000
0000
0001
0000
0000
1000
0000
,
0100
0000
0000
0010
0001
1000
0010
1000
,
0001
0000
0000
0100
0000
0000
0001
0000
,
1000
0000
0100
0010
0000
0100
1000
0010
,
0100
0000
0001
1000
0000
0001
0000
0010
,
0100
0000
0000
0010
0000
0000
0001
1000
,
0000
0010
0000
0000
0100
0001
0200
0310
,
0010
0000
0000
1000
0001
1000
0100
0000
,
0010
0000
0000
0100
0000
0000
1000
0001
,
0100
0000
0000
0010
0100
0001
1000
0100
,
0010
0000
0000
0001
0000
0000
0010
0100
,
1000
0000
0000
0010
0000
0000
0100
0000
,
0001
0001
2000
0000
,
0000
0000
0000
0000
,
3200
0000
0000
0000
0310
0001
1000
0002
,
0000
1003
0010
0000
0100
0000
0001
0000
,
1000
0000
0100
0000
0010
0000
0100
1000
,
0000
0001
0100
0000
0010
0100
0010
0000
,
2000
0000
3100
0000
0010
0100
1000
0200
,
0000
1300
0010
0000
0100
0001
0100
0000
,
0020
0000
1030
0000
0001
0010
0001
1000
,
0010
1000
0001
0010
0100
1000
0010
0100
,
0001
0000
0000
0000
1000
0001
0100
0000
,
0010
0000
1000
0100
0010
0000
0100
0000
,
1000
0000
0000
0000
0001
0000
0000
0000
0100
0000
0000
0010
0000
0000
0100
0000
,
0000
0001
0000
0000
0010
0000
0001
0000
0100
0000
0000
0000
0000
0000
0000
0000
,
0020
0000
1030
0000
0100
1000
0001
0000
,
0010
0000
0001
0100
0010
0000
1000
0000
,
0001
0000
0010
0000
0001
0000
0010
0000
0100
0000
0000
1000
0100
0000
1000
0000
,
0010
0100
0010
0100
0001
0000
0000
0000
,
1000
0000
0100
0000
0010
0000
0001
1000
,
0000
0010
0000
0100
0000
0000
0010
0000
,
1000
0000
0100
0000
0010
0001
1000
0010
,
0100
0010
0000
0100
0000
0001
1000
0001
,
0010
0000
0100
0000
1000
0001
1000
0001
,
0100
0010
1000
0100
0010
0000
0000
0000
,
0001
1000
0001
0100
0001
1000
0100
0020
,
0000
0130
1000
0010
0100
0010
1000
0001
,
0010
0000
0100
1000
0000
0001
0100
0010
,
0000
1000
0001
1000
0100
0010
0001
1000
,
0020
0000
0000
0000
0000
0130
0010
0000
1000
0000
0010
0000
0100
0000
0001
0000
,
0010
0100
0000
1000
0100
0010
0001
1000
,
0020
0000
0000
0130
0001
1000
0100
0000
,
1000
0000
1000
0000
0000
0000
0001
0000
0001
0000
0000
0010
0000
0000
0100
0000
,
1000
1000
0001
0100
0010
0100
0001
1000
,
0000
0010
1000
0100
0010
0100
1000
0001
,
0100
0000
0010
1000
0000
0100
0010
0001
,
1000
0000
0000
0001
0000
0000
1000
0000
0001
0000
0001
0000
0100
0000
0000
0000
,
0010
0000
0100
0000
0001
0000
1000
0000
0100
0000
0000
0010
0000
0000
0001
0000
,
1000
0000
1000
0000
0100
0000
0100
0000
1000
0000
0000
0001
0000
0000
0100
0000
,
0010
1000
0100
1000
0010
1000
0100
0010
,
0001
1000
0010
0100
0000
0010
1000
0100
,
0010
0000
0100
1000
0000
0001
0000
0100
,
0000
0000
0010
0000
0100
0000
0000
0001
1000
0000
0100
0000
0010
0000
0100
0000
,
1000
0000
0001
0100
0010
1000
0000
0001
,
0000
1000
0100
0010
0001
1000
0001
0000
,
1000
0000
0010
0000
1000
0000
0000
0010
0100
0000
0000
0001
0000
0000
1000
0000
,
0100
0010
0001
0010
0100
1000
0001
0000
,
0100
0010
1000
0001
0010
0010
0100
1000
,
0010
0100
0010
1000
0010
0100
0010
1000
,
0001
0010
0100
1000
,
0100
0010
0001
1000
,
0010
0100
0001
0100
,
0010
1000
0001
1000
,
0100
0010
0200
2000
0000
0000
0000
0000
,
0000
0000
0300
0000
,
3000
0000
0000
0000
;

//--------------- dance-single - ----------------
#NOTEDATA:;
#STEPSTYPE:dance-single;
#DESCRIPTION:;
#DIFFICULTY:Hard;
#METER:17;
#RADARVALUES:0.925794,1.163177,0.216019,0.15786,0.639747,780,754,26,19,0,0,0,0,0,0.925794,1.163177,0.216019,0.15786,0.639747,780,754,26,19,0,0,0,0,0;
#NOTES:
0000
0000
0000
0000
,
0000
0000
0000
0000
,
0000
0000
0000
0000
,
0000
0000
0000
0000
,
0000
0000
0000
0000
,
0001
1000
0010
0100
0000
0010
0000
1000
,
0000
0100
0010
0001
1000
0000
0010
0000
,
0100
0000
0000
0001
0000
1000
0000
0000
,
0100
0000
0000
0000
0000
0000
0010
0100
0010
0000
0001
0000
1000
0000
0010
0000
,
0100
0000
0000
0000
0010
0000
1000
0000
0001
0010
0001
1000
0001
0000
1000
0000
,
0010
0000
0100
0000
0001
0000
0100
0000
0010
0000
1000
0000
0100
0010
0100
0010
,
0001
0000
0000
0000
1000
0000
0001
0000
0100
0010
0100
0001
0100
0000
0001
0000
,
1000
0000
0100
0000
0000
0000
0010
0000
0000
0000
0100
0000
1000
0001
0100
0010
,
1000
0000
0010
0000
1000
0000
0001
0010
0100
0010
0001
0000
1000
0000
0010
0000
,
0100
0000
0001
0000
1000
0000
0100
0000
1000
0000
0001
0000
0010
0001
1000
0000
,
0001
0000
0000
0000
0000
1000
0010
0100
,
0001
0000
0000
0000
0000
0000
1000
0000
0100
0010
0100
0000
1000
0000
0001
0100
,
0001
0100
0110
0010
0000
1000
0000
1100
,
0000
0000
0100
0000
0010
0001
1000
0001
0010
0000
0100
0000
1000
0001
0100
0000
,
0001
0010
0110
0100
0000
1000
0000
1010
,
0000
0000
0010
0000
0100
0001
1000
0001
0100
0000
0010
0000
1000
0001
0010
0100
,
1000
0100
0110
0010
0000
0001
0000
0101
,
0000
0000
0100
0010
1000
0001
0100
0000
0001
1000
0100
0010
0001
0000
0000
0000
,
1000
0010
1000
0100
0010
0001
0100
0010
,
0000
0000
1000
0001
1000
0001
0100
0000
0010
0000
1000
0000
0100
0000
0010
0000
,
0100
0000
0010
0001
0010
0001
0010
0000
0001
1000
0001
1000
0000
0000
0010
0000
,
0000
0000
1000
0001
1000
0001
1000
0100
0010
0100
1000
0001
0100
0000
0010
0000
,
0000
0000
1000
0010
1000
0010
1000
0000
0001
0100
0001
0100
0000
0000
0001
0000
,
1000
0000
0100
0010
0100
0010
0100
0000
1000
0010
0100
0001
0000
0000
0000
0000
,
1000
0000
0100
0000
0010
0000
0100
1000
0100
0000
1000
0000
0001
0000
0100
0000
,
0010
0000
0100
0000
0001
0000
1000
0000
0100
0000
0010
0000
0001
1000
0010
0000
,
0100
0000
0001
0000
1000
0000
0001
0000
1000
0100
0010
0000
0001
0000
0100
0000
,
0010
0100
0010
1000
0001
0010
0100
0010
0100
0010
0001
1000
0010
0000
1000
0000
,
1001
0000
0000
0001
0100
0010
1000
0000
,
0001
0000
0000
0010
0000
0000
0100
1000
,
0010
0000
0000
0100
0001
0010
0001
1000
,
0010
0000
0000
0100
0000
0000
0001
1000
,
0100
0010
0100
1000
0000
0001
0100
0010
,
1000
0000
0001
0010
0001
0100
0010
1000
,
0001
0000
0000
1000
0000
0000
0100
0010
,
0000
0000
0110
0000
0000
0000
0000
0000
0100
0000
1000
0000
0002
0000
0103
0010
,
1000
0000
0000
0001
1000
0001
0010
0000
,
0100
0000
0000
1000
0000
0000
0001
1000
,
0010
0000
0000
0100
0001
0010
0100
1000
,
0001
0000
0000
0100
0000
0000
0010
0100
,
0001
0000
1000
0100
0000
0000
0110
0000
,
1001
0000
1001
0001
2000
0000
0000
0000
,
0000
0000
0000
0000
,
3020
0000
0000
0000
0000
0000
0000
0000
0130
0001
0100
0010
1000
0000
0002
0000
,
0000
0000
0013
0000
0100
1000
0001
0010
0001
0000
0000
0000
1000
0000
0000
0000
,
0010
0000
0100
0000
0110
0000
0010
1001
,
0000
0000
1000
0000
0110
0000
0000
0001
1000
0100
1000
0001
0100
0000
0000
0000
,
0020
0000
0000
0000
1030
0000
1000
0000
0100
1000
0100
0010
0001
0000
2000
0000
,
0000
0000
3010
0000
0100
0001
1000
0010
1000
0000
0001
0000
0010
0000
0000
0000
,
0200
0000
0000
0000
1300
0000
0000
0000
0001
1000
0001
1000
0010
0000
1000
0100
,
1000
0100
0010
0000
0001
0010
0001
0010
0100
0000
1000
0001
0100
0010
1000
0001
,
0010
0000
0000
0000
0000
0000
0000
0000
0001
1000
0001
0100
0010
0000
0000
0000
,
0100
0000
0001
0000
1000
0100
0010
0001
0010
0000
0100
1000
0001
0000
0000
0000
,
0100
0000
0000
0000
0010
0000
0000
0000
1010
0000
0000
0101
0000
0000
0110
0000
,
0000
1001
0000
0000
0011
0000
0001
0000
1001
0000
0000
0000
0000
0000
0000
0000
,
2000
0000
0000
0000
3001
0000
0001
0000
0010
0100
1000
0001
0100
0000
0000
0000
,
0010
0000
1000
0000
0100
1000
0001
1000
0010
0000
0000
0000
0100
0000
0000
0000
,
0001
0000
0100
0010
1000
0010
1000
0000
0001
0010
0001
0010
0001
0000
1000
0010
,
0100
0001
1000
0001
0010
0100
1000
0001
0100
0000
0000
0000
0000
0000
0000
0000
,
0010
1000
0001
1000
0100
0010
0001
1000
,
0000
0100
1000
0001
0100
0010
1000
0001
,
0010
0100
1000
0001
0100
0010
1000
0100
,
0010
0010
0000
0001
0000
1000
0010
1000
,
0100
0010
0100
1000
0001
0100
0001
1000
,
0100
0010
0100
0010
0001
1000
0010
0100
0001
0000
0000
0000
1000
0000
0000
0000
,
0100
0010
0100
1000
0010
0100
0001
2000
,
0000
3010
1000
0100
0010
0001
0100
0001
,
1000
0000
0001
0100
0001
0000
0010
0000
0100
1000
0100
0000
0010
0001
0010
0000
,
0001
0000
1000
0010
0100
0010
1000
0001
0010
0000
0100
0000
1000
0000
0001
0000
,
0200
0000
0000
0000
0000
0301
1000
0000
0100
0000
0010
0000
0001
0000
1000
0000
,
0010
0000
1000
0000
0001
0010
0001
0000
0100
0000
0010
0000
1000
0000
0001
0000
,
0020
0000
0000
0130
1000
0001
0100
0010
,
0100
0001
0100
0001
0100
0000
0010
1000
0010
1000
0010
0100
0000
0000
0001
0000
,
1000
1000
1100
0100
0010
0001
0100
0001
,
1000
0010
1000
0100
0010
0001
1000
0010
,
0100
0000
0010
1000
0001
0000
0010
0000
0100
1000
0001
0000
0010
0001
1000
0000
,
1001
0000
0000
0101
0000
0000
0110
0000
0010
0100
0001
0000
1000
0000
0100
0000
,
0010
0000
0100
0000
1000
0001
1000
0001
0100
0000
0000
0010
1000
0000
0001
0000
,
0011
0000
0010
0000
0100
1000
0100
1000
0001
0000
0000
0100
0010
0000
1000
0000
,
0100
1000
0100
1000
0001
1000
0001
1000
0010
0100
0001
1000
0100
0010
0100
1000
,
0001
0000
0100
0000
0010
0000
1000
0001
0100
0001
1000
0000
0100
0000
0010
0000
,
0001
0000
0000
0000
1000
0000
0010
0100
0001
0100
0010
0000
1000
0000
0001
0000
,
0000
0000
0010
0000
0100
0000
1000
0001
1000
0000
0010
0100
0010
0100
0001
0000
,
1000
0000
0100
0000
0010
0000
0100
1000
0001
0100
0010
0000
0000
0000
0110
0000
,
0100
0000
0001
0000
0010
0000
0100
0000
1000
0000
0001
0100
0001
0000
0000
0000
,
1000
0000
0010
0000
1000
0000
0001
0010
0001
0000
0100
0010
0000
1000
0001
0000
,
0010
0000
0100
0000
1000
0000
0100
1000
0001
0000
0100
0000
0010
0100
0001
0000
,
1000
0000
1000
0000
0100
0010
0100
0010
0001
1000
0010
0000
0100
0000
0001
0000
,
0010
0100
1000
0100
1000
0001
0100
0010
0100
0001
1000
0100
0010
0000
0001
0000
,
1000
0010
0100
0010
1000
0001
0100
0001
,
1000
0100
0010
0100
1000
0001
0010
0001
,
1000
0010
0100
0001
0100
0010
1000
0001
,
0010
0200
1300
0002
0203
0320
2030
3002
,
0013
0100
2000
0020
0000
0000
0000
0000
,
0000
0000
3000
0000
,
0030
0000
0000
0000
;
