#TITLE:Infinity of Our Love (English ver.);
#SUBTITLE:;
#ARTIST:Nekomata Master feat. Joelle Strother;
#TITLETRANSLIT:;
#SUBTITLETRANSLIT:;
#ARTISTTRANSLIT:Nekomata Master feat. Joelle Strother;
#GENRE:WORLD MUSIC;
#CREDIT:;
#BANNER:Infinity of Our Love.png;
#BACKGROUND:Infinity of Our Love-bg.png;
#LYRICSPATH:;
#CDTITLE:;
#MUSIC:Infinity of Our Love.ogg;
#OFFSET:-0.961000;
#SAMPLESTART:82.547951;
#SAMPLELENGTH:14.736839;
#SELECTABLE:YES;
#BPMS:0.000000=114.000000
;
#STOPS:
;
#BGCHANGES:;
#KEYSOUNDS:;
#ATTACKS:;

//---------------dance-single - ----------------
#NOTES:
     dance-single:
     :
     Beginner:
     2:
     0.095540,0.136062,0.007687,0.046123,0.000000,87.000000,86.000000,1.000000,6.000000,0.000000,0.000000,0.095540,0.136062,0.007687,0.046123,0.000000,87.000000,86.000000,1.000000,6.000000,0.000000,0.000000:
0000
0000
0000
0000
,
0000
0000
0000
0000
,
0000
0000
0000
0000
,
0000
0000
0000
0000
,
0000
0000
0000
0000
,
0000
0000
1000
0000
,
0000
0000
1000
0000
,
0000
0000
0001
0000
,
0000
0000
0001
0000
,
0000
0000
0000
0000
,
1000
0000
1000
0000
,
0001
0000
1000
0000
,
0001
0000
0001
0000
,
1000
0000
0001
0000
,
0100
0000
0000
0000
,
0100
0000
0000
0000
,
0100
0000
0100
0000
,
0200
0000
0300
0000
,
0010
0000
0000
0000
,
0010
0000
0000
0000
,
0010
0000
0010
0000
,
0020
0000
0030
0000
,
1000
0000
0001
0000
,
1000
0000
0001
0000
,
0010
0000
0100
0000
,
0020
0000
0030
0000
,
0001
0000
1000
0000
,
0001
0000
1000
0000
,
0100
0000
0010
0000
,
0200
0000
0300
0000
,
1000
0000
0000
0000
,
0010
0000
0000
0000
,
0001
0000
0000
0000
,
0100
0000
0000
0000
,
1000
0000
1000
0000
,
0010
0000
0010
0000
,
0001
0000
0001
0000
,
0100
0000
0100
0000
,
0100
0000
0000
1000
,
1000
0000
0001
0000
,
1000
0000
0100
0000
,
0010
0000
0001
0000
,
1000
0000
0001
0000
,
0010
0000
0100
0000
,
1000
0000
0010
0000
,
0100
0000
0020
0000
,
0030
0000
0000
0100
,
0100
0000
0001
0000
,
0100
0000
0010
0000
,
1000
0000
0010
0000
,
0100
0000
0001
0000
,
1000
0000
0010
0000
,
0100
0000
0010
0000
,
1000
0000
0002
0000
,
0003
0000
0000
1000
,
1000
0000
0100
0000
,
0010
0000
0001
0000
,
1001
0000
0000
0000
,
0000
0000
0000
0000
,
0100
0000
0000
0000
;

//---------------dance-single - ----------------
#NOTES:
     dance-single:
     :
     Easy:
     4:
     0.183392,0.249447,0.038436,0.099932,0.000000,167.000000,162.000000,5.000000,13.000000,0.000000,0.000000,0.183392,0.249447,0.038436,0.099932,0.000000,167.000000,162.000000,5.000000,13.000000,0.000000,0.000000:
0000
0000
0000
0000
,
0000
0000
0000
0000
,
0000
0000
0000
0000
,
0000
0000
0000
0000
,
0000
0000
0000
0000
,
0000
0000
1000
0000
,
1000
0000
1000
0000
,
1000
0000
0001
0000
,
0001
0000
0001
0000
,
0002
0000
0003
1000
,
1000
0001
1000
0000
,
0001
1000
0001
0001
,
0100
0010
0100
0000
,
0010
0100
0020
0030
,
1000
0100
0010
0000
,
0010
0001
0100
0000
,
0100
0010
0100
0001
,
1000
0002
0003
0000
,
0001
0100
0010
0000
,
0010
1000
0100
0000
,
0100
0010
0100
1000
,
0001
2000
3000
0000
,
1000
0010
0100
0001
,
1000
0010
0100
0100
,
0001
0010
0100
1000
,
0001
2000
3000
0000
,
0001
0010
0100
1000
,
0001
0010
0100
0100
,
1000
0010
0100
0001
,
1000
0002
0003
0000
,
1000
0000
0010
0000
,
1000
0000
0010
0000
,
0001
0000
0010
0000
,
0001
0000
0010
0000
,
0001
0000
0100
0000
,
0001
0000
0100
0000
,
1000
0000
0100
0000
,
1000
0000
0100
0000
,
1000
1000
2000
3000
,
0010
1000
0001
1000
,
0010
1000
0001
1001
,
0010
0001
1000
0001
,
0010
0001
1000
1001
,
0001
0100
0010
1000
,
0010
0100
0001
0100
,
0020
0030
2000
3001
,
0001
0010
0100
1000
,
0001
0100
0010
0100
,
0001
0100
0010
1010
,
1000
0100
0010
0100
,
1000
0100
0010
0011
,
0001
0100
0010
1000
,
0100
0010
0001
0100
,
0020
0030
2000
3001
,
0001
0010
0100
1000
,
0001
0000
0100
0000
,
1000
0000
0010
0000
,
0002
0000
0003
0000
,
2000
0000
3000
0000
,
1001
0000
0000
0000
;

//---------------dance-double - ----------------
#NOTES:
     dance-double:
     :
     Easy:
     4:
     0.176803,0.226770,0.038436,0.115307,0.000000,161.000000,156.000000,5.000000,15.000000,0.000000,0.000000,0.176803,0.226770,0.038436,0.115307,0.000000,161.000000,156.000000,5.000000,15.000000,0.000000,0.000000:
00000000
00000000
00000000
00000000
,
00000000
00000000
00000000
00000000
,
00000000
00000000
00000000
00000000
,
00000000
00000000
00000000
00000000
,
00000000
00000000
00000000
00000000
,
00000000
00000000
00001000
00000000
,
00001000
00000000
00001000
00000000
,
00001000
00000000
00010000
00000000
,
00010000
00000000
00010000
00000000
,
00020000
00000000
00030000
00001000
,
00001000
00010000
00001000
00000000
,
00010000
00001000
01000000
00000000
,
00001000
00010000
00000010
00000000
,
00010000
00001000
00020000
00030000
,
00001000
00010000
00001000
00000000
,
00100000
00001000
00010000
00000000
,
00000100
00010000
00001000
00000000
,
00001000
00020000
00030000
00000000
,
00000010
00001000
00000001
00000000
,
00000010
00000001
00001000
00000000
,
00000100
00000010
00001000
00010000
,
00001000
00022000
00033000
00000000
,
00100000
00010000
10000000
00000000
,
00100000
10000000
00010000
00000000
,
01000000
00100000
00010000
00001000
,
00010000
00022000
00033000
00000000
,
00000100
00001000
00000001
00001000
,
00000100
00010000
00001000
01000000
,
00010000
10000000
00010000
01000000
,
00001000
00020000
00030000
00000000
,
00100000
00000000
10000000
00000000
,
01000000
00000000
00010000
00000000
,
00001000
00000000
00000010
00000000
,
00000001
00000000
00000100
00000000
,
00001000
00000000
00010000
00000000
,
00100000
00000000
10000000
00000000
,
01000000
00000000
00010000
00000000
,
00001000
00000000
00000100
00000000
,
00000001
00000001
00000002
00000003
,
00001000
00000100
00000010
00000100
,
00001000
00000100
00000010
00000001
,
00000100
00001000
00000100
00000001
,
00000100
00001000
00010000
00100000
,
10000000
01000000
00100000
01000000
,
10000000
01000000
00100000
00010000
,
02000000
03000000
00002000
00003000
,
00100000
00010000
10000000
10010000
,
00010000
01000000
00100000
01000000
,
00010000
01000000
00100000
10000000
,
01000000
00010000
01000000
10000000
,
01000000
00010000
00001000
00000010
,
00000001
00000100
00000010
00000100
,
00000001
00000100
00000010
00001000
,
00000200
00000300
00020000
00030000
,
00000010
00001000
00000001
00001001
,
00000001
00000000
00000100
00000000
,
00001000
00000000
00010000
00000000
,
00200000
00000000
00300000
00000000
,
20000000
00000000
30000000
00000000
,
10010000
00000000
00000000
00000000
;

//---------------dance-single - ----------------
#NOTES:
     dance-single:
     :
     Medium:
     8:
     0.301993,0.398576,0.176803,0.361294,0.000000,275.000000,252.000000,23.000000,47.000000,0.000000,0.000000,0.301993,0.398576,0.176803,0.361294,0.000000,275.000000,252.000000,23.000000,47.000000,0.000000,0.000000:
0000
0000
0000
0000
,
0000
0000
0000
0000
,
0000
0000
0000
0000
,
0000
0000
0000
0000
,
0000
0000
0000
0000
,
0000
0000
1000
0010
,
1000
0000
0001
0100
,
0001
0000
1000
0100
,
1000
0000
0001
0010
,
0002
0000
0003
2000
,
3002
1000
0010
1003
,
2000
3200
0320
0032
,
2003
0001
0010
3001
,
0001
0100
0010
1000
0010
0000
0110
0000
,
0100
0000
0001
0000
0010
0001
0010
0000
,
0100
0000
0010
0000
0100
1000
0100
0000
,
1000
0000
0010
0000
0100
0010
0100
0000
,
0001
1000
0001
0000
0100
0000
0110
0000
,
0010
0000
1000
0000
0100
1000
0010
0000
,
0100
0000
0010
0000
0100
0001
0010
0000
,
0100
0000
0010
0000
0001
1000
0100
0000
,
1000
0001
0010
0000
0001
0000
1001
0000
,
1000
0010
1000
0000
0100
1000
0100
0000
,
0010
0001
0010
0000
0001
0100
0001
0000
,
1000
0001
1000
0000
0010
0100
0010
0000
,
1000
0001
1000
0001
0100
0010
0100
0000
,
0001
0010
0100
0000
0010
0100
1000
0000
,
0010
0100
0001
0000
0100
0010
1000
0000
,
0001
0100
0010
0000
1000
0010
0100
0000
,
0001
1000
0001
0010
0100
1000
0001
0000
,
2002
0000
3003
0000
1000
0010
0100
0000
,
0020
0000
0030
0000
0100
0001
0010
0000
,
0002
0000
0003
0000
0010
0100
1000
0000
,
0200
0000
0300
0000
1000
0010
0100
0001
,
2000
0010
0001
3100
,
0002
0100
1000
0013
,
2000
3100
0020
0031
,
0002
0203
0320
2030
,
0001
0001
3001
0110
,
0102
1003
2100
3001
,
0002
0023
2030
3010
,
0012
0103
2100
3010
,
0010
0100
0001
0100
0000
0100
0000
0100
,
0102
0000
0013
0000
2010
0000
3100
0010
,
0100
0000
0100
1000
0010
0000
0010
0100
,
0002
0000
0000
0103
0010
0000
1010
0000
,
0001
0010
0100
1000
0001
0010
0100
0000
,
2100
3001
0102
1003
,
2000
3020
0032
0013
,
2010
3100
0102
0013
,
0010
0100
1000
0100
0000
0100
0000
0100
,
2100
0000
3010
0000
0012
0000
0103
0010
,
0100
0000
0100
0001
0010
0000
0010
0100
,
2000
0000
0000
3100
0000
0010
0000
0001
,
0001
0100
0010
1000
0001
0100
0020
0000
,
2030
0000
3001
0010
0110
0000
1000
0010
,
0110
0000
0001
0010
0110
0000
1100
0000
,
0022
0000
0000
0030
,
2000
0000
0000
0003
,
0020
0000
0000
0000
,
0000
0000
0000
0000
,
3030
0000
0000
0000
;

//---------------dance-double - ----------------
#NOTES:
     dance-double:
     :
     Medium:
     8:
     0.281128,0.351685,0.153742,0.315171,0.000000,256.000000,236.000000,20.000000,41.000000,0.000000,0.000000,0.281128,0.351685,0.153742,0.315171,0.000000,256.000000,236.000000,20.000000,41.000000,0.000000,0.000000:
00000000
00000000
00000000
00000000
,
00000000
00000000
00000000
00000000
,
00000000
00000000
00000000
00000000
,
00000000
00000000
00000000
00000000
,
00000000
00000000
00000000
00000000
,
00000000
00000000
00001000
00100000
,
00001000
00000000
00010000
00000010
,
00010000
00000000
00001000
01000000
,
00001000
00000000
00010000
00000100
,
00020000
00000000
00030000
00002000
,
00203000
00010000
01000000
00310000
,
00020000
02030000
03002000
00023000
,
00030020
00001000
00000100
00001030
,
00001000
00000100
00000010
00000001
00001000
00000000
00001001
00000000
,
00000001
00000100
00000020
00001030
,
00001000
00000100
00000020
00001030
,
00001000
00010000
02000000
03100000
,
00100000
00010000
01000000
10100000
,
10000000
01000000
00200000
00310000
,
00010000
01000000
00200000
00310000
,
00010000
00001000
00000200
00000310
,
00000010
00001000
00000100
00000011
,
00000001
00001000
00000001
00000000
00000100
00000000
00000010
00000000
,
00001000
00000100
00001000
00000000
00000100
00000000
00010000
00000000
,
00001000
00010000
00001000
00000000
01000000
00000000
00010000
00000000
,
00100000
01000000
10000000
00000000
00010000
00100000
01000000
00000000
,
10000000
00010000
10000000
00000000
01000000
00000000
00100000
00000000
,
00010000
01000000
00010000
00000000
01000000
00000000
00001000
00000000
,
00010000
00001000
00010000
00000000
00000100
00000000
00001000
00000000
,
00000010
00000100
00000001
00000000
00001000
00000010
00000100
00000000
,
00000220
00000000
00000330
00000000
00000010
00001000
00000100
00000000
,
00000020
00000000
00000030
00000000
00000001
00000100
00001000
00000000
,
00020000
00000000
00030000
00000000
00001000
00010000
00100000
00000000
,
20000000
00000000
30000000
00000000
01000000
00100000
00010000
00100000
,
00002000
01000000
00010000
00103000
,
00020000
00000100
00001000
00030010
,
00002000
01003000
00020000
00030100
,
00002000
00023000
00230000
20300000
,
00010000
00010000
30010000
10010000
,
01100000
00010000
00011000
00000100
,
00000020
00000032
00000203
00001300
,
00011000
00100000
01100000
10000000
,
01000000
00100000
00010000
00100000
00000000
00001000
00000000
00010000
,
00010010
00000000
00001000
00000000
01001000
00000000
01000000
00010000
,
00100000
00000000
00100000
01000000
00010000
00000000
00010000
00001000
,
00000020
00000000
00000000
00000031
00000001
00000000
00000101
00000000
,
00001000
00000100
00000010
00000001
00001000
00000100
00000010
00000000
,
00000110
00001000
00011000
01000000
,
00200000
20300000
32000000
03010000
,
00011000
00000010
00000110
00000001
,
00000100
00000010
00001000
00000010
00000000
00010000
00000000
00001000
,
00101000
00000000
00010000
00000000
00010100
00000000
00000100
00001000
,
00000010
00000000
00000010
00000100
00001000
00000000
00001000
00010000
,
00200000
00000000
00000000
10300000
00000000
11000000
00000000
01000000
,
00100000
00010000
10000000
01000000
00100000
00010000
00200000
00000000
,
00302000
00000000
00013000
00001000
00000010
00000000
00001000
00010000
,
00100000
00000000
00010000
00001000
00000100
00000000
00000001
00000000
,
00000022
00000000
00000000
00000003
,
00002000
00000000
00000000
00000030
,
00020000
00000000
00000000
00000000
,
00000000
00000000
00000000
00000000
,
00033000
00000000
00000000
00000000
;

//---------------dance-single - ----------------
#NOTES:
     dance-single:
     :
     Hard:
     12:
     0.486484,0.539250,0.169116,0.399729,0.595751,443.000000,421.000000,22.000000,52.000000,0.000000,0.000000,0.486484,0.539250,0.169116,0.399729,0.595751,443.000000,421.000000,22.000000,52.000000,0.000000,0.000000:
0000
0000
0000
0000
,
0000
0000
0000
0000
,
0000
0000
0000
0000
,
0000
0000
0000
0000
,
0000
0000
0000
0000
,
0000
0000
0000
0000
0000
0000
0000
0000
0001
0000
0002
0000
0000
0100
0000
1000
,
0000
0000
0000
0000
0003
0000
0000
0000
1000
0000
2000
0000
0000
0010
0000
0001
,
0000
0000
0000
0000
3000
0000
0000
0000
0001
0000
0002
0000
0000
0010
0000
1000
,
0000
0000
0000
0000
0003
0000
0000
0000
1000
0000
2000
0000
0000
0100
0000
0002
,
0000
0000
0000
0000
0000
0000
0000
0000
3003
0000
0000
0001
0100
0000
0010
0000
,
0110
0000
0100
0000
0001
0010
0000
0001
0000
1000
0000
0001
0010
0000
0001
0000
,
2000
3010
0002
0013
2000
3100
0002
0103
,
1000
0000
0010
0000
1000
0100
0000
1000
0000
0001
0000
1000
0100
0000
1000
0000
,
0001
0010
0100
0220
0000
0000
0330
0000
,
1001
0000
1000
0000
0010
0000
0100
0001
0000
0010
0000
0001
0000
0100
0001
0000
,
0010
0000
0200
0000
1300
0000
1000
0010
0000
0100
0010
0000
1000
0100
1000
0100
,
0000
0010
0100
0000
1000
0000
0010
0100
0000
0020
0000
0000
1030
0000
1000
0100
,
0000
1000
0000
0001
0000
0001
0000
0100
0000
0010
0000
0100
0001
0000
1000
0000
,
1001
0000
0001
0000
0010
0000
0100
1000
0000
0010
0000
1000
0000
0100
1000
0000
,
0010
0000
0200
0000
0301
0000
0001
0010
0000
0100
0010
0000
0001
0100
0001
0100
,
0000
0010
0100
0000
0001
0000
0010
0100
0000
0020
0000
0000
0031
0000
0001
0100
,
0000
0001
0000
1000
0000
1000
0000
0100
0000
0010
0000
0100
1000
0000
0001
0000
,
1001
0000
1000
0000
0010
0000
0100
0001
0000
0100
0010
0000
0100
0001
0100
0020
,
0000
0000
1030
0000
0100
0000
0010
0100
0000
1000
0100
0000
1000
0010
0100
0020
,
0000
0000
1030
0000
0100
0000
1000
0001
0000
0010
0001
0000
0100
0000
1000
0100
,
0000
0100
0000
0001
0000
0010
0000
0010
0000
0100
0000
1000
0001
0000
0100
0000
,
0101
0000
0001
0000
0010
0000
0100
1000
0000
0100
0010
0000
0100
0000
1000
0100
,
0020
0000
0031
0000
0100
0000
0010
0100
0000
0001
0100
0000
0001
0010
0100
0010
,
0002
0000
0103
0000
0100
0000
0001
1000
0000
0010
1000
0000
0100
0000
0001
0100
,
0000
0100
0000
1000
0000
0010
0000
0010
0000
0100
0000
0001
1000
0000
0100
0000
,
2200
0000
3300
0000
0000
0000
1000
0000
0010
0000
0100
0001
0000
0010
0002
0000
,
0000
0000
0003
0000
0000
0000
0001
0000
0010
0000
0100
0000
1000
0010
0000
2000
,
0000
0000
3000
0000
0000
0000
1000
0000
0001
0000
0010
0001
0000
0100
0000
0020
,
0000
0030
0000
0010
1000
0010
0200
0301
,
0101
0000
0100
0000
0010
0000
1000
0000
0100
0000
0010
0000
0001
0100
0000
0100
,
0001
0010
0100
1000
0010
0100
0010
1000
,
0002
0000
0000
0100
0000
0000
1003
0000
2000
0000
0000
0010
0000
0000
3001
0000
,
0002
0000
0000
0000
0203
0000
0000
0010
0000
0010
0300
0010
0100
0010
0000
1000
,
0002
0000
0000
0000
0203
0000
0000
0000
0310
0000
0000
0010
1000
0000
0100
0000
,
1100
0000
1000
0000
0010
0100
0000
0001
0000
0100
0000
0010
0100
0000
0001
0000
,
0020
1030
0020
0031
0200
1300
0200
0301
,
0001
0000
0010
0000
0100
0010
0000
0001
0000
0010
0000
0100
0010
0000
0001
0000
,
0100
0000
0010
0000
0100
0000
0001
1000
0000
0010
0000
1000
0100
0000
0010
0000
,
0011
0000
0001
0000
1000
0010
0000
0100
0000
0001
0000
0100
0010
0000
1000
0000
,
0100
0000
0010
0000
0100
1000
0000
0010
0000
1000
0000
0001
0010
0000
0100
0000
,
2100
0000
3010
0100
0102
0000
1003
0100
,
0010
0000
0001
0000
1000
0010
0000
0100
0000
0010
0000
1000
0001
0000
0100
0000
,
0101
0000
0001
0000
0010
0100
0000
1000
0000
0100
0000
0001
0100
0000
1000
0000
,
0020
0031
0020
1030
0200
0301
0200
1300
,
1000
0000
0010
0000
0100
0010
0000
1000
0000
0010
0000
0001
0010
0000
1000
0000
,
0100
0000
0001
0000
0100
0000
1000
0010
0000
0100
0000
0010
0001
0000
0010
0000
,
1010
0000
1000
0000
0001
0100
0000
1000
0000
0100
0000
0010
0100
0000
0001
0000
,
0010
0000
1000
0000
0010
0001
0000
0100
0000
0010
0000
0100
1000
0000
0100
0000
,
0102
0000
0013
0200
0000
2300
0000
3010
,
0010
0000
0100
0000
0001
1000
0000
0010
0000
0001
0000
0010
0100
0000
0010
0000
,
2010
0000
3100
0010
0012
0000
0013
0100
,
2100
0000
0000
0000
3010
0000
0100
0000
0101
0010
0000
0010
1000
0000
0100
0000
,
0220
0000
0000
0000
0000
0000
0000
0000
0000
0000
0000
0000
0330
0000
0001
1000
,
0002
0000
0000
0000
0000
0000
0000
0013
0100
1000
0000
0001
0100
0000
0110
0000
,
2002
0000
0000
0000
,
0000
0000
0000
0000
,
3003
0000
0000
0000
;

//---------------dance-double - ----------------
#NOTES:
     dance-double:
     :
     Hard:
     13:
     0.461226,0.492359,0.184491,0.461226,0.357450,420.000000,396.000000,24.000000,60.000000,0.000000,0.000000,0.461226,0.492359,0.184491,0.461226,0.357450,420.000000,396.000000,24.000000,60.000000,0.000000,0.000000:
// measure 0
00000000
00000000
00000000
00000000
,  // measure 1
00000000
00000000
00000000
00000000
,  // measure 2
00000000
00000000
00000000
00000000
,  // measure 3
00000000
00000000
00000000
00000000
,  // measure 4
00000000
00000000
00000000
00000000
,  // measure 5
00000000
00000000
00000000
00000000
00000000
00000000
00000000
00000000
00010000
00000000
00020000
00000000
00000000
00001000
00000000
00000010
,  // measure 6
00000000
00000000
00000000
00000000
00030000
00000000
00000000
00000000
00001000
00000000
00002000
00000000
00000000
00010000
00000000
00100000
,  // measure 7
00000000
00000000
00000000
00000000
00003000
00000000
00000000
00000000
00010000
00000000
00020000
00000000
00000000
00000100
00000000
00001000
,  // measure 8
00000000
00000000
00000000
00000000
00030000
00000000
00000000
00000000
00001000
00000000
00002000
00000000
00000000
01000000
00000000
00020000
,  // measure 9
00000000
00000000
00000000
00000000
00000000
00000000
00000000
00000000
00033000
00000000
00000000
00010000
00001000
00000000
00010000
00000000
,  // measure 10
00011000
00001000
00100000
01000000
00010000
00001000
00010000
01000000
,  // measure 11
20000000
30100000
00020000
00031000
00000200
00000301
00000020
00000130
,  // measure 12
00000010
00000001
00000100
00001000
00010000
00001000
00000100
00000001
,  // measure 13
00000010
00001000
00010000
00022000
00000000
00000000
00033000
00000000
,  // measure 14
00011000
00000000
00001000
00000000
00100000
00000000
01000000
00100000
00000000
01000000
00100000
00000000
01000000
00000000
00100000
00000000
,  // measure 15
00001000
00000000
00010000
00000000
00100000
00000000
10000000
01000000
00000000
10000000
01000000
00000000
10000000
00100000
10000000
00000000
,  // measure 16
00100000
00000000
00010000
00000000
00001000
00000000
00100000
01000000
00000000
00200000
00000000
00000000
00301000
00000000
00001000
00010000
,  // measure 17
00000000
00001000
00000000
00000200
00000000
00000000
00000000
00000000
00000001
00000000
00000300
00000010
00010000
00000000
00001000
00000000
,  // measure 18
00011000
00000000
00010000
00000000
00000010
00000000
00000100
00000010
00000000
00000100
00000010
00000000
00000100
00000000
00000010
00000000
,  // measure 19
00010000
00000000
00001000
00000000
00000010
00000000
00000001
00000100
00000000
00000001
00000100
00000000
00000001
00000010
00000001
00000000
,  // measure 20
00000010
00000000
00001000
00000000
00010000
00000000
00000010
00000100
00000000
00000020
00000000
00000000
00010030
00000000
00010000
00001000
,  // measure 21
00000000
00010000
00000000
02000000
00000000
00000000
00000000
00000000
10000000
00000000
03000000
00100000
00001000
00000000
00010000
00000000
,  // measure 22
00011000
00000000
00001000
00000000
00100000
00000000
01000000
10000000
00000000
01000000
00010000
00000000
01000000
10000000
00000000
02000000
,  // measure 23
00000000
00000000
03010000
00000000
00001000
00000000
00100000
01000000
00000000
00100000
00001000
00000000
00100000
01000000
00000000
00200000
,  // measure 24
00000000
00000000
00301000
00000000
00010000
00000000
00000010
00001000
00000000
00000010
00000001
00000000
00000010
00000000
00001000
00000100
,  // measure 25
00000000
00000100
00000000
00000010
00000000
00000001
00000000
00000001
00000000
00000100
00000000
00001000
00010000
00000000
00001000
00000000
,  // measure 26
00011000
00000000
00010000
00000000
00000010
00000000
00000100
00000001
00000000
00000100
00001000
00000000
00000100
00000001
00000000
00000200
,  // measure 27
00000000
00000000
00001300
00000000
00010000
00000000
00000010
00000100
00000000
00000010
00010000
00000000
00000010
00000100
00000000
00000020
,  // measure 28
00000000
00000000
00010030
00000000
00001000
00000000
00100000
00010000
00000000
00100000
10000000
00000000
00100000
00000000
00010000
01000000
,  // measure 29
00000000
01000000
00000000
00100000
00000000
10000000
00000000
10000000
00000000
01000000
00000000
00010000
00001000
00000000
00010000
00000000
,  // measure 30
00022000
00033000
00000000
00001000
00000010
00000001
00000100
00002000
,  // measure 31
00020000
00033000
00000000
00010000
00100000
10000000
01000000
00020000
,  // measure 32
00002000
00033000
00000000
00001000
00000100
00000001
00000010
00002000
,  // measure 33
00020000
00033000
00000000
00010000
01000000
10000000
00100000
00010000
,  // measure 34
00001000
00100000
01000000
00100000
00001000
00010000
00100000
00001000
,  // measure 35
00000010
00010000
00000100
00000010
00000100
00010000
00001000
00000100
,  // measure 36
00020000
00000000
00000000
01000000
00000000
00000000
00100000
00000000
00032000
00000000
00000000
00000010
00000000
00000000
00000100
00000000
,  // measure 37
00023000
00000000
00000000
00000000
02030000
00000000
00000000
00100000
00000000
00100000
03000000
00100000
00010000
00001000
00000000
00010000
,  // measure 38
00000020
00000000
00000000
00000000
00000000
00000000
00000000
00000000
00000030
00000000
00000000
00000100
00000010
00000000
00000100
00000000
,  // measure 39
00000101
00000001
00000010
00001000
00011000
00010000
01000000
10000000
,  // measure 40
00200000
00310000
00002000
01003000
00200000
00310000
00002000
01003000
,  // measure 41
01100000
00100000
00010000
00001000
00011000
00010000
00001000
00000100
,  // measure 42
00000001
00000000
00000010
00000000
00000100
00000000
00001000
00000000
00000010
00000100
00000000
00000001
00000000
00001000
00000100
00000000
,  // measure 43
00000110
00000010
00000001
00000100
00011000
00100000
10000000
01000000
,  // measure 44
00200000
00301000
00020000
00030010
00200000
00301000
00020000
00030010
,  // measure 45
00002010
00000000
00003100
00000010
00000012
00000000
00000103
00001000
,  // measure 46
00010000
00000000
00100000
00000000
10000000
01000000
00000000
01000000
00000000
00100000
00000000
00001000
00010000
00000000
01000000
00000000
,  // measure 47
11000000
10000000
00100000
00010000
00011000
00001000
00000100
00000001
,  // measure 48
00000020
00001030
00020000
00030100
00000020
00001030
00020000
00030100
,  // measure 49
00000110
00000010
00001000
00010000
00011000
00001000
00010000
01000000
,  // measure 50
10000000
00000000
00100000
00000000
01000000
00000000
00010000
00000000
00100000
01000000
00000000
10000000
00000000
00010000
01000000
00000000
,  // measure 51
01100000
00100000
10000000
01000000
00011000
00000010
00000001
00000100
,  // measure 52
00000020
00010030
00002000
00103000
00000020
00010030
00002000
00103000
,  // measure 53
02100000
00000000
00000000
23000000
00000000
30200000
00000000
00310000
,  // measure 54
00001000
00000000
00000010
00000000
00000001
00000100
00000000
00000100
00000000
00000010
00000000
00010000
00001000
00000000
00010000
00000000
,  // measure 55
00010020
00000000
00001030
00000100
00000020
00000000
00001030
00010000
,  // measure 56
02000000
00000000
00000000
00000000
13000000
00000000
00100000
00000000
00010000
00001000
00000000
00010000
00001000
00000000
00000100
00000000
,  // measure 57
00000002
00000000
00000000
00000000
00000000
00000000
00000000
00000000
00000000
00000000
00000000
00000000
00000000
00000000
00000013
00000100
,  // measure 58
00000020
00000000
00000000
00000000
00000000
00000000
00000000
00001030
00010000
01000000
00000000
10000000
00100000
00000000
00010000
00000000
,  // measure 59
00022000
00000000
00000000
00000000
,  // measure 60
00000000
00000000
00000000
00000000
,  // measure 61
00033000
00000000
00000000
00000000
;
