#TITLE:Imitated Visions;
#SUBTITLE:;
#ARTIST:荒谷サトル;
#TITLETRANSLIT:;
#SUBTITLETRANSLIT:;
#ARTISTTRANSLIT:Satoru Aratani;
#GENRE:;
#CREDIT:;
#BANNER:Imitated Visions.png;
#BACKGROUND:Imitated Visions-bg.png;
#LYRICSPATH:;
#CDTITLE:;
#MUSIC:Imitated Visions.ogg;
#OFFSET:-3.268260;
#SAMPLESTART:19.255016;
#SAMPLELENGTH:15.000000;
#SELECTABLE:YES;
#BPMS:0.000000=150.000000
;
#STOPS:
;
#BGCHANGES:;
#KEYSOUNDS:;
#ATTACKS:;

//---------------dance-single - ----------------
#NOTES:
     dance-single:
     :
     Beginner:
     3:
     0.138620,0.237195,0.024881,0.016587,0.000000,117.000000,114.000000,3.000000,2.000000,0.000000,0.000000,0.138620,0.237195,0.024881,0.016587,0.000000,117.000000,114.000000,3.000000,2.000000,0.000000,0.000000:
0000
0000
0000
0000
,
0000
0000
0000
0000
,
0000
0000
0000
0000
,
0000
0000
0000
0000
,
0000
0000
0000
0000
,
0000
0000
0000
0000
,
1000
0000
0001
0000
,
0001
0000
1000
0000
,
0010
0000
0100
0000
,
1001
0000
0000
0000
,
1000
0000
0000
0000
,
0100
0000
0000
0000
,
1000
0000
0000
0000
,
0001
0000
0000
0000
,
1000
0000
0000
0000
,
0010
0000
0000
0000
,
1000
0000
1000
0000
,
0001
0000
0001
0000
,
1001
0000
0000
0000
,
0100
0000
0000
0000
,
0001
0000
0000
0000
,
1000
0000
0000
0000
,
0001
0000
0000
0000
,
0010
0000
0000
0000
,
0001
0000
0001
0000
,
1000
0000
1000
0000
,
0100
0000
0000
0000
,
1000
0000
0010
0010
,
0000
0000
0000
0100
,
0000
0100
0001
0000
,
0001
0001
0000
0001
,
1000
0000
1000
1000
,
0000
1000
0010
0000
,
1000
0000
0001
0000
,
0000
0001
0010
0000
,
0100
0000
0010
0000
,
0000
0100
1000
0000
,
0001
0100
0001
0000
,
1000
0100
1000
0000
,
0001
0010
0001
0000
,
1000
0010
1000
0000
,
1000
0000
0100
0000
,
0010
0000
0001
0000
,
1000
0000
0001
0000
,
0100
0100
0100
0100
,
1001
0000
0000
0000
,
0000
0000
0000
0000
,
0001
0000
0001
0000
,
0100
0000
0000
0100
,
0010
0000
0000
0000
,
0010
1000
1000
0000
,
0001
0000
0001
0000
,
0010
0000
0000
0000
,
0100
0000
0100
0000
,
1000
0000
0001
0000
,
1000
0000
0010
0000
,
0100
0000
0001
0000
,
0010
0000
0000
0000
,
0000
0100
0100
0000
,
0010
0000
0001
0000
,
1000
0000
0010
0000
,
0100
0000
0001
0000
,
1000
0000
0100
0000
,
0020
0000
0000
0000
,
0000
0000
0000
0030
,
0001
0000
0000
0000
,
1000
0000
0000
0000
,
0001
0000
0100
0000
,
1000
0000
0100
0000
,
0001
0000
1000
0000
,
0010
0020
0000
0000
,
0000
0000
0030
0000
;

//---------------dance-single - ----------------
#NOTES:
     dance-single:
     :
     Easy:
     8:
     0.266578,0.326143,0.041468,0.414676,0.087082,225.000000,220.000000,5.000000,50.000000,0.000000,0.000000,0.266578,0.326143,0.041468,0.414676,0.087082,225.000000,220.000000,5.000000,50.000000,0.000000,0.000000:
0000
0000
0000
0000
,
0000
0000
0000
0000
,
0000
0000
0000
0000
,
0000
0000
0000
0000
,
0000
0000
0000
0000
,
0000
0000
0000
0000
,
2000
3002
0203
0320
,
1030
0100
0001
0100
,
1000
1000
0001
0001
,
0020
0000
0000
0000
0000
0000
0000
0000
0030
0000
0001
0000
0000
0001
0000
0000
,
1000
0000
0000
0010
0000
0000
1000
0000
0000
0000
0000
0000
0000
0000
0000
0000
,
0001
0000
0000
0100
0000
0000
0001
0000
0000
0000
0000
0000
0000
0000
0000
0000
,
0010
0000
0000
0001
0000
0000
0010
0000
0000
0000
0000
0000
0000
0000
0000
0000
,
0100
0000
0000
1000
0000
0000
0100
0000
0000
0000
0000
0000
0000
0000
0000
0000
,
0010
0000
0000
0100
0000
0000
0010
0000
0000
0000
0000
0000
0000
0000
0000
0000
,
0001
0000
0000
1000
0000
0000
0001
0000
0000
0000
0000
0000
0000
0000
0000
0000
,
0100
0001
1000
0100
,
1000
0001
0100
0010
,
2000
3001
0002
1003
,
1000
0000
0000
0010
0000
0000
0100
0000
0000
0001
0000
0000
1000
0000
0000
0000
,
0020
0130
0200
0310
,
1000
0000
0000
0001
0000
0000
0010
0000
0000
0100
0000
0000
1000
0000
0000
0000
,
2200
3300
0022
0033
,
0202
0303
2020
3030
,
0010
0100
0001
0010
,
0100
2000
0000
3000
,
0002
0000
0000
0103
,
0001
1000
0100
0020
,
0000
0000
0130
1000
,
0010
0100
0001
0001
,
0001
0000
0100
0000
0000
0010
0000
0000
,
1000
1000
1000
0100
,
0000
0010
0000
0000
0002
0000
2003
0000
,
3010
0100
0001
1000
,
0020
0000
0200
0330
,
0001
1000
0100
0010
,
0200
0000
0020
0330
,
0100
1000
0100
0100
,
0010
0001
0010
0010
,
0001
0001
0100
0001
,
1000
1000
0010
1000
,
0100
0000
0000
0100
0000
0000
0000
0000
1000
0000
0000
1000
0000
0000
0000
0000
,
0001
0000
0000
0001
0000
0000
0000
0000
0010
0000
0000
0010
0000
0000
0000
0000
,
0001
0000
0000
0001
0000
0000
0000
0000
0100
0000
0000
0100
0000
0000
0000
0000
,
0020
0000
0000
0030
,
2002
3003
0000
0000
,
0002
0203
0320
2030
,
3001
0010
1000
0010
,
0200
0000
1300
0001
,
0200
0310
1000
0001
,
1000
0002
0023
0230
,
1300
1000
0010
0100
,
0002
0000
0013
0001
,
1000
0010
0100
0010
,
1000
1000
2000
3000
,
0001
0010
0100
0010
,
0001
1000
0010
0200
,
0302
0000
0000
0003
,
0100
0100
0010
1000
,
0001
0010
0100
1000
,
0100
0010
0001
1000
,
0010
0010
0100
0100
,
0001
0100
0001
1000
,
0020
0000
0000
0000
,
0000
0000
0000
0030
,
1000
0000
0000
0001
0000
0000
1000
0000
0000
0000
0000
0000
0100
0000
0000
0000
,
0010
0000
0000
0000
0100
0000
0000
0000
1000
0000
0001
0000
0000
0001
0000
0000
,
0200
0302
0023
0230
,
2300
3100
0002
0103
,
1000
0000
0000
1000
0000
0000
0010
0000
0000
0000
0000
0000
1000
0000
0000
0000
,
0100
0000
0000
0000
0010
0002
0000
0000
0000
0000
0000
0000
0000
0000
0000
0000
,
0000
0000
0003
0000
;

//---------------dance-single - ----------------
#NOTES:
     dance-single:
     :
     Medium:
     11:
     0.396904,0.504039,0.058055,0.456144,0.261246,335.000000,328.000000,7.000000,55.000000,0.000000,0.000000,0.396904,0.504039,0.058055,0.456144,0.261246,335.000000,328.000000,7.000000,55.000000,0.000000,0.000000:
0000
0000
0000
0000
,
0000
0000
0000
0000
,
0000
0000
0000
0000
,
0000
0000
0000
0000
,
0000
0000
0000
0000
,
0000
0000
0000
0000
,
2000
3002
0203
0320
,
1030
0000
0100
1000
0000
0000
0001
0000
0100
0001
0000
0000
,
1000
0000
0010
0000
0100
0000
0001
0000
0010
0000
1000
0000
,
0020
0000
0000
0000
0000
0000
0000
0000
0030
0000
0100
0000
0000
0010
0000
0000
,
0001
0000
0000
0001
0000
0000
0100
0000
0000
0000
0001
0000
0000
1000
0000
0000
,
0010
0000
0000
0010
0000
0000
0100
0000
0000
0000
0001
0000
0000
0010
0000
0000
,
0100
0000
0000
0100
0000
0000
0010
0000
0000
0000
0100
0000
0000
1000
0000
0000
,
0001
0000
0000
0001
0000
0000
0010
0000
0000
0000
0001
0000
0000
1000
0000
0000
,
0010
0000
0000
1000
0000
0000
0010
0000
0000
0000
0100
0000
0000
0001
0000
0000
,
0010
0000
0000
0001
0000
0000
0010
0000
0000
0000
0100
0000
0000
1000
0000
0000
,
0001
0000
0000
0001
0000
0000
0001
0000
1000
0000
0000
1000
0000
0000
1000
0000
,
0010
0000
0000
0100
0000
0000
0010
0000
0000
0000
2001
0000
0000
0000
0000
0000
,
3020
0000
0030
0000
0000
1000
0001
0100
,
0001
0000
0000
0010
0000
0000
0011
0000
0000
0000
0001
0000
1000
0000
0010
0000
,
1000
0000
0000
0001
0000
0000
0101
0000
0000
0000
0100
0000
0010
0000
1000
0000
,
0001
0000
0000
1000
0000
0000
1100
0000
0000
0000
0100
0000
1000
0000
0001
0000
,
0100
0000
0000
0001
0000
0100
0001
0000
0010
0000
0000
0001
0000
0010
0001
0000
,
1000
0000
0000
0010
0000
1000
0010
0000
1000
0000
0000
0100
0000
1000
0100
0000
,
2000
0000
3020
0000
0130
0001
0100
0010
,
1000
0100
0020
0000
0000
0000
0030
0000
,
0002
0100
0000
0203
,
0320
2030
3002
0023
,
0100
0000
0000
0000
0130
0010
0001
0010
,
0100
1000
0002
0000
0103
0000
0100
0000
,
0010
0000
0000
0000
0100
0000
0000
0001
0000
0000
1000
0000
0010
0000
1000
0000
,
0100
0000
0000
0000
0100
0000
0000
0000
0010
0000
0000
0000
0100
0000
0000
1000
,
0000
0001
0010
0000
0001
1000
0001
1000
,
0020
0000
2030
0000
3002
0000
0013
0200
,
0000
0010
2300
3002
,
0203
0302
2003
0010
,
3001
0000
0001
0100
0001
0000
0001
0010
,
0001
0000
0000
0010
0000
0000
0100
0000
0000
0010
0000
0000
0001
0000
0000
0000
,
1000
0000
0000
0100
0000
0000
0010
0000
0000
0100
0000
0000
1000
0000
0000
0000
,
0001
0000
0000
0100
0000
0000
1000
0000
0000
0100
0000
0000
0001
0000
0000
0000
,
1000
0000
0000
0010
0000
0000
0001
0000
0000
0010
0000
0000
1000
0000
0000
0000
,
0001
0000
0000
0001
0000
0000
0010
0000
0100
0000
0000
0100
0000
0000
0010
0000
,
0001
0000
0000
0001
0000
0000
1000
0000
0010
0000
0000
0010
0000
0000
0100
0000
,
0001
0000
0000
0100
0000
0000
0010
0000
0010
0000
0000
1000
0000
0000
0100
0000
,
0020
0000
0000
0230
0000
0000
2300
0000
0000
3002
0000
0000
0103
0000
0000
0000
,
0220
0000
0000
0000
0330
0000
0000
0000
0010
0000
0000
1000
0000
0000
0001
0000
,
1000
0100
0010
0001
0010
0100
1000
0001
,
2000
0100
3002
0010
,
1003
0000
0001
0000
1000
0010
0100
0010
,
2000
0000
3200
0000
0310
0001
0010
0100
,
0010
0012
1000
0103
,
0002
0100
2003
0010
,
3001
0000
0100
0000
0001
0100
0010
1000
,
0002
0023
0230
2300
,
3010
0000
0000
1000
0000
0000
0001
0000
0020
0000
0000
0000
0030
0000
0000
0000
,
0100
0000
0000
1000
0000
0000
0100
0000
0010
0000
0000
0100
0000
0000
0010
0000
,
0001
0000
0000
0010
0000
0000
0001
0000
2000
0000
0000
0000
3020
0000
0000
0000
,
0130
0000
0000
0100
0000
0000
0100
0000
0000
0000
0100
0000
0001
0000
0100
0000
,
0000
0010
1000
0001
1000
0100
0010
0000
,
0100
0000
1000
0100
0001
0000
0001
0100
,
1000
0000
0100
0010
0000
0000
0001
0000
0100
0010
0000
0000
,
2000
3200
0302
0023
,
2030
0000
3002
0000
0103
0001
0100
0010
,
2000
0000
0000
0000
,
0000
0000
0000
3000
,
1000
0000
0000
0100
0000
0000
0010
0000
0000
0000
0010
0000
0100
0000
0000
0000
,
1000
0000
0001
0000
1000
0000
0000
0000
0001
0000
0100
0000
0000
0110
0000
0000
,
2000
0010
0100
0001
,
3010
0000
1000
0001
0100
0000
0001
1000
,
0100
0000
0000
0010
0000
0000
0010
0000
0100
0000
1000
0000
0001
0000
0000
0000
,
1000
0000
0001
0000
0100
0020
0000
0000
0000
0000
0000
0000
0000
0000
0000
0000
,
0000
0000
0030
0000
;

//---------------dance-single - ----------------
#NOTES:
     dance-single:
     :
     Hard:
     14:
     0.624384,0.711584,0.248806,0.431263,0.733977,527.000000,497.000000,30.000000,52.000000,0.000000,0.000000,0.624384,0.711584,0.248806,0.431263,0.733977,527.000000,497.000000,30.000000,52.000000,0.000000,0.000000:
0000
0000
0000
0000
,
0000
0000
0000
0000
,
0000
0000
0000
0000
,
0000
0000
0000
0000
,
0000
0000
0000
0000
,
0000
0000
0000
0000
,
0001
0000
0100
0010
0100
0000
1000
0000
0100
0010
1000
0000
,
0001
0000
0010
0100
0010
0001
1000
0000
0010
0100
0010
1000
,
0001
0010
0001
0010
0100
1000
0020
0000
0230
0000
0302
0000
,
0013
0000
0100
0000
1000
0001
1000
0001
0000
0000
0101
0000
0000
1001
0000
0000
,
1000
0010
0000
0100
0000
0010
2000
0000
3000
0000
0001
0100
0000
0100
0010
0000
,
1000
0001
0000
0010
0000
0010
0200
0000
0300
0000
0100
1000
0000
0001
1000
0000
,
0001
0010
0000
0100
0000
0010
0002
0000
0003
0000
0010
0100
0000
0100
1000
0000
,
0001
1000
0000
0010
0000
0010
0200
0000
0300
0000
0100
0001
0000
1000
0100
0000
,
0100
1000
0000
0100
0000
0010
0002
0000
0003
0000
1000
0001
0000
1000
0010
0000
,
0100
0001
0000
1000
0000
0010
0200
0000
0300
0000
0100
0001
0000
0010
0001
0000
,
1000
0000
1000
0100
0000
1000
0100
0000
1000
0000
1000
0001
0000
1000
0001
0000
,
1000
0000
1000
0010
0000
1000
0010
0000
0100
0001
2000
0000
0000
0000
0000
0000
,
3020
0000
0000
0000
0130
0000
0000
0000
0100
0000
0001
1000
0000
1000
0010
0000
,
1000
0010
0000
1000
0000
0001
0020
0000
0030
0000
0010
0001
0000
1000
0100
0000
,
1000
0001
0000
0100
0000
0100
0002
0000
0003
0000
1000
0001
0000
0001
0010
0000
,
0001
0010
0000
0100
0000
0100
2000
0000
3000
0000
0001
0100
0000
0001
1000
0000
,
0010
0000
0010
1000
0000
0010
0100
0000
0001
0000
0001
0100
0000
0001
1000
0000
,
0100
0000
0100
1000
0000
0100
0010
0000
0001
0000
0001
0010
0000
0001
1000
0000
,
0100
1000
0001
2000
0000
0000
3010
0000
0010
1000
0010
0000
1000
0001
1000
0000
,
0001
0100
0001
1000
0001
0020
0000
0000
0000
0000
0000
0000
0030
0000
0000
0000
,
0002
0100
2003
3100
,
1100
0000
0000
0000
0110
0000
0000
0000
0011
0000
0000
0001
2000
0000
0000
0000
,
0010
0000
0000
0000
3002
0000
0000
0000
0003
0010
0100
0000
0200
0000
0000
0000
,
1300
0001
0100
0000
0200
0000
0000
0000
0310
0000
0100
0000
0001
0000
0100
0000
,
1000
0000
0100
0000
0010
0000
0000
0010
0000
1000
0010
0100
0001
0000
0001
0000
,
0010
0000
0100
0000
1000
0000
0100
0000
0001
0000
0100
0000
0010
0000
0000
0010
,
0000
0100
1000
0001
0010
0000
0010
0000
0100
0000
0000
0100
0000
0000
1000
0001
,
2000
0000
3020
0000
0230
0000
0302
0023
,
0000
0000
0100
0000
0032
0000
1003
1000
,
2000
3002
0203
0320
,
1030
0000
0100
0000
0010
0000
0100
0000
1000
0100
0010
0001
0010
0100
1000
0000
,
0001
0000
0000
1000
0001
0000
0100
0000
0001
0010
0000
0000
0011
0000
0000
0000
,
1010
0000
0000
0010
1000
0000
0001
0000
1000
0100
0000
0000
1100
0000
0000
0000
,
0101
0000
0000
0100
0001
0000
0100
0000
0010
0100
0000
0000
0110
0000
0000
0000
,
1001
0000
0000
1000
0100
0000
1000
0000
0100
0010
0000
0000
0110
0000
0000
0000
,
0011
0000
0000
0011
0000
0000
1000
0000
1100
0000
0000
1100
0000
0000
0001
0100
,
0001
0000
0000
0101
0000
0000
1000
0010
1000
0000
0000
1010
0000
0000
0010
1000
,
0001
0000
0001
0010
0000
0000
0010
0001
1000
0000
1000
0010
0000
0000
0010
1000
,
0002
0000
0000
0100
0000
0000
1000
0000
0000
0100
0000
0000
0023
0000
0000
0000
,
0130
0000
0000
0000
0000
0000
0000
0000
1100
0000
0000
1001
0000
0000
0101
0000
,
0001
0000
0100
1000
0000
1000
0100
0000
0001
0000
0010
1000
0000
1000
0010
0000
,
0100
0000
0000
0100
2000
0000
0100
0000
3002
0000
0100
0000
2003
0000
0010
0000
,
3002
0000
0000
0100
0000
0000
0100
0000
0003
0000
1000
0010
1000
0000
0001
0000
,
0020
0000
0000
0100
0000
0000
0100
0000
0030
0000
0100
0000
1000
0000
0001
0000
,
0010
0000
0001
0010
0100
0000
0100
0000
1000
0000
1000
0000
0002
0000
0000
0000
,
0203
0001
0320
0000
2030
0001
3200
0000
,
0320
0000
0000
0001
0000
0000
0001
0000
0030
0000
0001
0000
1000
0000
0010
0000
,
0100
0000
0000
0100
0001
0000
0100
0000
0010
0000
0000
0010
1000
0000
0010
0000
,
1000
0000
0000
0100
0000
0000
0010
0000
0002
0000
0003
0000
1000
0001
1000
0001
,
0100
0000
0000
0101
0000
0000
0001
1000
0100
0000
0000
1100
0000
0000
0100
0010
,
0001
0000
0000
0011
0000
0000
0001
0000
2000
0000
0000
0000
3010
0000
0000
0100
,
0002
0000
0000
0100
0000
0000
0103
0000
0010
0000
0100
0000
0001
0000
0010
0000
,
0100
0000
1000
0000
0100
0000
0010
0000
0100
1000
0001
0100
0002
0000
0000
0000
,
1003
0000
0000
1000
0010
0000
1000
0000
0001
0000
0000
0001
0010
0000
0001
1000
,
0010
1000
0001
0010
0100
1000
0001
0100
0010
2000
0000
0000
,
3001
0001
1000
1000
0010
0010
0100
0100
,
0001
0010
0100
0000
1000
0001
0100
0000
0001
0100
0010
0000
1000
0001
1000
0100
,
0020
0000
0000
0000
,
0000
0000
0000
0030
,
0100
0000
0000
1100
0000
0000
1001
0000
0000
0000
0001
0010
0001
0000
1000
0000
,
0010
1000
0010
0000
0100
0001
0100
0000
0010
0000
0110
0000
0000
1001
0000
0000
,
1000
0000
0000
1000
0100
0000
1000
0000
0001
0010
0000
0010
0001
0000
1000
0000
,
0010
0000
0000
0100
0000
0000
0001
0100
0010
0000
1000
0000
0001
0000
0010
0000
,
0001
0000
0000
0011
0000
0000
1001
0000
1000
0000
0100
0000
0100
0000
1000
0100
,
0010
0100
1000
0010
0100
0002
0000
0000
0000
0000
0000
0000
0000
0000
0000
0000
,
0000
0000
0003
0000
;

//---------------dance-single - ----------------
#NOTES:
     dance-single:
     :
     Challenge:
     15:
     0.726276,0.830182,0.356622,0.447850,1.040837,613.000000,570.000000,43.000000,54.000000,0.000000,0.000000,0.726276,0.830182,0.356622,0.447850,1.040837,613.000000,570.000000,43.000000,54.000000,0.000000,0.000000:
// measure 0
0000
0000
0000
0000
,  // measure 1
0000
0000
0000
0000
,  // measure 2
0000
0000
0000
0000
,  // measure 3
0000
0000
0000
0000
,  // measure 4
0000
0000
0000
0000
,  // measure 5
0000
0000
0000
0000
,  // measure 6
1000
0000
0000
0000
0200
0300
0000
0000
0200
0300
0000
0000
0001
0000
0000
0000
0200
0300
0000
0000
0200
0300
0000
0000
1000
0000
0000
0000
0001
0000
0000
0000
0010
0000
0000
0000
0100
0000
0000
0000
0010
0000
0000
0000
0001
0000
0000
0000
,  // measure 7
1000
0000
0000
0000
0020
0030
0000
0000
0020
0030
0000
0000
0001
0000
0000
0000
0020
0030
0000
0000
0020
0030
0000
0000
1000
0000
0000
0000
0001
0000
0000
0000
0100
0000
0000
0000
0010
0000
0000
0000
0100
0000
0000
0000
0001
0000
0000
0000
,  // measure 8
1000
0100
0010
0001
0100
0010
0200
0000
0302
0000
2003
0000
,  // measure 9
3100
1000
0001
0100
0001
1000
0100
0010
0000
0000
0110
0000
0000
1001
0000
0000
,  // measure 10
1000
0100
0000
0010
0000
0010
0001
0000
0000
0010
0100
0010
0000
0100
1000
0000
,  // measure 11
0001
0010
0000
0100
0000
0100
0010
0000
0000
0100
1000
0001
0000
0001
0010
0000
,  // measure 12
0001
0100
0000
0010
0000
0010
1000
0000
0000
0010
0100
0010
0000
0100
0001
0000
,  // measure 13
1000
0010
0000
0100
0000
0100
0001
0000
0000
0100
0001
1000
0000
0010
1000
0000
,  // measure 14
0001
0010
0000
0100
0000
0010
0001
0000
0000
0010
0100
0010
0000
0001
1000
0000
,  // measure 15
1000
0010
0000
0100
0000
0010
1000
0000
0000
0010
0100
0001
0000
0001
1000
0000
,  // measure 16
1001
0000
0001
0010
0000
0010
0001
0000
0011
0000
0010
0100
0000
0100
0010
0000
,  // measure 17
0110
0000
0100
1000
0000
1000
0100
0000
1000
0001
0020
0000
0000
0000
0000
0000
,  // measure 18
0130
0000
0000
0000
1001
0000
0000
0000
0001
0100
0001
1000
0000
1000
0100
0000
,  // measure 19
1000
0001
0000
0011
0000
0010
0100
0000
0000
0010
0001
1000
0000
0100
1000
0000
,  // measure 20
0001
1000
0000
1010
0000
1000
0001
0000
0000
0001
0100
0001
0000
1000
0010
0000
,  // measure 21
1000
0001
0000
0011
0000
1000
0100
0000
0000
0010
0100
0010
0000
0010
0001
1000
,  // measure 22
0010
0000
0010
1000
0000
1000
0010
0000
0100
0000
0100
0001
0000
0001
0100
0000
,  // measure 23
0001
0010
0001
0010
0000
0010
0001
0000
1000
0100
1000
0100
0000
0100
1000
0000
,  // measure 24
0001
1000
0001
0020
0000
0031
0010
0100
0000
0100
1000
0001
0100
0010
0100
0001
,  // measure 25
1000
0100
0010
0001
1000
0020
0000
0000
0000
0000
0000
0000
0030
0000
0000
0000
,  // measure 26
2001
0100
0001
3020
,  // measure 27
0230
0000
0000
0000
0302
0000
0000
0000
0013
0000
0000
0010
0200
0000
0000
0000
,  // measure 28
0010
0000
0000
0000
1300
0000
0000
0000
0000
1000
0001
1000
0002
0000
0000
0000
,  // measure 29
0103
0010
0100
0010
2000
0000
0000
0000
3010
0000
0100
0000
1100
0000
0100
0000
,  // measure 30
0101
0000
0100
0000
0010
0000
0000
0010
0000
1000
0010
0100
0001
0000
0001
0000
,  // measure 31
0010
0000
0100
0000
0101
0000
0100
0000
1100
0000
0100
0000
0010
0000
0000
0010
,  // measure 32
0000
0100
1000
0001
0010
0000
0010
0000
0100
1000
0100
1000
0001
0100
0001
0100
,  // measure 33
0020
0000
2030
0000
3002
0000
0023
0230
,  // measure 34
0300
0000
1000
0100
0010
0100
1000
0100
0010
0000
0000
0000
0001
0000
0001
0000
,  // measure 35
0002
0000
0000
0000
0100
0000
0000
0000
2003
0000
0000
0000
3010
0000
0010
0100
,  // measure 36
0001
0100
0010
0100
0001
0000
1000
0000
0001
1000
0001
1000
0100
0010
0100
0000
,  // measure 37
1100
0000
0000
0100
1000
0000
0001
0000
1000
0010
0000
0000
1010
0000
0000
0000
,  // measure 38
0011
0000
0000
0010
0001
0000
1000
0000
0001
0100
0000
0000
0101
0000
0000
0000
,  // measure 39
0110
0000
0000
0010
1000
0000
0001
0000
1000
0100
0000
0000
1100
0000
0100
0000
,  // measure 40
0110
0000
0000
0010
0001
0000
1000
0000
0001
0100
0000
0000
0101
0000
1001
0000
,  // measure 41
1010
0000
0000
1010
0000
0000
1000
0001
0010
0000
0000
0011
0000
0000
0001
0010
,  // measure 42
0100
0000
0000
1100
0000
0000
1000
0010
0100
0000
0000
0101
0000
0000
0100
0010
,  // measure 43
1000
0000
0000
0000
0001
0000
0200
0300
0000
0000
0200
0300
1000
0000
0000
0000
0001
0000
0000
0000
1000
0000
0200
0300
0000
0000
0200
0300
0001
0000
0000
0000
,  // measure 44
1000
0000
0000
0101
0000
0000
1010
0000
0000
1100
0000
0000
0012
0000
0000
0000
,  // measure 45
1003
0000
0000
0000
0000
0000
1000
0010
0100
0000
0100
0001
0000
0001
1000
0000
,  // measure 46
0001
0010
0001
1000
0100
0010
0001
0100
0001
1000
0010
0100
,  // measure 47
0001
0000
0000
0001
1000
0000
0100
0000
0001
0000
0100
0000
1000
0000
0010
0000
,  // measure 48
0002
0000
0000
0010
0000
0000
0013
0000
0000
0000
0010
0100
0001
0000
0010
0000
,  // measure 49
2000
0000
0000
0010
0000
0000
3010
0000
0000
0010
0100
0000
1000
0000
0001
0000
,  // measure 50
0100
0000
0100
0010
1000
0000
0001
0000
0101
0000
1000
0000
2100
0000
0000
0000
,  // measure 51
3001
0000
0000
0001
0020
0000
0001
0000
0230
0000
0010
0000
2300
0000
0100
0000
,  // measure 52
3002
0000
0000
0100
0000
0000
0103
0000
0000
0000
0001
0000
0100
0000
0010
0000
,  // measure 53
1000
0000
0000
0100
0010
0000
0010
0000
0001
0000
0000
0100
0010
0000
0100
0000
,  // measure 54
0001
0000
0000
0010
0000
0000
0110
0000
2002
0000
3003
0000
1000
0001
1000
0100
,  // measure 55
0010
0000
0100
1000
0000
1000
0100
1000
0010
0000
0100
0001
0000
0001
0100
0001
,  // measure 56
0010
0000
0000
0110
0000
0000
0100
0000
2000
0000
0000
0000
3010
0000
0010
0100
,  // measure 57
0002
0000
0000
0100
0000
0000
1003
0000
0000
0000
1000
0100
0010
0000
0001
0010
,  // measure 58
0100
0000
1000
0010
1000
0010
0100
0000
0001
0010
0001
0010
0200
0000
0000
0000
,  // measure 59
1300
0000
0000
0000
0100
1000
0100
1000
0001
0000
0100
0001
0100
0001
1000
0001
,  // measure 60
1000
0000
0000
0000
0001
0000
0000
0000
0020
0030
0000
0000
0020
0030
0000
0000
1000
0000
0000
0000
0001
0000
0000
0000
1000
0000
0000
0000
0020
0030
0000
0000
0020
0030
0000
0000
0002
0000
0000
0000
0000
0000
0000
0000
0000
0000
0000
0000
,  // measure 61
1003
0100
1100
1000
0001
0100
0101
0001
,  // measure 62
1000
0010
0100
0001
0100
0010
1000
0001
1000
0100
0010
0001
1000
0001
0100
0001
,  // measure 63
0020
0000
0000
0000
,  // measure 64
0000
0000
0000
0000
0030
0000
0010
0100
,  // measure 65
0010
0000
0000
1100
0000
0000
0011
0000
0000
0000
0010
0001
1000
0000
1000
0010
,  // measure 66
0100
0010
1000
0001
0100
0000
0001
0010
0001
1000
0200
0000
0000
0320
0000
0000
,  // measure 67
0031
0000
0000
0001
0100
0000
0001
0000
0010
0000
0100
0000
1000
0000
0010
0000
,  // measure 68
0100
0000
0100
0000
0001
1000
0100
0010
0001
0010
0100
1000
0001
0000
0100
0000
,  // measure 69
0010
0000
0000
0101
0000
0000
1010
0000
1000
0000
1000
0000
0001
0000
0001
0010
,  // measure 70
0100
0010
0001
1000
0010
0200
0000
0000
0000
0000
0000
0000
0000
0000
0000
0000
,  // measure 71
0000
0000
0300
0000
;
