#VERSION:0.83;
#TITLE:Ice Cream Cake;
#SUBTITLE:;
#ARTIST:Red Velvet;
#TITLETRANSLIT:;
#SUBTITLETRANSLIT:;
#ARTISTTRANSLIT:;
#GENRE:;
#ORIGIN:;
#CREDIT:;
#BANNER:;
#BACKGROUND:;
#PREVIEWVID:;
#JACKET:;
#CDIMAGE:;
#DISCIMAGE:;
#LYRICSPATH:;
#CDTITLE:;
#MUSIC:Ice Cream Cake.ogg;
#OFFSET:0.006679;
#SAMPLESTART:35.650002;
#SAMPLELENGTH:12.000000;
#SELECTABLE:YES;
#BPMS:0.000=86.000;
#STOPS:;
#DELAYS:;
#WARPS:;
#TIMESIGNATURES:0.000=4=4;
#TICKCOUNTS:0.000=4;
#COMBOS:0.000=1;
#SPEEDS:0.000=1.000=0.000=0;
#SCROLLS:0.000=1.000;
#FAKES:;
#LABELS:0.000=Song Start;
#BGCHANGES:;
#KEYSOUNDS:;
#ATTACKS:
;

//---------------dance-single - ----------------
#NOTEDATA:;
#CHARTNAME:;
#STEPSTYPE:dance-single;
#DESCRIPTION:;
#CHARTSTYLE:;
#DIFFICULTY:Hard;
#METER:14;
#RADARVALUES:0.628877,0.676992,0.366118,0.592763,0.950164,505.000000,463.000000,42.000000,68.000000,0.000000,0.000000,0.000000,0.000000,0.000000,0.628877,0.676992,0.366118,0.592763,0.950164,505.000000,463.000000,42.000000,68.000000,0.000000,0.000000,0.000000,0.000000,0.000000;
#CREDIT:nobarben;
#NOTES:
// measure 0
0000
0000
0000
0000
,  // measure 1
0000
0000
0000
0000
0000
0000
0000
0000
0000
0000
0000
0000
0000
0000
0000
0010
,  // measure 2
0000
1001
0000
0001
0100
0001
0100
0001
0010
0100
2000
0010
0000
0001
0000
3100
,  // measure 3
0000
1001
0000
1000
0100
1000
0100
1000
0010
0100
0002
0010
0000
1000
0000
0103
,  // measure 4
0000
0001
0010
0001
0200
0000
0320
1000
0000
1030
0010
1000
0200
0000
0310
0001
,  // measure 5
1000
0000
0000
0001
0020
0000
0031
1000
0010
0000
0000
0010
0200
0000
0302
1003
,  // measure 6
0000
0101
0000
0001
0100
0010
0100
0010
1000
0001
0020
0100
0000
1000
0000
0031
,  // measure 7
0000
1100
0000
1000
0100
0010
0100
0010
0001
1000
0020
0100
0000
0001
0000
1030
,  // measure 8
0000
1000
0010
1000
0200
0000
0320
0001
0000
0031
0010
0001
0200
0000
0310
1000
,  // measure 9
0001
0000
0000
1000
0100
1000
0100
1000
0001
1000
0010
0100
0001
0010
0100
1000
,  // measure 10
0001
0000
0000
1000
0020
0000
0130
0001
1000
0000
0000
0001
0020
0000
0230
0000
,  // measure 11
1300
0000
0000
0001
0200
0000
0310
1000
0001
0000
0000
1000
0200
0000
0320
0000
,  // measure 12
0031
0000
0000
1000
0020
0000
1030
0001
0010
0000
0000
0000
0000
0100
0010
0100
,  // measure 13
2100
0000
3010
0000
0102
0000
0013
0001
0200
0000
1000
0000
0002
0000
0303
0000
,  // measure 14
1000
0010
1000
0010
0100
0001
1000
0000
0001
0010
0001
0010
0100
1000
0001
0000
,  // measure 15
0102
0000
0013
0000
2100
0000
3010
1000
0200
0000
0001
0000
2000
0000
3300
0000
,  // measure 16
0001
0010
0001
0010
0100
1000
0010
0000
1000
0010
1000
0010
0100
0001
0010
0000
,  // measure 17
0110
0000
0010
0001
0000
0010
0100
0000
0010
2000
0000
3010
0001
1000
0010
0000
,  // measure 18
0110
0000
0000
0000
0010
0000
1000
0000
0000
0000
0010
0000
0100
0000
0000
0000
0010
0000
0002
0000
0000
0000
0013
0000
0100
0000
0001
0000
1000
0000
0100
0010
,  // measure 19
0100
0000
0010
0001
0000
0010
0100
0000
0010
2000
0000
3010
0001
1000
0010
0000
,  // measure 20
0102
0000
0000
0000
0013
0000
0000
0000
2100
0000
0000
0000
3010
0000
0000
0000
1000
0100
1000
0000
0001
0100
0001
0000
2001
0000
0000
0000
3010
0000
0000
0000
,  // measure 21
0200
0000
0000
0000
0000
0000
0000
0000
0000
0000
0000
0000
0001
0001
0001
0301
,  // measure 22
1000
0100
1000
0100
0010
0100
1000
0001
0100
0010
1000
0002
0000
1000
1003
0000
,  // measure 23
0001
0100
0001
0000
1000
0000
0010
0000
1000
0000
0100
0000
1000
0000
0010
0000
0100
0000
0001
0000
1000
0000
0200
0000
0001
0000
0000
0000
1300
0000
0000
0000
,  // measure 24
1000
0100
1000
0000
0001
0000
0010
0000
0001
0000
0100
0000
0001
0000
0010
0000
0100
0000
1000
0000
0001
0000
0200
0000
1000
0000
0000
0000
0301
0000
0000
0000
,  // measure 25
0002
0000
0100
0000
0000
0000
1003
0000
0001
0010
0001
0000
0010
0000
0100
0000
1000
0000
0010
0000
0200
0000
1000
0000
0000
0000
0010
0000
0000
0000
0301
0000
,  // measure 26
0000
0000
1100
0000
0000
0000
0001
0000
1000
0010
1000
0000
0010
0000
0100
0000
0001
0000
0010
0000
0200
0000
0001
0000
0000
0000
0010
0000
0000
0000
1300
0000
,  // measure 27
0000
0001
0100
0001
0020
0000
0230
1000
0000
1300
0100
1000
0020
0000
0130
0001
,  // measure 28
1000
0000
0000
0001
0100
0001
1000
0001
0100
0010
1000
0100
0001
0100
0010
0100
,  // measure 29
1000
0000
0000
0002
0010
0000
1003
0001
0100
0000
0000
0100
0020
0000
2030
0000
,  // measure 30
3001
0000
0000
2000
0100
0000
3001
0100
0010
0000
0000
0000
0000
0100
0010
0100
,  // measure 31
0102
0000
0013
0000
2100
0000
3001
0200
1000
0000
0010
0000
0002
0000
0303
0000
,  // measure 32
0011
0000
0010
0000
0100
0000
1000
0000
0001
1000
0010
0000
0100
0000
0000
0000
1010
0000
0010
0000
0100
0000
0001
0000
1000
0001
0010
0000
0100
0000
0000
0000
,  // measure 33
2100
0000
3010
0000
0102
0000
1003
0200
0001
0000
0010
0000
2000
0000
3300
0000
,  // measure 34
1100
0000
0100
0000
0010
0000
0001
0000
1000
0001
1000
0001
0100
0000
0000
0000
0101
0000
0100
0000
0010
0000
1000
0000
0001
1000
0001
1000
0100
0000
0000
0000
,  // measure 35
0110
0000
0010
0011
0000
0010
0110
0000
0010
1020
0000
0130
1000
0001
0100
0010
,  // measure 36
0110
0000
0000
0000
0010
0000
1010
0000
0000
0000
0010
0000
0110
0000
0000
0000
0010
0000
0021
0000
0000
0000
0130
0000
0001
0000
1000
0000
0001
0000
0010
0100
,  // measure 37
0010
0000
0100
1100
0000
0100
0110
0000
0100
0201
0000
0310
0001
1000
0010
0000
,  // measure 38
0102
0000
0000
0000
0013
0000
0100
0000
2100
0000
0000
0000
3010
0000
0100
0000
0001
0100
0010
0000
1000
0100
0010
0000
2100
0000
0000
0000
3010
0000
0000
0000
,  // measure 39
2100
0000
0000
0000
3010
0000
0100
0000
0102
0000
0000
0000
0013
0000
0100
0000
1000
0100
0010
0000
0001
0100
0010
0000
0102
0000
0000
0000
0013
0000
0000
0000
,  // measure 40
0102
0000
0000
0000
0013
0000
0100
0000
2100
0000
0000
0000
3010
0000
1000
0000
0100
0010
0001
0000
0100
0010
1000
0000
1002
0000
0000
0000
0103
0000
0000
0000
;

//---------------dance-single - ----------------
#NOTEDATA:;
#CHARTNAME:;
#STEPSTYPE:dance-single;
#DESCRIPTION:;
#CHARTSTYLE:;
#DIFFICULTY:Medium;
#METER:10;
#RADARVALUES:0.341212,0.374127,0.174342,0.156908,0.139474,274.000000,254.000000,20.000000,18.000000,0.000000,0.000000,0.000000,0.000000,0.000000,0.341212,0.374127,0.174342,0.156908,0.139474,274.000000,254.000000,20.000000,18.000000,0.000000,0.000000,0.000000,0.000000,0.000000;
#CREDIT:nobarben;
#NOTES:
// measure 0
0000
0000
0000
0000
,  // measure 1
0000
0000
0000
0000
,  // measure 2
1000
0100
1000
0001
1000
0010
0100
0000
,  // measure 3
0001
0100
0001
1000
0001
0010
0100
0000
,  // measure 4
1000
0100
0001
0000
0001
0100
1000
0000
,  // measure 5
1001
0000
1000
0001
0010
0000
0100
0100
,  // measure 6
0100
1000
0001
1000
0010
0100
0010
0000
,  // measure 7
0100
0001
1000
0001
0010
0100
0010
0000
,  // measure 8
0001
0100
1000
0000
1000
0100
0001
0000
,  // measure 9
1001
0000
1000
0001
0010
0010
0010
0000
,  // measure 10
0100
0000
0000
0100
0000
0000
0100
0000
0000
0100
0000
0000
0100
0000
0000
0000
,  // measure 11
1000
0000
0000
1000
0000
0000
1000
0000
0000
1000
0000
0000
1000
0000
0000
0000
,  // measure 12
0001
0000
0000
0001
0000
0000
0001
0000
0000
0001
0000
0000
0001
0000
0000
0000
,  // measure 13
1000
0000
0010
0000
0100
0000
0001
1000
0001
0000
0010
0000
0220
0000
0330
0000
,  // measure 14
0001
0100
0010
0010
1000
0100
0010
0010
,  // measure 15
0001
0000
0010
0000
0100
0000
1000
0001
1000
0000
0010
0000
0220
0000
0330
0000
,  // measure 16
1000
0100
0010
0010
0001
0100
0010
0010
,  // measure 17
1000
0000
0000
0100
0000
0000
0010
0000
0000
0002
0000
0000
1003
0000
0000
0000
,  // measure 18
0001
0000
0000
0100
0000
0000
0010
0000
0000
2000
0000
0000
0002
0000
3003
0000
,  // measure 19
1000
0000
0000
0100
0000
0000
0010
0000
0000
0002
0000
0000
1003
0000
0000
0000
,  // measure 20
0001
0100
1000
0100
0001
0001
1001
0000
,  // measure 21
2000
0000
0000
0000
0000
0000
0010
3010
,  // measure 22
1000
0100
0001
0100
1000
0100
0010
0000
,  // measure 23
0001
0001
1000
1000
0001
0100
0220
0330
,  // measure 24
1000
1000
0001
0001
1000
0100
0220
0330
,  // measure 25
0001
0100
0010
1000
0001
0010
0100
0000
,  // measure 26
1000
0100
0010
0001
1000
0010
0100
0000
,  // measure 27
0001
0010
1000
0000
1000
0010
0001
0000
,  // measure 28
1001
0000
1000
0001
0010
0010
0010
0001
,  // measure 29
1000
0000
0000
0100
0000
0000
1000
0000
0000
0001
0000
0000
1000
0000
0000
0000
,  // measure 30
0001
0000
0000
0100
0000
0000
0001
0000
0000
1000
0000
0000
0001
0000
0000
0000
,  // measure 31
1000
0000
0100
0000
0001
0000
0100
0010
0100
0000
0010
0000
0110
0000
0000
0000
,  // measure 32
0001
0100
0001
0000
1000
0000
0001
0000
1000
0100
1000
0000
0100
0000
0010
0000
,  // measure 33
0001
0000
0100
0000
1000
0000
0100
0010
0100
0000
0010
0000
0110
0000
0000
0000
,  // measure 34
1000
0010
1000
0000
0100
0000
0010
0000
0001
0010
0001
0000
0100
0000
0010
0000
,  // measure 35
1000
0000
0000
0100
0000
0000
0010
0000
0000
0012
0000
0000
1003
0000
0000
0000
,  // measure 36
0001
0000
0000
0100
0000
0000
0010
0000
0000
2010
0000
0000
0002
0000
3003
0000
,  // measure 37
1000
0000
0000
0010
0000
0000
0100
0000
0000
0102
0000
0000
1003
0000
0000
0000
,  // measure 38
0001
0011
1000
1010
0001
1000
1001
0001
,  // measure 39
1000
0000
0000
0000
0110
0000
0000
0000
1000
0001
1000
0000
1001
0000
0000
0000
,  // measure 40
0010
0000
0000
0000
1001
0000
0000
0000
0001
1000
0100
0000
0210
0000
1300
0000
;

//---------------dance-single - ----------------
#NOTEDATA:;
#CHARTNAME:;
#STEPSTYPE:dance-single;
#DESCRIPTION:;
#CHARTSTYLE:;
#DIFFICULTY:Easy;
#METER:6;
#RADARVALUES:0.252796,0.285049,0.156908,0.174342,0.000000,203.000000,185.000000,18.000000,20.000000,0.000000,0.000000,0.000000,0.000000,0.000000,0.252796,0.285049,0.156908,0.174342,0.000000,203.000000,185.000000,18.000000,20.000000,0.000000,0.000000,0.000000,0.000000,0.000000;
#CREDIT:nobarben;
#NOTES:
// measure 0
0000
0000
0000
0000
,  // measure 1
0000
0000
0000
0000
,  // measure 2
1000
0001
0100
0100
,  // measure 3
0001
1000
0100
0100
,  // measure 4
1000
0100
1000
0000
0001
0100
0001
0000
,  // measure 5
1001
0002
0103
0020
,  // measure 6
1030
0001
0010
0010
,  // measure 7
0001
1000
0010
0010
,  // measure 8
1000
0010
1000
0000
0001
0010
0001
0000
,  // measure 9
1001
0000
1000
0000
0100
0100
0100
0000
,  // measure 10
2000
3000
0002
0003
,  // measure 11
0200
0300
0020
0030
,  // measure 12
2000
3000
0002
0003
,  // measure 13
1000
0100
0010
0000
0001
1000
1001
0000
,  // measure 14
0001
0001
0001
0000
1000
1000
1000
0000
,  // measure 15
0001
0100
0010
0000
1000
0001
1001
0000
,  // measure 16
1000
1000
1000
0000
0010
0010
0010
0000
,  // measure 17
1000
0000
0001
1000
0001
0000
1001
0000
,  // measure 18
0100
0000
0010
0100
0010
0000
0110
0000
,  // measure 19
0001
0000
1000
0001
1000
0000
1001
0000
,  // measure 20
0002
0003
2000
3000
0100
0010
0110
0000
,  // measure 21
2000
0000
3000
0002
,  // measure 22
1003
0000
0001
0000
0010
0001
0010
0000
,  // measure 23
0001
0000
0100
0000
0010
1000
0002
0000
,  // measure 24
1003
0000
0100
0000
0010
0001
2000
0000
,  // measure 25
3001
0000
1000
0000
0010
0100
0010
0000
,  // measure 26
1000
0000
0001
0000
0010
0100
0010
0000
,  // measure 27
0001
0100
0010
0000
1000
0100
0010
0000
,  // measure 28
0001
0000
1000
0001
1000
0001
1000
0000
,  // measure 29
0200
0300
0020
0030
,  // measure 30
0002
0003
2000
3000
,  // measure 31
0001
0100
0010
0000
1000
0001
1001
0000
,  // measure 32
1000
1000
1000
0000
0001
0001
0001
0000
,  // measure 33
1000
0100
0010
0000
0001
1000
1001
0000
,  // measure 34
0001
0001
0001
0000
0010
0010
0010
0000
,  // measure 35
0001
0000
1000
0001
1000
0000
1001
0000
,  // measure 36
0100
0000
0010
0100
0010
0000
0110
0000
,  // measure 37
1000
0000
0001
1000
0001
0000
1001
0000
,  // measure 38
2000
3000
0002
0003
0100
0010
0110
0000
,  // measure 39
0010
0000
1001
0000
1000
0001
1001
0000
,  // measure 40
0010
0000
1001
0000
0010
0100
0110
0100
;
