#VERSION:0.83;
#TITLE:IOR;
#SUBTITLE:;
#ARTIST:ariiol;
#TITLETRANSLIT:;
#SUBTITLETRANSLIT:;
#ARTISTTRANSLIT:;
#GENRE:;
#CREDIT:;
#MUSIC:IOR.ogg;
#BANNER:IOR-bn.png;
#BACKGROUND:IOR-bg.png;
#CDTITLE:;
#SAMPLESTART:34.514;
#SAMPLELENGTH:11.361;
#SELECTABLE:YES;
#OFFSET:0.989;
#BPMS:0.000=169.000;
#STOPS:;
#SCROLLS:0.000=1.000,
32.000=0.000,
32.250=0.125,
32.500=0.250,
32.750=0.375,
33.000=0.500,
33.250=0.625,
33.500=0.750,
33.750=0.875,
34.000=1.000,
96.000=0.000,
96.250=0.125,
96.500=0.250,
96.750=0.375,
97.000=0.500,
97.250=0.625,
97.500=0.750,
97.750=0.875,
98.000=1.000,
192.000=0.000,
192.250=0.125,
192.500=0.250,
192.750=0.375,
193.000=0.500,
193.250=0.625,
193.500=0.750,
193.750=0.875,
194.000=1.000,
224.000=0.000,
224.250=0.125,
224.500=0.250,
224.750=0.375,
225.000=0.500,
225.250=0.625,
225.500=0.750,
225.750=0.875,
226.000=1.000
;
#JACKET:;
#DISCIMAGE:;
#CDIMAGE:;
#BGCHANGES:;
#FGCHANGES:;

//--------------- dance-single - XMOD JU ----------------
#NOTEDATA:;
#STEPSTYPE:dance-single;
#DESCRIPTION:XMOD JU;
#DIFFICULTY:Hard;
#METER:13;
#RADARVALUES:0,0,0,0,0;
#CHARTNAME:;
#CHARTSTYLE:;
#CREDIT:Talkion;
#METERF:13;
#NOTES:
0000
0000
0000
0000
,
0000
0000
0000
0000
,
0000
0000
0000
0000
,
0000
0000
0000
0000
,
0000
0000
0000
0000
,
0000
0000
0000
0000
,
0000
0000
0000
0000
,
0000
0000
0000
0000
,
101M
0000
0000
0000
0010
0100
0001
0000
,
0011
0000
0010
0000
0100
0010
0001
0101
,
0000
0100
0010
1000
0001
0011
0000
1000
,
1010
0000
0010
0000
0100
0010
1000
1001
,
0000
0000
0011
0000
0000
0000
1100
0000
1000
0000
0000
0001
0000
0000
1000
0000
,
1010
0000
0010
0000
0100
0010
1000
1100
,
0000
0100
0010
0001
1000
1010
0000
0001
,
0011
0000
0000
0000
0010
0000
0000
0000
0100
0000
0000
0010
0000
0000
1001
0000
,
0000
0000
0000
0000
0001
0100
0010
0000
,
1010
0000
1000
0000
0001
0000
0000
0000
0010
0000
0000
0010
0000
0000
0100
0000
,
0010
0000
0001
0000
1000
0000
0000
0000
0010
0000
0000
0010
0000
0000
0100
0000
,
0010
0000
1000
0000
0100
0000
0000
0000
1000
0000
0000
1000
0000
0000
0100
0000
,
0010
0000
0001
0000
0100
0000
0000
0000
0110
0000
0000
1010
0000
0000
0110
0000
,
0010
0000
1000
0000
0010
0000
1000
0000
0001
0000
0000
0010
0100
0000
1000
0000
,
0001
0000
0100
0000
0001
0000
0100
0000
0010
0000
0000
1000
0001
0000
0010
0000
,
0100
0010
0001
1000
0010
0100
0010
1000
,
010M
0000
0000
0000
0010
0100
1000
0000
,
0001
0010
0001
0100
0001
0100
0010
1000
,
0001
0000
0010
0000
0001
0000
0000
1000
0000
1000
0000
0010
0100
0000
0000
0000
,
0001
0100
0001
0010
0001
0010
0100
1000
,
0001
0000
0100
0000
0010
0000
1000
0000
1001
0000
0000
0011
0000
0000
1001
0000
,
1000
0100
1000
0010
1000
0010
0100
0001
,
1000
0000
0100
0000
1000
0000
0000
0001
0000
0001
0000
0100
0010
0000
0000
0000
,
1000
0010
1000
0100
1000
0100
0010
0001
,
1001
0000
0000
0000
0110
0000
0000
0000
1001
0000
0000
1010
0000
0000
1001
0000
,
0001
0100
0001
0010
0100
0010
0001
1000
,
0010
0000
0100
0000
0001
0000
0000
1000
0000
1000
0000
0100
0010
0000
0000
0000
,
0001
0010
0001
0100
0010
0100
0001
1000
,
1100
0000
0000
1001
0000
0000
1100
0000
0000
1001
0000
0000
0001
0100
0000
0001
,
0100
0010
1000
0100
0010
0100
1000
0001
,
0100
0000
0010
0000
1000
0000
0000
0001
0000
0001
0000
0010
0100
0000
0000
0000
,
1100
0001
0000
0000
0101
1000
0000
0000
,
1100
0000
0000
1001
0000
0000
1100
0000
0000
0000
0100
0000
0010
0000
0001
0000
,
0200
0000
0000
0000
0000
0000
0300
0000
0001
0000
0000
1000
0000
0000
0100
0000
,
0020
0000
0000
0000
0000
0000
0030
0000
0001
0000
0000
1000
0000
0000
0010
0000
,
0200
0000
0000
0300
0001
0000
1000
0000
,
0100
0000
0000
0000
1000
0000
0000
0000
0001
0000
0000
0100
0000
0000
0010
0000
,
2000
0000
0000
3000
0001
0000
0010
0000
,
0100
0010
0001
1000
,
0001
0100
0010
0100
,
00M1
0000
0000
0000
1000
0100
0010
0000
,
0011
0000
0001
0000
1000
0000
0010
0100
,
0010
1000
0000
0100
0010
0001
1000
0001
,
0200
0310
1000
0001
,
0010
0100
1000
0000
0100
0010
0001
0000
,
1000
0010
1000
0010
0100
0001
1000
0100
,
0010
0001
0010
0001
1000
0010
0100
0001
,
0100
0010
1000
0001
0010
0100
0010
0001
,
M100
0000
0000
0000
0010
0100
0001
0000
,
1000
0000
1100
0100
0010
0000
1100
0100
,
0010
0000
0010
0000
0001
0000
0100
0000
0001
1000
0001
0000
0010
0000
0100
0000
,
1000
0000
1010
0010
0100
0000
1010
0010
,
0100
0000
0001
1000
0001
0000
0010
0000
0200
0000
0000
0000
1300
0000
0010
0000
,
0100
0000
0101
0100
0010
0000
0101
0100
,
0010
0100
0010
0000
1000
0000
0100
0000
1000
0001
1000
0000
0010
0000
0100
0000
,
0001
0000
0011
0010
0100
0000
0011
0010
,
0100
0000
1000
0001
1000
0000
0010
0000
0200
0000
0000
0010
0000
0000
0301
0000
,
1000
0000
1100
1000
0010
0000
1100
1000
,
0010
0000
0010
0000
1000
0000
0001
0000
0010
0100
0010
0000
0001
0000
0100
0000
,
0010
0000
1010
1000
0100
0000
1010
1000
,
0100
0000
0010
0001
0010
0000
0100
0000
2000
0000
0010
0000
3010
0000
0000
0000
,
0110
0000
0100
0000
0001
0000
0010
0000
0100
0000
0000
1100
0000
0000
0011
0000
,
0000
0000
1002
0000
0000
0103
0000
0000
0001
0000
0020
0000
0000
0000
0030
0000
,
0110
0100
1000
0010
0100
0010
1000
1100
,
0000
0100
0010
0001
0100
0010
0100
0001
,
0012
0000
0000
0000
,
0000
0000
0000
0003
,
1000
0010
0100
0010
,
1000
0001
0010
0100
,
1000
0001
0100
0001
,
1000
0100
0010
0001
,
1000
0000
0010
0000
0100
0000
0010
0000
1000
0000
0001
0000
,
0010
0000
0100
0000
1000
0000
0100
0000
0010
0000
0001
0000
,
1002
0000
0000
0000
,
0003
0000
0000
0000
;

//--------------- dance-single - XMOD DS JU- ----------------
#NOTEDATA:;
#STEPSTYPE:dance-single;
#DESCRIPTION:XMOD DS JU-;
#DIFFICULTY:Challenge;
#METER:16;
#RADARVALUES:0,0,0,0,0;
#CHARTNAME:;
#CHARTSTYLE:;
#CREDIT:Talkion;
#METERF:16;
#NOTES:
0000
0000
0000
0000
,
0000
0000
0000
0000
,
0000
0000
0000
0000
,
0000
0000
0000
0000
,
0000
0000
0000
0000
,
0000
0000
0000
0000
,
0000
0000
0000
0000
,
0000
0000
0000
0000
,
101M
0000
0000
0000
0000
0000
0000
0000
0010
0100
0010
0000
1000
0000
0000
0000
,
1100
0100
0010
0100
1000
0010
0100
0101
,
0000
0000
0001
1000
0100
0000
0010
0100
1000
0000
1010
0000
0000
0000
0001
0000
,
0011
0000
0010
0100
0010
0000
0001
0000
1000
0000
0010
0100
0001
0000
1001
0000
,
0000
0000
0011
0000
0000
0000
1001
0000
1000
0000
0010
0100
0000
0000
0001
0000
,
0101
0100
0010
0100
0001
0010
0100
1100
,
0000
0000
1000
0001
0100
0000
0010
0100
0001
0000
0011
0000
0000
0000
1000
0000
,
1010
0000
0010
0100
0010
0000
1000
0000
0100
0000
0010
0100
0000
0000
1001
0000
,
0000
0000
0001
0000
0100
0000
0001
0000
0010
0100
0010
0000
0001
0000
0000
0000
,
0101
0000
0100
0000
0001
0000
0100
0000
0010
0000
0000
1000
0000
0000
0001
0000
,
1000
0000
0100
0000
1000
0000
0100
0000
0010
0000
0000
0001
0000
0000
1000
0000
,
0010
0000
0100
0000
0010
0000
0100
0000
0001
0000
0000
1000
0000
0000
0001
0000
,
0010
0000
0100
0000
0010
0000
0100
0000
1100
0000
0000
0101
0000
0000
1100
0000
,
1001
0000
0001
0000
0010
0000
0001
0000
0100
0000
0010
1000
0010
0000
0100
0000
,
0001
0000
1000
0000
0010
0000
1000
0000
0100
0000
0010
0001
0010
0000
0100
0000
,
1000
0001
1000
0000
0010
0100
0010
0000
1000
0001
0010
0001
1000
0010
0100
0001
,
M010
0000
0000
0000
0000
0000
0000
0000
0100
0010
0100
0000
1000
0000
0001
0000
,
0102
0000
1000
0000
0023
0000
0001
0000
0130
0010
0100
1000
0001
0000
0000
0000
,
0100
0010
0100
0000
0001
0000
1000
0100
0000
1000
0100
0010
0001
0000
0000
0000
,
0012
0000
1000
0000
0203
0000
0001
0000
0310
0100
0010
1000
0001
0000
0000
0000
,
0010
0100
1000
0000
0100
0010
0001
0000
1001
0000
0000
0101
0000
0000
1100
0000
,
2000
0000
0001
0000
3020
0000
1000
0000
0130
0010
0100
0001
1000
0000
0000
0000
,
0100
0010
0100
0000
1000
0000
0001
0100
0000
0001
0100
0010
1000
0000
0000
0000
,
2010
0000
0001
0000
3200
0000
1000
0000
0310
0100
0010
0001
1000
0000
0100
1000
,
0010
0000
1000
0000
0110
0000
0001
0000
0110
0000
0000
2000
0100
0000
3001
0000
,
0012
0000
0100
0000
2003
0000
0100
0000
3010
0100
0010
1000
0001
0000
1000
0100
,
0010
0001
0010
0000
0001
0000
1000
0010
0000
1000
0010
0100
0001
0000
0000
0000
,
0102
0000
0010
0000
2003
0000
0010
0000
3100
0010
0100
1000
0001
0000
0010
0001
,
0100
0000
0000
0101
0000
0000
1100
0000
0000
0101
0000
0000
0001
0100
0000
0010
,
2000
0000
0100
0000
3002
0000
0100
0000
0013
0100
0010
0001
1000
0000
0001
0100
,
0010
1000
0010
0000
1000
0000
0001
0010
0000
0001
0010
0100
1000
0000
0000
0000
,
1100
0000
0001
0000
0000
0000
0100
0001
0010
0000
0001
0000
0000
0000
0010
0001
,
0100
0000
0000
0101
0000
0000
1100
0000
1000
0001
0100
0010
1000
0000
0100
0000
,
0210
0000
0000
0000
0000
0000
1300
0000
0001
0000
0000
0100
0000
0000
0010
0000
,
0200
0000
0000
0001
0000
0000
0301
0000
1000
0000
0000
0100
0000
0000
0010
0000
,
0002
0000
0000
1000
0000
0000
1003
0000
0010
0000
0000
0100
0000
0000
0010
0000
,
1000
0000
0000
0001
0000
0000
0001
0000
0010
0000
0000
0100
0000
0000
1000
0000
,
0002
0000
0000
0100
0000
0000
0103
0000
0010
0000
0000
0100
0000
0000
0001
0000
,
1000
0000
0000
0100
0000
0000
0100
0000
0010
0000
0000
0001
0000
0000
1000
0000
,
0010
0000
0000
0100
0000
0000
0100
0000
0010
0000
0000
1000
0000
0000
0001
0000
,
M010
0000
0000
0000
0000
0000
0000
0100
0010
0000
0010
0000
0001
0000
0000
0000
,
0101
0000
0000
0100
0010
0000
1000
0000
0001
0000
0000
0010
0100
0000
1000
0000
,
0001
0100
0001
0100
0010
1000
0010
1000
,
0100
0000
0000
0010
0100
0000
1000
0000
0001
0000
0000
0100
0010
0000
1000
0000
,
0001
0010
0001
0010
0100
1000
0100
1000
,
0001
0000
0100
0010
0100
0000
0001
0000
1000
0000
0100
0010
0100
0000
1000
0000
,
0010
0000
0100
0010
1000
0000
0001
0000
0010
0000
0100
0010
0001
0000
0100
0000
,
0001
1000
0001
0000
0010
0100
0010
0000
0001
1000
0010
1000
0001
0010
0100
1000
,
001M
0000
0000
0000
0000
0000
0000
0000
0100
0010
0100
0000
0001
0000
1000
0000
,
1100
0000
0012
1000
0103
0001
0012
1000
,
0103
0010
1000
0000
0100
0000
1000
0001
0100
0010
1000
0000
0100
0000
1000
0000
,
0001
0000
0102
1000
0013
0001
0102
1000
,
0013
0100
1000
0000
0010
1000
0000
1000
0001
0010
0100
0010
0001
0000
0100
0000
,
0110
0000
2010
0001
3100
1000
2010
0001
,
3100
0010
0001
0000
0100
0000
0001
1000
0100
0010
0001
0000
0100
0000
0001
0000
,
1000
0000
2100
0001
3010
1000
2100
0001
,
3010
0100
0001
0000
0010
0001
0000
0001
1000
0010
0100
0010
1000
0000
0100
0000
,
0110
0000
0012
0100
1003
0010
0012
0100
,
1003
0100
0010
0000
0100
0000
1000
0010
1000
0100
0010
0000
0100
0000
1000
0000
,
0001
0000
0102
0010
1003
0100
0102
0010
,
1003
0010
0100
0000
0010
0000
1000
0100
1000
0000
0010
0100
0001
0100
0010
0000
,
1001
0000
1000
0000
0100
0000
1000
0000
0001
0000
0010
0100
0000
1000
0010
0000
,
0000
0000
0110
0000
0000
0100
0001
0100
0001
0000
0020
0000
0000
0000
0031
0000
,
1001
0000
1000
0000
0010
0000
1000
0000
0001
0000
0010
0100
0010
0001
0100
0000
,
0000
0000
0010
0100
0010
0000
1000
0000
0002
0000
0100
0000
1000
0000
0013
0000
,
0120
0000
0000
0000
,
0000
0000
0000
0030
,
0001
0000
1000
0001
0100
0001
1000
0100
,
0010
0000
0001
1000
0010
0100
0010
1000
,
0100
0000
1000
0001
0010
0001
1000
0010
,
0100
0000
0001
1000
0100
0010
0100
1000
,
0010
0000
1000
0000
0001
0000
0010
0000
0100
0000
0010
0000
,
0001
0000
1000
0000
0010
0000
0100
0000
0010
0000
1000
0000
,
1001
0000
0000
0000
;
