#VERSION:0.83;
#TITLE:Hyper Active;
#SUBTITLE:;
#ARTIST:HiTECH NINJA;
#TITLETRANSLIT:;
#SUBTITLETRANSLIT:;
#ARTISTTRANSLIT:;
#GENRE:;
#CREDIT:;
#MUSIC:Hyper Active.ogg;
#BANNER:banner.png;
#BACKGROUND:background.png;
#CDTITLE:;
#SAMPLESTART:95.002;
#SAMPLELENGTH:20.000;
#SELECTABLE:YES;
#OFFSET:-0.522;
#BPMS:0.000=160.000;
#STOPS:;
#SPEEDS:0.000=1.000=0.000=0;
#SCROLLS:0.000=1.000;
#TICKCOUNTS:0.000=4;
#TIMESIGNATURES:0.000=4=4,
132.000=3=4,
156.000=4=4
;
#LABELS:0.000=Song Start;
#COMBOS:0.000=1;
#ORIGIN:;
#TAGS:;
#PREVIEWVID:;
#JACKET:jacket.png;
#CDIMAGE:;
#DISCIMAGE:;
#BGCHANGES:;
#FGCHANGES:;

//--------------- dance-single - ----------------
#NOTEDATA:;
#STEPSTYPE:dance-single;
#DESCRIPTION:;
#DIFFICULTY:Beginner;
#METER:4;
#RADARVALUES:0.165726,0.221971,0,0,0,166,166,0,0,0,0,0,0,0,0.165726,0.221971,0,0,0,166,166,0,0,0,0,0,0,0;
#CHARTNAME:;
#CHARTHASH:105308851;
#BANNER:;
#CHARTSTYLE:;
#METERF:0.000000;
#LASTSECONDHINT:136.647003;
#CREDIT:ZSL;
#NOTES:
0000
0000
0000
0000
,
0000
0000
0000
0000
,
0000
0000
0000
0000
,
0000
0000
0000
0000
,
0000
0000
0000
0000
,
1000
0000
1000
0000
,
0010
0000
0100
0000
,
0001
0001
0001
0001
,
1000
0000
0010
0000
,
1000
0000
0001
0000
,
1000
0000
0100
0000
,
1000
0000
0001
0000
,
0010
0000
0001
0000
,
1000
0000
0010
0000
,
1000
0000
0001
0000
,
1000
0000
0010
0000
,
0100
0000
0001
0000
,
1000
0000
0100
0000
,
0010
0000
0100
0000
,
1000
0000
0001
0000
,
0100
0000
0010
1000
,
0001
0000
0100
0000
,
0010
0000
0100
0000
,
0001
0000
1000
0000
,
0100
0000
0010
0100
,
1000
0000
0010
0000
,
0100
0000
0001
0000
,
0010
0000
0100
0000
,
1000
0000
0010
0000
,
0000
0000
0100
0000
,
0010
0000
1000
0000
,
0100
0000
0010
0000
,
0001
0000
0000
0000
,
1000
0000
0000
0001
,
0000
0000
0100
0000
,
0000
0010
0000
0000
,
1000
0000
0000
0001
,
0000
0000
0010
0000
,
0000
0100
0000
0000
,
1000
1000
0000
0000
,
0001
0000
0000
0000
,
0100
0100
0000
0000
,
0010
0010
0000
0000
,
1000
0000
0000
0000
,
0001
0001
0000
0000
,
0010
0000
0100
0000
,
0010
0000
0100
0000
,
1000
0000
0001
0000
,
1000
0000
0001
0000
,
0100
0000
0010
0000
,
0100
0000
0010
0000
,
1000
0000
0001
0000
,
0010
0000
0001
0001
,
0001
0000
0000
0000
,
1000
0000
0000
0000
,
0010
0000
0000
0000
,
0100
0000
0000
0000
,
0010
0000
0000
0000
,
0100
0000
0000
0000
,
0001
0000
0000
0000
,
1000
1000
1000
1000
,
0001
0000
0000
0000
,
0010
0000
0000
0000
,
0100
0000
1000
0000
,
0001
0000
0100
0000
,
0010
0100
0001
0000
,
1000
0000
0010
0000
,
0100
0000
0001
0000
,
1000
0000
0100
0000
,
0010
0100
1000
0000
,
0001
0000
1000
0000
,
0010
0000
1000
0000
,
0001
0000
0010
0000
,
0100
0010
0001
0000
,
1000
0000
0100
0000
,
0010
0000
0001
0000
,
1000
0000
0010
0000
,
0100
0010
1000
0000
,
0001
0000
0000
1000
,
0001
0000
0010
0000
,
0100
0000
1000
0000
,
0010
0000
0100
0000
,
0001
0000
0010
0001
,
0100
0000
0010
0000
,
1000
0000
0100
0000
,
0010
0000
0100
0000
,
1000
0010
0100
0001
,
1000
0000
0000
0000
,
0001
0000
0000
0000
,
0010
0000
0000
0000
,
0100
0000
0000
1000
;

//--------------- dance-single - ----------------
#NOTEDATA:;
#STEPSTYPE:dance-single;
#DESCRIPTION:;
#DIFFICULTY:Easy;
#METER:7;
#RADARVALUES:0.297509,0.288536,0.048919,0.013977,0.003494,298,291,7,2,0,0,0,0,0,0.297509,0.288536,0.048919,0.013977,0.003494,298,291,7,2,0,0,0,0,0;
#CHARTNAME:;
#CHARTHASH:70445026;
#BANNER:;
#CHARTSTYLE:;
#METERF:0.000000;
#LASTSECONDHINT:138.147003;
#CREDIT:ZSL;
#NOTES:
0000
0000
0000
0000
,
0000
0000
0000
0000
,
0000
0000
0000
0000
,
0000
0000
0000
0000
,
0000
0000
0000
0000
,
1000
0000
0000
0100
0000
0000
0010
0000
,
0001
0000
0000
0000
0000
0000
0000
0000
0000
0000
0000
0000
1000
0000
0000
0000
0020
0000
0000
0000
0000
0000
0000
0030
0000
0000
0000
0000
0000
0000
0000
0000
,
0100
0100
0001
0001
,
1000
0100
0010
0000
,
0001
1000
0010
1000
,
0001
0010
0100
0010
,
0001
0001
1000
1000
,
0010
0100
0001
0000
,
1000
0100
0010
1000
,
0010
0001
0100
0010
,
0100
0001
0010
1000
,
0010
0100
1000
0000
,
0001
0100
0010
0100
,
0001
0010
0100
1000
,
0100
0010
0001
1000
,
0010
0100
0010
0010
,
1000
0100
0010
0100
,
1000
0010
0100
0001
,
1000
0100
0010
0001
,
1000
0010
0000
0000
,
0001
0010
1000
0010
,
0001
0010
1000
0100
,
0001
0100
1000
0100
,
0001
0100
1000
0001
,
0000
0100
0001
0100
,
1000
0100
0001
0100
,
1000
0100
0001
0010
,
0100
0000
1000
0000
,
0001
0000
0000
0100
0000
0000
0110
0000
,
0000
1000
0000
0000
0100
0000
0000
0010
,
0000
0000
0011
0000
0000
0001
0000
0000
,
1000
0000
0000
0100
0000
0000
0110
0000
,
0000
0001
0000
0000
0100
0000
0000
0010
,
0000
0000
1010
0000
0000
1000
0000
0000
,
0100
0100
1000
0001
,
0000
0100
0000
0010
,
1000
1000
0100
0010
,
0001
0001
0100
0010
,
0000
1000
0000
0001
,
0010
0100
1000
0000
,
0001
0001
0001
0000
,
1000
0010
0100
0000
,
0010
0010
0010
0000
,
1000
0001
0010
0100
,
1000
1000
1000
0000
,
0001
0010
0100
0000
,
0010
0010
0010
0000
,
0001
1000
0010
0100
,
0001
0000
1000
0000
,
0010
0000
0100
0000
,
0001
0000
1000
0000
,
0100
0000
0010
0000
,
0100
1000
0100
0000
,
0010
0001
0010
0000
,
0001
0100
0010
1000
,
0100
0010
0100
1000
,
0010
0000
0000
0000
,
0100
0000
0001
0000
,
1000
0100
0010
0100
,
1000
0001
0100
0010
,
0001
0010
0100
0001
,
0010
0100
1000
0001
,
1000
0010
0100
0010
,
1000
0001
0010
0100
,
0001
0100
0010
0001
,
0100
0000
0101
0000
,
0001
0100
0010
0100
,
0001
1000
0100
0010
,
1000
0010
0100
1000
,
0010
0100
0001
1000
,
0001
0010
0100
0010
,
0001
1000
0010
0100
,
1000
0100
0010
1000
,
0100
0000
0000
1100
0000
0000
0010
0000
,
1000
0010
0001
0010
,
1000
0010
0001
0100
,
1000
0100
0001
0100
,
1000
0100
0001
1000
,
0000
0100
1000
0100
,
0001
0100
1000
0100
,
0001
0100
1000
0010
,
0100
0000
0001
1001
,
1000
0000
0000
0010
0000
0000
0100
0000
,
0001
0000
0000
0010
0000
0000
0100
0000
,
1000
0000
0000
0100
0000
0000
0010
0000
,
0001
0000
0000
1000
0000
0000
0020
0000
,
0000
0000
0000
0030
;

//--------------- dance-single - ----------------
#NOTEDATA:;
#STEPSTYPE:dance-single;
#DESCRIPTION:;
#DIFFICULTY:Medium;
#METER:11;
#RADARVALUES:0.425298,0.480894,0.006988,0.034942,0.223631,426,425,1,5,0,0,0,0,0,0.425298,0.480894,0.006988,0.034942,0.223631,426,425,1,5,0,0,0,0,0;
#CHARTNAME:;
#CHARTHASH:352923566;
#BANNER:;
#CHARTSTYLE:;
#METERF:0.000000;
#LASTSECONDHINT:138.147003;
#CREDIT:ZSL;
#NOTES:
0000
0000
0000
0000
,
0000
0000
0000
0000
,
0000
0000
0000
0000
,
0000
0000
0000
0000
,
0000
0000
0000
0000
,
1000
0000
0000
0000
0000
0000
0010
0000
0000
0100
0000
0000
0001
0000
0000
0000
,
1000
0000
0000
0000
0000
0000
0000
0000
0000
0000
0000
0000
0100
0000
0000
0000
0020
0000
0000
0000
0000
0000
0000
0030
0000
0000
0000
0000
0000
0000
0000
0000
,
0200
0000
2300
0000
3010
1000
0001
1000
,
0100
0000
0010
0000
0001
1000
0001
0000
,
0100
0000
0000
0010
0000
0000
0000
0000
1000
0000
0000
0001
0000
0000
0000
0000
,
0010
0000
0000
0100
0000
0000
0000
0000
0010
0000
0000
0001
0000
0000
0000
0000
,
0100
0000
0000
0010
0000
0000
0000
0000
1000
0000
0000
1000
0000
0000
0000
0000
,
0001
0000
0000
0001
0000
0000
0010
0000
0100
0000
0000
0000
0000
0000
0000
0000
,
1000
0000
0000
0010
0000
0000
1000
0000
0000
0100
0000
0000
0010
0000
0000
0000
,
0001
0000
0000
0010
0000
0000
0001
0000
0000
0100
0000
0000
0010
0000
0010
0000
,
1000
0000
0000
0100
0000
0000
1000
0000
0000
0010
0000
0000
0100
0000
0100
0000
,
0001
1000
0010
0100
,
0001
0010
0100
0000
1000
0000
0010
0000
,
0100
0010
1000
0000
0100
0000
0010
0000
,
0001
0100
0010
0000
0100
0000
0001
0000
,
0010
0100
1000
0000
0001
0100
0001
0000
,
1000
0010
0100
0000
0001
0000
0010
0000
,
0100
0010
0001
0000
0100
0000
0010
0000
,
1000
0100
0010
0000
0100
0000
1000
0000
,
0010
0100
0001
1000
0100
0000
0000
0000
,
1000
0000
0000
0100
0000
0000
1000
0000
0001
0000
0000
0000
0100
0000
0000
0000
,
0010
0000
0000
0100
0000
0000
0001
0000
1000
0000
0000
0000
0100
0000
0000
0000
,
0010
0000
0000
0001
0000
0000
0100
0000
0010
0000
0000
0000
1000
0000
0000
0000
,
0001
0000
0000
0100
0000
0000
0001
0000
0010
0000
0000
0000
0100
0000
0000
0000
,
0000
0000
1000
0000
0100
0000
0010
0000
0001
0000
0000
1000
0000
0000
0010
0000
,
0100
0000
0000
0010
0000
0000
1000
0000
0100
0000
0000
0010
0000
0000
0001
0000
,
1000
0000
0000
0010
0000
0000
0100
0000
0001
0000
0000
0000
0010
0000
0100
0000
,
1000
0000
0100
0010
0000
0000
0000
0000
0001
0000
1000
0000
0001
0000
0000
0000
,
1000
0000
1000
0010
0000
0010
0100
0000
,
0000
0001
0000
0000
1000
0000
1000
0100
,
0000
0100
0010
0000
0000
0001
0000
0000
,
0100
0000
0100
0010
0000
0010
1000
0000
,
0000
0001
0000
0000
0010
0000
0010
0100
,
0000
0100
1000
0000
0000
0001
0000
0000
,
0100
0100
0010
1000
,
0100
0010
0100
1000
,
0001
0001
0100
0010
,
1000
1000
0100
0010
,
0100
1000
0001
0100
,
0010
0010
0100
0001
,
1001
0000
0000
1000
0000
0001
0000
1000
0000
0000
0000
0000
0010
0000
0000
0000
,
0100
0001
1000
0100
,
0010
0000
0000
0100
0000
1000
0000
0100
0000
0000
0000
0000
0010
0000
0000
0000
,
0001
1000
0010
0100
,
0001
0000
0000
0100
0000
0010
0000
1000
0000
0000
0000
0000
0001
0000
0000
0000
,
0010
0100
0010
0001
,
1000
0000
0000
0010
0000
0100
0000
0001
0000
0000
0000
0000
1000
0000
0000
0000
,
0100
0010
0100
0000
1000
0001
0100
0000
,
0010
0000
0000
1000
0001
0000
0010
0000
,
0100
1000
0010
0100
,
0001
0000
0000
1000
0100
0000
0010
0000
,
0100
1000
0010
0100
,
0001
0001
1000
1000
,
0100
0100
0010
0010
,
0100
1000
0100
0000
1000
0010
1000
0000
,
0010
0100
0010
0100
0001
0010
0001
0010
,
0100
0000
0000
0000
,
1000
0000
0000
0000
0002
0000
0000
0003
0100
0000
0000
0000
0000
0000
0000
0000
,
0010
0000
1000
0000
0001
0000
1000
0000
0100
0000
0000
0100
0000
0000
0000
0000
,
0010
0000
0001
0000
1000
0000
0010
0000
0100
0000
0000
0100
0000
0000
0000
0000
,
0001
1000
0100
0010
0100
1000
0001
0000
,
0100
0000
0000
0000
0010
0000
1000
0000
0100
0000
0000
0010
0000
0000
0000
0000
,
0001
0000
1000
0000
0010
0000
1000
0000
0100
0000
0000
0010
0000
0000
0000
0000
,
0100
0000
1000
0000
0001
0000
0100
0000
0010
0000
0000
0010
0000
0000
0000
0000
,
1000
0001
0100
0010
1000
0001
0010
0001
,
0100
0000
0000
0010
0000
0000
0100
0000
0001
0000
0000
0000
0000
0000
0000
0000
,
0010
0000
0001
0000
1000
0000
0001
0000
0100
0000
0000
0100
0000
0000
0000
0000
,
0010
0000
1000
0000
0001
0000
0010
0000
0100
0000
0000
0100
0000
0000
0000
0000
,
1000
0001
0100
0010
0100
0001
1000
0000
,
0100
0000
0000
0000
0010
0000
0001
0000
0100
0000
0000
0010
0000
0000
0000
0000
,
1000
0000
0001
0000
0010
0000
0001
0000
0100
0000
0000
0010
0000
0000
0000
0000
,
0100
0000
0001
0000
1000
0000
0100
0000
0010
0000
0000
0010
0000
0000
0000
0000
,
0001
1000
0100
0010
0001
1000
0010
1000
,
0100
0000
0000
0010
0000
0000
0100
0000
0000
1000
0000
0000
0001
0000
0000
0000
,
0001
0000
0000
0100
0000
0000
0001
0000
1000
0000
0000
0000
0100
0000
0000
0000
,
0010
0000
0000
0100
0000
0000
1000
0000
0001
0000
0000
0000
0100
0000
0000
0000
,
0010
0000
0000
1000
0000
0000
0100
0000
0010
0000
0000
0000
0001
0000
0000
0000
,
1000
0000
0000
0100
0000
0000
1000
0000
0010
0000
0000
0000
0100
0000
0000
0000
,
0001
0000
0000
0100
0000
0000
0001
0000
1000
0000
0000
0001
0000
0000
0010
0000
,
0100
0000
0000
0010
0000
0000
0001
0000
0100
0000
0000
0010
0000
0000
1000
0000
,
0001
0000
0000
0010
0000
0000
0100
0000
1000
0000
0000
0000
0010
0000
0100
0000
,
0001
0000
0100
0010
0000
0000
0000
0000
1000
0000
0001
0000
0010
0000
0000
0000
,
0100
0000
0000
0000
0000
0000
0010
0000
0000
0100
0000
0000
1000
0000
0000
0000
,
0001
0000
0000
0000
0000
0000
0100
0000
0000
0010
0000
0000
1000
0000
0000
0000
,
0001
0000
0000
0000
0000
0000
1000
0000
0000
0100
0000
0000
0010
0000
0000
0000
,
0100
0000
0000
0000
0000
0000
1000
0000
0000
0010
0000
0000
0200
0000
0000
0000
,
0000
0000
0000
0300
;

//--------------- dance-single - ----------------
#NOTEDATA:;
#STEPSTYPE:dance-single;
#DESCRIPTION:;
#DIFFICULTY:Hard;
#METER:13;
#RADARVALUES:0.577047,0.609132,0.062896,0.279538,0.398342,578,569,9,40,0,0,0,0,0,0.577047,0.609132,0.062896,0.279538,0.398342,578,569,9,40,0,0,0,0,0;
#CHARTNAME:;
#CHARTHASH:33453949;
#BANNER:;
#CHARTSTYLE:;
#METERF:0.000000;
#LASTSECONDHINT:138.147003;
#CREDIT:ZSL;
#NOTES:
0000
0000
0000
0000
,
0000
0000
0000
0000
,
0000
0000
0000
0000
,
0000
0000
0000
0000
,
0000
0000
0000
0000
,
1000
0000
0000
0001
0000
0000
1000
0000
0000
0001
0000
0000
0100
0000
0000
0000
,
0010
0000
0000
0000
0000
0000
1000
0000
0000
0000
0000
0000
0001
0000
0000
0000
0020
0000
0000
0000
0000
0000
0000
0030
0000
0000
0000
0000
0000
0000
0000
0000
,
0100
1000
0100
1000
0001
0100
0010
1000
,
0001
0000
0000
0000
0010
0100
0000
0100
0010
0000
0001
0000
1000
0000
0000
0000
,
0001
0000
0000
0100
0000
0000
0010
0000
1000
0000
0000
0100
0000
0000
1000
0000
,
0010
0000
0000
0100
0000
0000
0001
0000
1000
0000
0000
0100
0000
0000
0010
0000
,
0001
0000
0000
0100
0000
0000
0000
0000
0010
0000
0000
1000
0000
0000
0000
0000
,
0100
0000
0000
0010
0000
0000
0100
0000
1000
0000
0000
0000
0002
0000
2003
0000
,
3010
0000
0000
0100
0000
0000
0001
0000
0000
0010
0000
0000
1000
0000
0000
0000
,
0010
0000
0000
0001
0000
0000
0100
0000
0000
0010
0000
0000
0001
0000
0010
0000
,
1000
0000
0000
0001
0000
0000
0010
0000
0000
0100
0000
0000
0001
0000
0100
0000
,
2000
3001
1000
0010
0100
0000
0010
0000
,
1000
0000
0002
0010
0000
0000
0013
0000
0001
0000
2000
0010
0000
0000
3010
0000
,
0100
0000
0002
1000
0000
0000
1003
0000
0100
0000
2000
0001
0000
0000
3001
0000
,
0010
0000
0200
1000
0000
0000
1300
0000
0010
0000
0200
0001
0000
0000
0301
0000
,
1000
0000
0200
0010
0000
0000
0310
0000
0001
0000
0100
0000
0010
0000
1000
0000
,
0001
0000
0020
0100
0000
0000
0130
0000
1000
0000
0020
0100
0000
0000
0130
0000
,
0010
0000
2000
0100
0000
0000
3100
0000
0010
0000
0001
0000
0100
0000
0010
0000
,
1000
0001
0010
0000
0001
1000
0010
0010
,
0100
0010
1000
0001
0010
0000
0000
0000
,
0100
0000
2000
0001
0000
0000
3100
0000
0010
0000
0002
1000
0000
0000
0013
0000
,
0001
0000
0200
0010
0000
0000
0301
0000
1000
0000
0200
0010
0000
0000
1300
0000
,
0010
0000
2000
0100
0000
0000
3001
0000
0010
0000
0002
0100
0000
0000
1003
0000
,
0100
0000
2000
0010
0000
0000
3001
0000
0100
0000
0001
0000
0010
0000
0100
0000
,
0000
0000
1000
0000
0010
0000
0100
0000
0001
0000
2000
0100
0000
0000
3010
0000
,
1000
0000
0002
0010
0000
0000
0103
0000
0010
0000
2000
0100
0000
0000
3010
0000
,
0100
0000
0002
0010
0000
0000
0103
0000
0001
1000
0000
0000
0100
0000
0010
0000
,
0100
0000
1000
0010
0000
0000
0000
0000
1000
0000
0001
0000
1000
0000
0000
0000
,
0001
0000
0001
0100
0000
0100
0110
0000
,
0010
1000
0000
1000
0100
0000
0100
0010
,
0000
0010
0011
0000
0001
1000
0000
1000
,
0010
0000
0010
0100
0000
0100
0101
0000
,
0001
1000
0000
1000
0100
0000
0100
1000
,
0000
1000
1010
0000
0010
0100
0000
0100
,
0001
1000
0001
0000
0010
0000
0100
0000
,
0010
0001
1000
0010
,
0100
0001
0100
0000
0010
0000
1000
0000
,
0100
0010
0100
0000
1000
0000
0010
0000
,
0100
0001
1000
0100
,
0010
0100
1000
0000
0010
0000
0100
0000
,
0101
0000
0000
0001
0000
1000
0000
0001
0000
0000
1000
0000
0100
0000
0010
0000
,
0001
0000
1000
0000
0010
0000
0100
0000
0001
1000
0000
1000
0001
0000
0001
0000
,
0100
0000
0000
0010
0000
1000
0000
0010
0000
0000
1000
0000
0100
0000
0010
0000
,
0001
1000
0010
0100
0001
0100
1000
0100
,
0010
0000
0000
0100
0000
0001
0000
0010
0000
0000
0100
0000
0010
0000
0001
0000
,
0100
0000
0010
0000
1000
0000
0001
0000
0010
0100
0000
0100
0010
0000
0010
0000
,
0100
0000
0000
0010
0000
0001
0000
0100
0000
0000
0001
0000
1000
0000
0010
0000
,
0100
0001
0010
0100
1000
0100
0001
0100
,
1000
0000
0000
0001
0000
0000
0100
0000
0010
0000
0000
0000
0100
0000
0000
0000
,
0001
1000
0100
0010
,
0100
0000
0000
1000
0000
0000
0001
0000
0100
0000
0000
0000
0010
0000
0000
0000
,
0100
0001
0010
0100
,
1000
0100
1000
0100
0010
0001
0010
0000
,
0001
0100
0001
0100
0010
1000
0010
0000
,
1000
0001
1000
0001
1000
0001
1000
0001
,
0100
0010
1000
0100
0010
0001
0100
0010
,
1000
0000
0000
0000
,
0001
0000
0000
0000
2000
0000
0000
3000
0010
0000
0000
0000
0000
0000
0000
0000
,
0100
0000
0001
0000
0010
0000
0100
0000
1000
0000
0000
1000
0000
0000
0001
0000
,
0100
0000
0010
0000
1000
0000
0100
0000
0010
0000
0000
0010
0000
0000
0000
0100
,
0001
0000
0100
0010
0000
0010
0001
0000
1000
0000
0010
0100
0000
0100
0001
0000
,
1000
0000
0010
0000
1000
0000
0001
0000
0010
0000
0000
0001
0000
0000
1000
0000
,
0010
0000
1000
0000
0100
0000
0010
0000
0001
0000
0000
0001
0000
0000
1000
0000
,
0010
0000
0100
0000
0001
0000
0010
0000
0100
0000
0000
0100
0000
0000
0000
0010
,
1000
0000
0010
0100
0000
0100
1000
0000
0001
0000
0100
0010
0000
0010
1000
0000
,
0001
0000
0000
0100
0000
0000
0110
0000
0001
0000
0100
0000
0010
0000
1000
0000
,
0100
0000
1000
0000
0010
0000
0100
0000
0001
0000
0000
0001
0000
0000
1000
0000
,
0100
0000
0010
0000
0001
0000
0100
0000
0010
0000
0000
0010
0000
0000
0000
0100
,
1000
0000
0100
0010
0000
0010
1000
0000
0001
0000
0010
0100
0000
0100
1000
0000
,
0001
0000
0010
0000
0001
0000
1000
0000
0010
0000
0000
1000
0000
0000
0001
0000
,
0010
0000
0001
0000
0100
0000
0010
0000
1000
0000
0000
1000
0000
0000
0001
0000
,
0010
0000
0100
0000
1000
0000
0010
0000
0100
0000
0000
0100
0000
0000
0000
0010
,
0001
0000
0010
0100
0000
0100
0001
0000
1000
0000
0100
0000
0010
0000
0001
0000
,
1000
0000
0000
0100
0000
0000
0110
0000
0000
0001
0000
0000
0201
0000
0000
0000
,
0310
0000
2000
0001
0000
0000
3010
0000
0100
0000
0002
1000
0000
0000
0103
0000
,
0001
0000
0020
0100
0000
0000
0031
0000
1000
0000
0020
0100
0000
0000
1030
0000
,
0100
0000
2000
0010
0000
0000
3001
0000
0100
0000
0002
0010
0000
0000
1003
0000
,
0010
0000
2000
0100
0000
0000
3001
0000
0010
0000
0001
0000
0100
0000
0010
0000
,
1000
0000
0002
0100
0000
0000
0013
0000
0001
0000
2000
0010
0000
0000
3100
0000
,
1000
0000
0002
0100
0000
0000
0013
0000
0100
0000
2000
0010
0000
0000
3100
0000
,
0010
0000
0002
0100
0000
0000
0013
0000
0001
1000
0000
0000
0010
0000
0100
0000
,
0010
0000
1000
0100
0010
0000
0100
0000
1000
0000
0001
0000
1001
0000
0000
0000
,
0001
0000
0000
0100
0000
0000
0001
0000
0000
0100
0000
0000
0010
0000
0000
0000
,
1000
0000
0000
0100
0000
0000
1000
0000
0000
0100
0000
0000
0010
0000
0000
0000
,
0100
0000
0000
1000
0000
0000
0010
0000
0000
0100
0000
0000
0001
0000
0000
0000
,
0100
0000
0000
0001
0000
0000
0010
0000
0000
0100
0000
0000
2000
0000
0000
0000
,
0000
0000
0000
3000
;

//--------------- dance-single - ----------------
#NOTEDATA:;
#STEPSTYPE:dance-single;
#DESCRIPTION:;
#DIFFICULTY:Challenge;
#METER:16;
#RADARVALUES:0.820645,0.897668,0.216642,0.426296,0.950431,822,791,31,61,0,0,0,0,0,0.820645,0.897668,0.216642,0.426296,0.950431,822,791,31,61,0,0,0,0,0;
#CHARTNAME:;
#CHARTHASH:2530156685;
#BANNER:;
#CHARTSTYLE:;
#METERF:0.000000;
#LASTSECONDHINT:138.147003;
#CREDIT:ZSL;
#NOTES:
0000
0000
0000
0000
,
0000
0000
0000
0000
,
0000
0000
0000
0000
,
0000
0000
0000
0000
,
0000
0000
0000
0000
,
1000
0000
0000
0010
0000
0000
1000
0000
0000
0001
0000
0000
0010
0000
0000
0000
,
0001
0000
0000
0000
0000
0000
0100
0000
0000
0000
0000
0000
0010
0000
0000
0000
2000
0000
0000
0000
0000
0000
0000
3000
0000
0000
0000
0000
0000
0000
0000
0000
,
0001
1000
0001
1000
0001
1000
0001
1000
0010
1000
0010
1000
0100
1000
0100
1000
,
0001
0100
0010
0000
1000
0010
0000
0100
0010
1000
0001
0010
0100
0000
0000
0000
,
1000
0000
0002
0010
0000
1003
0001
0000
0100
0000
0020
1000
0000
0130
0001
0000
,
1000
0000
0200
0010
0000
1300
0001
0000
0100
0000
0002
0010
0000
1003
0100
0000
,
1000
0000
0001
0100
0010
1000
0000
0000
0100
0000
0010
0001
1000
0000
0000
0000
,
0010
0000
2000
0100
0000
3001
0100
0000
0010
0000
0000
0000
2000
0000
3002
0000
,
0013
0000
0100
1000
0000
0010
0100
0000
0001
1000
0000
0010
0001
0000
0000
0000
,
0010
0000
0100
0001
0000
0010
0100
0000
1000
0001
0000
0010
1000
0000
0010
0000
,
0100
0000
1000
0100
0000
1000
0010
0000
0100
0001
0000
0100
1000
0000
0100
0000
,
0020
0000
1030
0001
1000
0100
0010
0001
1000
0001
0100
0000
0001
0000
0000
0000
,
0010
0001
2000
0001
0000
0000
3010
0000
0100
0001
2000
0001
0000
0000
3100
0000
,
0010
0001
2000
0010
0000
0000
3001
0000
0100
0001
2000
0100
0000
0000
3001
0000
,
0010
0100
2000
0010
0000
0000
3001
0000
0100
0010
2000
0100
0000
0000
3001
0000
,
0010
0001
0200
0010
0000
0000
0301
0000
0100
0001
1000
0100
0010
0001
1000
0000
,
0100
0010
0002
0100
0000
0000
1003
0000
0010
0100
0002
0010
0000
0000
1003
0000
,
0100
1000
0020
0100
0000
0000
1030
0000
0001
0010
0100
1000
0001
0100
0010
0000
,
1000
0001
0010
0001
0100
0000
0000
0000
0001
1000
0010
1000
0100
0000
0100
0000
,
1000
0001
0010
0000
0100
1000
0100
0010
0001
1000
0010
0000
0100
0010
0000
1000
,
0100
0010
0200
0001
0000
0000
0310
0000
0001
1000
0002
0010
0000
0000
1003
0000
,
0010
0100
0020
0001
0000
0000
0130
0000
0001
1000
0002
0100
0000
0000
1003
0000
,
0001
0010
0200
0001
0000
0000
0310
0000
0100
1000
0002
0100
0000
0000
1003
0000
,
0001
0100
0020
0001
0000
0000
0130
0000
0010
1000
0100
1000
0010
0100
0001
0000
,
0000
0000
1000
0000
2001
0000
3010
0000
1000
0001
2000
0100
0000
0000
3001
0000
,
1000
0010
0200
1000
0000
0000
0310
0000
0100
0001
2000
0100
0000
0000
3001
0000
,
1000
0100
0020
1000
0000
0000
0130
1000
0001
0010
0000
0000
0001
1000
0010
0000
,
1000
0001
0100
1000
0000
0000
0100
0000
0001
0000
1000
0000
0001
0000
0000
0000
,
1001
0000
1000
1100
0000
0100
0110
0010
,
0001
0101
0100
0010
1001
0000
0001
0101
,
0000
0100
0110
0010
1000
1100
0100
0010
,
1001
0000
1000
1010
0000
0010
0110
0100
,
0001
0011
0010
0100
1001
0000
0001
0011
,
0000
0010
0110
0100
1000
1010
0010
0100
,
0101
0001
1000
0000
0100
0010
0001
0000
,
1000
0100
1000
0010
1000
0100
0010
0000
,
1100
1000
0001
0000
0100
0010
1000
0000
,
0110
0100
0001
0000
0010
0100
1000
0000
,
0001
0100
0001
0010
0001
0100
0001
0010
,
0100
1000
0100
1000
0100
1000
0100
1000
0001
0100
0001
0100
0001
0000
0000
0000
,
1002
0000
0000
1000
0000
0010
0000
1003
0000
0000
0001
0000
0001
0000
1000
0010
,
0100
0000
0100
0000
0100
0000
0001
1000
0000
0100
0000
0010
0001
0010
0100
0010
,
0001
0000
0002
1000
0000
0100
0000
1003
0000
0000
0001
0000
0001
0000
1000
0100
,
0010
0000
0010
0000
0010
0000
0001
1000
0010
1000
0001
1000
0100
0000
0010
0000
,
1100
0000
2000
0001
0000
0010
0000
3100
0000
0000
1000
0000
1000
0000
0010
0100
,
0001
0000
0001
0000
0001
0000
1000
0100
0010
0100
0000
1000
0001
0100
0010
0000
,
1010
0000
2000
0001
0000
0100
0000
3010
0000
0000
1000
0000
1000
0000
0100
0010
,
0001
0000
0001
0000
0001
0000
1000
0010
0100
0010
1000
0010
0100
0000
0001
0000
,
1001
0000
0000
1000
0000
0000
0100
0000
0010
0000
0000
0000
0100
0000
0000
0000
,
1000
0001
0100
0010
1000
0100
0010
0100
,
1000
0000
0000
0001
0000
0000
0100
0000
0010
0000
0000
0000
0100
0000
0000
0000
,
0001
1000
0100
0010
0001
0100
0010
0100
,
0001
0001
1000
1000
0100
0100
0010
0010
,
0100
0100
1000
1000
0010
0010
0100
0100
,
0001
0001
0001
0001
1000
1000
1000
1000
,
0010
0100
0001
1000
0100
0010
0001
1000
0010
0100
0010
1000
0100
0010
0001
0100
,
0010
0000
0000
0000
,
1000
0000
0002
0000
0023
0000
0000
0030
0100
0000
0000
0000
0000
0000
0000
0000
,
1000
0000
0100
1000
0010
0100
0001
0000
0100
0000
0010
2000
0000
0000
3001
1000
,
0100
0000
0010
0100
1000
0001
0010
0000
0100
0000
1000
0010
0000
1000
0010
0100
,
1000
0000
0100
0010
0000
0100
0001
0000
1000
0000
0100
0010
0000
0001
0100
0010
,
1000
0000
0001
1000
0001
0010
0100
0000
2000
0000
0000
3002
0000
0000
0103
0010
,
1000
0000
0010
1000
0100
0010
0001
0000
0010
0000
0100
2000
0000
0000
3001
1000
,
0010
0000
0100
0010
1000
0001
0100
0000
0010
0000
1000
0100
0000
0010
0000
0100
,
0001
0000
0100
0010
0000
0001
1000
0000
0010
0000
0100
0001
0000
0100
0010
1000
,
0100
0000
0000
0011
0000
0000
0201
0000
0310
1000
0010
1000
0001
0100
0010
0100
,
0001
0000
0100
0001
0010
0100
1000
0000
0100
0000
0010
0002
0000
0000
1003
0001
,
0100
0000
0010
0100
0001
1000
0010
0000
0100
0000
0001
0010
0000
0001
0010
0100
,
0001
0000
0100
0010
0000
0100
1000
0000
0001
0000
0100
0010
0000
1000
0100
0010
,
0001
0000
1000
0001
1000
0010
0100
0000
0002
0000
0000
2003
0000
0000
3100
0010
,
0001
0000
0010
0001
0100
0010
1000
0000
0010
0000
0100
0002
0000
0000
1003
0001
,
0010
0000
0100
0010
0001
1000
0100
0000
0010
0000
0001
0100
0000
0010
0000
0100
,
1000
0000
0100
0010
0000
1000
0001
0000
0010
0100
1000
0100
0010
0001
0100
0010
,
1000
0000
0000
1010
0000
0000
0101
0000
0000
0011
0000
0000
0102
0000
0000
0000
,
0013
0100
0020
1000
0000
0000
0130
0000
1000
0001
2000
0100
0000
0000
3001
0000
,
0100
0010
0200
1000
0000
0000
0310
0000
1000
0001
2000
0010
0000
0000
3001
0000
,
1000
0100
0020
1000
0000
0000
0130
0000
0010
0001
2000
0010
0000
0000
3001
0000
,
1000
0010
0200
1000
0000
0000
0310
0000
0100
0001
0010
0001
0100
0010
1000
0000
,
0001
0010
0200
0001
0000
0000
0310
0000
0100
1000
0002
0010
0000
0000
1003
0000
,
0001
0100
0020
0001
0000
0000
0130
0000
0010
1000
0002
0100
0000
0000
1003
0000
,
0001
0010
0200
0001
0000
0000
0310
0001
1000
0100
0000
0000
1000
0001
0100
0000
,
0001
1000
0010
0001
0010
0000
1000
0000
0100
0000
0010
0000
1002
0000
1003
0000
,
0001
0000
0000
0100
0000
0000
0001
0000
0000
1000
0000
0000
0100
0000
0000
0000
,
1000
0000
0000
0100
0000
0000
1000
0000
0000
0001
0000
0000
0100
0000
0000
0000
,
0010
0000
0000
0100
0000
0000
0001
0000
0000
0010
0000
0000
0100
0000
0000
0000
,
0010
0000
0000
0100
0000
0000
1000
0000
0000
0010
0000
0000
0200
0000
0000
0000
,
0000
0000
0000
0300
;
