#VERSION:0.83;
#TITLE:Hot Pot Commander;
#SUBTITLE:;
#ARTIST:Wednesday Campanella;
#TITLETRANSLIT:;
#SUBTITLETRANSLIT:;
#ARTISTTRANSLIT:;
#GENRE:;
#CREDIT:valgrind;
#MUSIC:hotpotcommander.ogg;
#BANNER:hotpotcommander-bn.png;
#BACKGROUND:hotpotcommander-bg.png;
#CDTITLE:;
#SAMPLESTART:104.323;
#SAMPLELENGTH:10.333;
#SELECTABLE:YES;
#OFFSET:0.001;
#BPMS:0.000=180.000;
#STOPS:;
#SPEEDS:0.000=1.000=0.000=0,
308.000=0.500=0.000=0,
309.500=1.000=3.500=0
;
#SCROLLS:0.000=1.000,
308.000=400.000,
308.063=0.000,
309.500=-0.400,
309.750=-0.300,
310.000=-0.200,
310.250=-0.100,
310.500=0.000,
310.750=0.100,
311.000=0.200,
311.250=0.300,
311.500=0.400,
311.750=0.500,
312.000=0.600,
312.250=0.700,
312.500=0.800,
312.750=0.900,
313.000=1.000
;
#FAKES:386.750=1.000;
#BGCHANGES:;
#FGCHANGES:;

//--------------- dance-single - No Tech ----------------
#NOTEDATA:;
#STEPSTYPE:dance-single;
#DESCRIPTION:No Tech;
#DIFFICULTY:Medium;
#METER:12;
#RADARVALUES:0,0,0,0,0;
#CREDIT:valgrind | 12 |;
#CHARTNAME:SFW (safe for warm-up);
#NOTES:
0000
0000
0000
0000
,
0000
0000
0000
0000
,
0000
0000
0000
0000
,
0000
0000
0000
0002
,
0103
0000
0000
0010
1000
0000
0000
0100
,
1000
0100
1000
0000
0001
0100
0002
0000
,
0010
1003
0001
0000
,
1000
0000
0001
2000
,
3100
0000
0000
0010
0001
0000
0000
0100
,
0001
0100
0001
0000
1000
0100
2000
0000
,
0010
3001
1000
0001
,
0020
0000
0230
0000
1300
0010
0100
0010
,
0000
1000
0001
1000
0000
0100
0010
0100
,
0000
1000
0010
1000
0000
0001
0100
0001
,
2000
3200
0320
0030
,
0001
1000
0001
1000
0001
0000
0100
0000
,
0020
0000
0130
0001
0100
0000
0001
1000
,
0001
0000
0010
0000
0001
0010
0001
0000
,
0200
0000
0310
0000
1000
0000
0001
0010
,
0200
0000
1300
0010
0000
0000
0110
0000
,
0001
0100
0001
1000
0100
0000
000M
0010
,
0100
0010
0100
1000
0010
0000
1001
0000
,
0001
0100
0001
0000
1000
0100
1000
0000
,
0010
0100
0010
1000
0001
0100
0001
0000
,
1000
0200
2300
3020
,
0230
0000
0302
0000
2003
0000
3100
0010
,
0000
0000
0001
0010
0001
0010
0000
0100
,
1000
0100
0010
0001
0200
0000
0320
0000
,
1030
0001
1000
0001
1000
0001
1000
0001
,
0010
0000
0001
0000
0100
0010
0100
0000
,
0001
0100
0001
0100
0001
0100
0001
0100
,
0001
0000
1000
0000
0001
0010
0001
0000
,
0100
0010
0100
0010
0100
0010
0100
0010
,
0100
0000
0001
0000
0010
0100
0010
0000
,
0001
1000
0001
1000
0001
1000
0001
1000
,
0001
0200
0302
0023
,
0031
1000
0100
1000
0001
1000
0100
1000
,
0001
0020
0230
2300
,
3001
0100
0010
0100
0001
0100
0010
0100
,
0001
1000
1000
0100
,
0010
0001
0100
0010
1000
0100
0010
0001
,
0100
0010
0100
0001
,
1000
0100
0010
0001
1000
0010
0100
0001
,
1000
0001
0100
0010
1000
0001
0010
0100
,
1000
0000
0000
0000
,
0000
0000
0000
0002
,
0013
0000
0000
0100
1000
0000
0000
0010
,
1000
0010
1000
0000
0001
0010
0002
0000
,
0100
0000
2003
0000
0100
0000
3001
0010
,
0000
0100
0000
1000
0000
0001
2000
0000
,
3010
0000
0000
0100
0001
0000
0000
0010
,
0001
0010
0001
0000
1000
0010
2000
0000
,
0100
0000
3002
0000
0100
0000
1003
0010
,
0000
0100
0000
0001
0000
0010
0100
0010
,
0000
0001
1000
0001
0000
0100
0010
0100
,
0000
0001
0010
0001
0000
1000
0100
1000
,
0002
0000
0203
0000
0320
0000
0030
1000
,
0010
1000
0000
0100
0000
0010
0001
0000
,
0200
0000
0310
1000
0010
0000
1000
0001
,
1000
0000
0100
0000
1000
0100
1000
0000
,
0020
0000
0130
0000
0001
0000
1000
0100
,
0020
0000
0031
0100
0000
0000
0110
0000
,
1000
0010
1000
0001
0010
0000
0000
0100
,
0010
0100
0010
0001
0100
0000
1001
0000
,
1000
0010
1000
0000
0001
0010
0001
0000
,
0100
0010
0100
0001
1000
0010
1000
0000
,
0001
0020
0032
0203
,
0320
0000
2030
0000
3002
0000
0013
0100
,
0000
0000
1000
0100
1000
0100
0000
0010
,
0001
0010
0100
1000
0020
0000
0230
0000
,
0301
1000
0001
1000
0001
1000
0001
1000
,
0100
0010
0100
0010
0100
0010
0100
0010
,
0001
0100
0001
0100
0010
1000
0010
1000
,
0002
0000
0003
0002
0000
0003
0002
0000
,
2003
3200
0320
0230
,
2300
3002
0000
2003
,
3002
0203
0320
0130
,
1001
0000
0000
0000
,
0000
0020
2030
3200
,
1300
0001
0010
0001
1000
0001
0010
0001
,
1000
0200
0320
0032
,
1003
0010
0100
0010
1000
0010
0100
0010
,
1000
0001
0001
0010
,
0100
1000
0010
0100
0001
0010
0100
1000
,
0010
0100
0010
1000
,
0001
0010
0100
1000
0001
0100
0010
1000
,
0001
0020
0032
0203
,
0301
1000
0010
1000
0001
1000
0010
1000
,
0001
0200
0320
2030
,
3001
0010
0100
0010
0001
0010
0100
0010
,
0001
1000
1000
0010
,
0100
0001
0010
0100
1000
0010
0100
0001
,
0010
0100
0010
0001
,
1000
0010
0100
0001
1000
0100
0010
0001
,
1000
0001
0100
0010
1000
0001
0010
0100
,
1000
0000
0000
0000
,
0000
0000
0000
MMMM
;

//--------------- dance-single - Drills+ ----------------
#NOTEDATA:;
#STEPSTYPE:dance-single;
#DESCRIPTION:Drills+;
#DIFFICULTY:Hard;
#METER:16;
#RADARVALUES:0,0,0,0,0;
#CREDIT:valgrind | 16 |;
#CHARTNAME:nerfed stream patterns;
#NOTES:
0000
0000
0000
0000
,
0000
0000
0000
0000
,
0000
0000
0000
0000
,
0000
0000
0000
0002
,
0103
0000
0000
0010
1000
0000
0000
0100
,
0010
0001
1000
0001
0100
0010
0100
0002
,
0010
0000
1003
0000
0100
0010
0000
0001
,
1000
0010
0000
0100
0010
0000
2000
0000
,
3100
0000
0000
0010
0001
0000
0000
0100
,
0010
0010
1000
1000
0001
1000
0100
2000
,
0010
0000
3001
0000
0100
0010
0000
1000
,
0001
0100
0020
0000
1030
0200
0320
0032
,
0103
0010
1000
0002
0000
1003
0100
0020
,
0000
0031
0100
0020
0000
0130
0001
1000
,
0100
0010
0002
0000
0203
0000
0310
0100
,
0001
1000
0001
1000
0001
1000
0001
1000
0001
1000
0200
0000
0320
0000
0032
0000
,
0203
0000
0310
1000
0002
0000
1003
0100
,
1000
0001
0100
0010
1000
0001
0100
0001
,
0020
0000
0130
0000
1000
0000
0001
0100
,
0020
0000
1030
0100
0000
0000
0110
0000
,
1000
0100
0010
0001
0200
0000
M3M0
0001
,
1000
0000
0001
0000
0001
0000
0010
0000
0200
0000
0000
0300
1001
0000
0000
0000
,
1000
0010
0100
0001
0001
1000
0100
1000
,
0010
0100
0010
1000
0001
0010
0001
0000
,
1000
0020
2030
3200
,
0010
0000
2300
0000
0001
0000
3010
0100
,
0001
0100
0001
0000
1000
0010
1000
0000
0001
0010
0001
0000
1000
0100
1000
0000
,
0001
0100
0001
0100
0010
1000
0010
1000
0200
0000
2300
0000
3200
0000
0320
0000
,
0031
1000
0001
1000
0001
1000
0001
1000
0001
1000
0001
1000
0001
1000
0001
1000
,
0200
0000
0310
0001
0100
0010
1000
0001
,
0010
0001
0010
0001
0010
0001
0010
0001
0010
0001
0010
0001
0010
0001
0010
0001
,
1000
0000
0100
1000
0100
0010
0001
0100
,
0010
0100
0010
0100
0010
0100
0010
0100
0010
0100
0010
0100
0010
0100
0010
0100
,
0001
0000
0100
0001
0010
0001
1000
0010
,
1000
0001
1000
0001
1000
0001
1000
0001
1000
0001
1000
0001
1000
0001
1000
0001
,
0100
0020
2030
3200
,
1300
0000
0100
0000
0010
0001
0010
0000
0001
0000
0010
0001
0010
0000
0100
0000
,
1000
0000
0001
0000
1000
0010
1000
0000
0010
0000
0100
0001
0100
0010
1000
0000
,
0001
0000
0010
0000
0100
1000
0100
0000
1000
0000
0100
1000
0100
0000
0010
0000
,
0001
1000
1000
0010
,
0100
0000
0001
0000
0010
0100
0010
0000
0001
0000
0100
0010
0100
0000
0001
0000
,
0010
0000
0001
0000
1000
0100
1000
0000
0001
0000
0100
0010
0100
0001
1000
0000
,
0100
0000
1000
0000
0010
0100
0010
0000
1000
0000
0100
0010
0100
0000
1000
0000
,
0001
0100
0001
0100
0001
0100
0001
0100
0010
1000
0010
1000
0010
1000
0010
1000
,
0001
0000
0000
0000
,
0000
0000
0000
2000
,
3010
0000
0000
0100
0001
0000
0000
0010
,
0100
1000
0001
1000
0010
0100
0010
2000
,
0100
0000
3002
0000
0010
0000
2003
0010
,
0000
0100
0000
3001
0000
0100
0002
0000
,
0013
0000
0000
0100
1000
0000
0000
0010
,
0100
0100
0001
0001
1000
0001
0010
0002
,
0100
0000
2003
0000
0100
0000
3002
0010
,
0000
0100
0000
1003
0010
0200
0320
2030
,
3100
0010
0001
2000
0000
3001
0100
0020
,
0000
1030
0100
0020
0000
0130
1000
0001
,
0100
0010
2000
0000
3200
0000
0310
0100
,
1000
1000
0000
0001
0000
0020
0230
2300
,
3020
0000
0130
0001
2000
0000
3001
0010
,
0001
1000
0010
0100
0001
1000
0010
1000
,
0200
0000
0310
0000
0001
0000
1000
0010
,
0200
0000
0301
0010
0000
0000
0110
0000
,
0001
0010
0100
1000
0020
0M0M
0030
1000
,
0001
0000
1000
0000
1000
0000
0100
0000
0020
0000
0000
0030
1001
0000
0000
0000
,
0001
0100
0010
1000
1000
0001
0010
0001
,
0100
0010
0100
0001
1000
0100
1000
0000
,
0001
0200
0302
0023
,
0100
0000
0032
0000
1000
0000
0103
0010
,
1000
0010
1000
0000
0001
0100
0001
0000
1000
0100
1000
0000
0001
0010
0001
0000
,
1000
0010
1000
0010
0100
0001
0100
0001
0020
0000
0230
0000
0320
0000
0032
0000
,
1003
0100
1000
0100
1000
0100
1000
0100
1000
0100
1000
0100
1000
0100
1000
0100
,
0010
0001
0010
0001
0010
0001
0010
0001
0010
0001
0010
0001
0010
0001
0010
0001
,
1000
0010
1000
0010
0100
0001
0100
0001
1000
0100
1000
0100
0010
0001
0010
0001
,
0200
0000
0300
0220
0000
0330
0210
0000
,
0301
1000
0020
0000
2030
0000
3200
0000
,
0310
0001
2000
0000
0000
3001
0200
0000
,
0301
0010
0100
0000
2000
0000
3010
0000
,
0110
0000
0000
0000
,
0000
0200
0302
0023
,
0031
0000
0010
0000
0100
1000
0100
0000
1000
0000
0100
1000
0100
0000
0010
0000
,
0001
0000
1000
0000
0001
0100
0001
0000
0100
0000
0010
1000
0010
0100
0001
0000
,
1000
0000
0100
0000
0010
0001
0010
0000
0001
0000
0010
0001
0010
0000
0100
0000
,
1000
0001
0001
0100
,
0010
0000
1000
0000
0100
0010
0100
0000
1000
0000
0010
0100
0010
0000
1000
0000
,
0100
0000
1000
0000
0001
0010
0001
0000
1000
0000
0010
0100
0010
1000
0001
0000
,
0010
0000
0001
0000
0100
0010
0100
0000
0001
0000
0010
0100
0010
0000
0001
0000
,
1000
0200
2300
3020
,
1030
0000
0010
0000
0100
0001
0100
0000
0001
0000
0100
0001
0100
0000
0010
0000
,
1000
0000
0001
0000
1000
0100
1000
0000
0100
0000
0010
0001
0010
0100
1000
0000
,
0001
0000
0100
0000
0010
1000
0010
0000
1000
0000
0010
1000
0010
0000
0100
0000
,
0001
0000
1000
0000
0001
0100
0001
0000
1000
0100
1000
0000
0001
0010
0001
0000
,
0100
0000
0001
0000
0010
0100
0010
0000
0001
0000
0100
0010
0100
0000
0001
0000
,
0010
0000
0001
0000
1000
0100
1000
0000
0001
0000
0100
0010
0100
0001
1000
0000
,
0100
0000
1000
0000
0010
0100
0010
0000
1000
0000
0100
0010
0100
0000
0010
0000
,
0001
0010
0001
0010
0001
0010
0001
0010
0100
1000
0100
1000
0100
1000
0100
1000
,
0001
0000
0000
0000
,
0000
0000
0000
MMMM
;

//--------------- dance-single - Drills+ FS- Mines- ----------------
#NOTEDATA:;
#STEPSTYPE:dance-single;
#DESCRIPTION:Drills+ FS- Mines-;
#DIFFICULTY:Challenge;
#METER:17;
#RADARVALUES:0,0,0,0,0;
#CREDIT:valgrind | 17 |;
#CHARTNAME:oooough da dwill;
#NOTES:
0000
0000
0000
0000
,
0000
0000
0000
0000
,
0000
0000
0000
0000
,
0000
0000
0000
0002
,
0103
0000
0000
0010
1000
0000
0000
0100
,
0010
0001
1000
0001
0100
0010
0100
0002
,
0010
0000
1003
0000
0100
0010
0000
0001
,
1000
0010
0000
0100
0010
0000
2000
0000
,
3100
0000
0000
0010
0001
0000
0000
0100
,
0010
0010
1000
1000
0001
1000
0100
2000
,
0010
0000
3001
0000
0100
0010
0000
1000
,
0001
0010
0100
1000
0001
0100
0001
0100
0010
1000
0200
0000
0320
0000
0032
0000
,
0203
0310
1000
0002
0000
1003
0100
0020
,
0000
0031
0100
0020
0000
0130
0001
1000
,
0100
0010
0002
0000
0203
0000
0310
1000
,
0001
0010
0001
0010
0100
1000
0100
1000
0001
0010
0200
0000
0320
0000
0032
0000
,
0203
0000
0310
1000
0002
0000
1003
0100
,
1000
0001
0100
0010
1000
0001
0100
0001
,
0020
0000
0130
0000
1000
0000
0002
0103
,
0010
1000
0010
1000
0001
0010
0100
0010
0001
0000
0000
0000
1001
0000
0000
0000
,
1000
0010
0100
0010
1000
0001
0010
0001
2000
0000
0000
0000
3MMM
0000
0100
0000
,
0001
0000
1000
0000
1000
0000
0100
0000
0020
0000
0000
0030
10M1
0000
0000
0000
,
0001
0100
0010
1000
1000
0001
0010
0001
,
0100
0010
0100
0001
1000
0100
1000
0000
,
0001
0200
0302
0023
,
0100
0000
0032
0000
1000
0000
0103
0010
,
1000
0001
0010
0100
1000
0001
0100
0001
1000
0100
0010
0001
1000
0010
1000
0100
,
0010
0001
1000
0001
0100
0010
0100
0001
0020
0000
0032
0000
0023
0000
0230
0000
,
1300
0001
1000
0001
1000
0001
1000
0001
1000
0001
1000
0001
1000
0001
1000
0001
,
0200
0000
0310
1000
0100
0010
0001
1000
,
0010
1000
0010
1000
0010
1000
0010
1000
0010
1000
0010
1000
0010
1000
0010
1000
,
0001
0000
0100
0001
0100
0010
1000
0100
,
0010
0100
0010
0100
0010
0100
0010
0100
0010
0100
0010
0100
0010
0100
0010
0100
,
1000
0000
0100
1000
0010
1000
0001
0010
,
0001
1000
0001
1000
0001
1000
0001
1000
0001
1000
0001
1000
0001
1000
0001
1000
,
0100
0020
0032
0203
,
0301
1000
0010
1000
0001
1000
0010
1000
0001
0010
0100
0010
0001
0010
0100
0010
,
0001
0000
1000
0000
0010
1000
0010
0000
0100
0000
0001
0000
0010
0100
0010
0000
,
0001
1000
0100
1000
0001
1000
0100
1000
0001
0100
0010
0100
0001
0100
0010
0100
,
0001
1000
1000
0100
,
1000
0010
0100
0001
0010
0100
1000
0010
0100
0010
1000
0100
0010
0001
0100
0001
,
0010
0000
0100
0000
1000
0100
1000
0000
0001
0000
0100
0000
0010
0100
0010
0000
,
1000
0010
0100
0001
1000
0001
0010
0100
1000
0001
0100
0010
1000
0100
0010
0001
,
0100
0001
0010
0100
1000
0010
0100
0001
1000
0100
0010
0001
1000
0001
0100
0010
,
1000
0000
0000
0000
,
0000
0000
0000
0002
,
0013
0000
0000
0100
1000
0000
0000
0010
,
0100
0001
1000
0001
0010
0100
0010
0002
,
0100
0000
2003
0000
0100
0000
3002
0010
,
0000
0100
0000
1003
0000
0100
2000
0000
,
3010
0000
0000
0100
0001
0000
0000
0010
,
0100
0100
1000
1000
0001
1000
0010
2000
,
0100
0000
3002
0000
0100
0000
2003
0010
,
0000
0100
0000
3001
0010
0200
0320
0032
,
0203
0000
0310
0000
1000
0000
0002
0000
0000
0000
1003
0000
0001
0000
0010
0M00
,
0010
0000
1000
0000
0100
0000
2000
0000
0000
0000
3100
0000
1000
0000
0100
00M0
,
0100
0001
2000
0000
3010
0000
1010
1000
,
0100
00M0
0100
0000
0001
1000
0010
0M00
0010
0000
0100
000M
0100
0000
0001
0000
,
0020
0000
0000
0000
0130
0000
1000
0000
0002
0000
0000
0000
1003
0000
0010
000M
,
0010
0000
0100
0000
1000
0000
0010
0000
1000
0000
0001
0000
0010
0000
0100
000M
,
0200
0000
0301
0000
1000
0000
0001
1000
,
0100
00M0
0100
0000
0001
1000
0010
0M00
0010
0000
0100
0000
1000
0100
0010
0001
,
1000
0010
1000
0100
0020
MM0M
0030
0100
,
1000
0000
0001
0000
0001
0000
0100
0000
0020
0000
0000
0030
10M1
0000
0000
0000
,
1000
0100
0010
0001
0001
1000
0010
1000
,
0100
0010
0100
1000
0001
0100
0001
0000
,
1000
0200
2300
3020
,
0100
0000
2030
0000
0001
0000
3100
0010
,
0001
1000
0010
0100
0001
1000
0100
1000
0001
0100
0010
1000
0001
0010
0001
0100
,
0010
1000
0001
1000
0100
0010
0100
1000
0020
0000
0230
0000
0320
0000
2030
0000
,
3001
0100
0001
0100
0001
0100
0001
0100
0001
0100
0001
0100
0001
0100
0001
0100
,
0010
1000
0010
1000
0010
1000
0010
1000
0010
1000
0010
1000
0010
1000
0010
1000
,
0001
0010
0001
0010
0100
1000
0100
1000
0010
0100
0010
0100
0001
0010
0001
0010
,
0100
1000
0100
0020
0001
0000
0130
1000
0100
0020
0001
0000
0130
1000
0100
0010
,
0001
1000
0020
0000
2030
0000
3200
0000
,
0310
0001
2000
0000
0000
3001
0200
0000
,
0301
0010
0100
0000
2000
0000
3010
0000
,
0110
0000
0000
0000
,
0000
0200
0302
0023
,
0031
1000
0100
1000
0001
1000
0100
1000
0001
0100
0010
0100
0001
0100
0010
0100
,
0001
0000
1000
0000
0100
1000
0100
0000
0010
0000
0001
0000
0100
0010
0100
0000
,
0001
1000
0010
1000
0001
1000
0010
1000
0001
0010
0100
0010
0001
0010
0100
0010
,
0001
1000
1000
0010
,
1000
0100
0010
0001
0100
0010
1000
0100
0010
0100
1000
0010
0100
0001
0010
0001
,
0100
0000
0010
0000
1000
0010
1000
0000
0001
0000
0010
0000
0100
0010
0100
0000
,
1000
0100
0010
0001
1000
0001
0100
0010
1000
0001
0010
0100
1000
0010
0100
0001
,
0010
0200
2300
3020
,
1030
0001
0100
0001
1000
0001
0100
0001
1000
0100
0010
0100
1000
0100
0010
0100
,
1000
0000
0001
0000
0100
0001
0100
0000
0010
0000
1000
0000
0100
0010
0100
0000
,
1000
0001
0010
0001
1000
0001
0010
0001
1000
0010
0100
0010
1000
0010
0100
0010
,
1000
0000
0001
0000
1000
0100
1000
0000
0001
1000
0001
0000
0010
0100
0010
0000
,
0001
0100
0010
1000
0100
0010
0001
0100
0010
0100
0001
0010
0100
1000
0010
1000
,
0100
0000
0010
0000
0001
0100
0001
0000
1000
0000
0100
0000
1000
0001
1000
0000
,
0001
0100
0010
1000
0001
1000
0100
0010
0001
1000
0010
0100
0001
0010
0100
1000
,
0010
1000
0100
0010
0001
0100
0010
1000
0001
0010
0100
1000
0001
1000
0010
0100
,
0001
0000
0000
0000
,
0000
0000
0000
MMMM
;
