#VERSION:0.83;
#TITLE:Honto no;
#SUBTITLE:;
#ARTIST:Haraguchi Sasuke;
#TITLETRANSLIT:;
#SUBTITLETRANSLIT:;
#ARTISTTRANSLIT:;
#GENRE:;
#CREDIT:Flicks;
#MUSIC:Honto no.ogg;
#BANNER:Honto no.png;
#BACKGROUND:Honto no-bg.png;
#CDTITLE:;
#SAMPLESTART:46.762;
#SAMPLELENGTH:10.421;
#SELECTABLE:YES;
#OFFSET:-0.340;
#BPMS:0.000=190.000;
#STOPS:;
#JACKET:Honto no-jacket.png;
#DISCIMAGE:;
#CDIMAGE:;
#BGCHANGES:0.000=Honto no.avi=1.000=0=0=0=StretchNoLoop====;
#FGCHANGES:;

//--------------- dance-single - ----------------
#NOTEDATA:;
#STEPSTYPE:dance-single;
#DESCRIPTION:;
#DIFFICULTY:Medium;
#METER:12;
#RADARVALUES:0,0,0,0,0;
#NOTES:
0000
0000
0000
0000
,
0000
0000
0000
0000
,
0000
0000
0000
0000
,
1000
0000
0000
0100
0020
0000
0000
0031
,
0000
0001
0000
0001
0010
0100
2000
0000
,
3001
0000
1000
0010
0200
0000
0000
0301
,
0000
0001
0000
0001
1000
0000
0002
0000
,
1003
0000
0001
0010
0200
0000
0000
1300
,
0000
1000
0000
1000
0001
0000
1000
0000
,
1010
0000
0001
0100
0020
0000
0000
1030
,
0000
1000
0000
1000
0001
0000
2000
0000
,
3001
0000
1000
0100
0010
0000
0001
0100
,
0010
0000
1000
0100
0010
0100
2000
0000
,
3001
0000
0000
1000
0010
0000
0000
0100
,
0000
0100
0000
0100
0001
0000
2000
0000
,
3001
0000
0000
1000
0100
0000
0000
0010
,
0000
0010
0000
0010
0001
0000
1001
0000
,
0001
0000
0000
1000
0010
0000
0000
0100
,
0000
0100
0000
0100
0001
0000
2000
0000
,
3001
0000
0000
1000
0100
0010
0000
0001
,
0000
1001
0000
1000
0010
0000
1001
0000
,
1000
0100
0010
0000
0001
0100
0010
0100
,
0000
0001
1000
0000
0100
0000
2000
0000
,
3001
0100
0010
0000
1000
0100
0010
0100
,
0000
1000
0001
0000
0100
0000
1001
0000
,
0001
0010
0100
0000
1000
0010
0100
0010
,
0000
1000
0001
0000
0010
0000
0002
0000
,
1003
0010
0100
0001
1000
0000
2000
3000
,
0100
0000
0001
0000
0100
0000
2000
3000
,
0MM0
0000
0001
1000
,
0001
1000
0001
0000
,
100M
0100
1000
0000
1000
0001
1000
0000
,
1000
0010
1000
0000
0002
0000
0000
0000
,
M003
0000
1000
0001
,
1000
0001
2000
0000
,
3M01
0010
0001
0000
0001
0100
0001
0000
,
1000
0000
1100
0000
0001
0000
0202
0303
,
0001
0000
0100
0010
0000
1000
0010
0100
,
0001
0000
1000
0001
0000
0000
0110
0000
,
0001
0000
0010
0100
1000
0000
0010
0100
,
0001
0000
1000
0100
0000
0000
0010
0000
,
0001
0010
0100
0001
,
0100
0000
1000
0001
0000
0100
0010
0000
,
1000
0000
0001
0010
0001
0000
1000
0000
,
0001
0100
0001
0000
2002
0000
3003
0000
,
1000
0000
0100
0010
0000
0001
0010
0100
,
1000
0000
0001
1000
0000
0000
0110
0000
,
1000
0000
0010
0100
0001
0000
0100
0010
,
1000
0010
0000
0001
0000
0010
2000
0000
,
0001
0000
3001
0010
0001
0000
1000
0000
,
0001
0000
0100
0010
1000
0000
0001
0000
,
1000
0000
0001
0010
0001
0000
1000
0000
,
0001
0000
0100
0000
0010
1000
0002
0003
,
1000
0000
0100
0000
0010
0000
0000
0001
0000
0000
1000
0000
0100
0000
0010
0000
,
0100
0000
1000
0000
0001
0000
0000
1000
0000
0000
0001
0000
0100
0000
0010
0000
,
0100
0000
0001
0000
1000
0000
0000
0001
0000
0000
1000
0000
0001
0000
0010
0000
,
0100
0010
0100
0010
0002
0000
0000
0003
,
1001
0000
0000
0001
0100
0000
0010
1000
,
0000
1000
0000
1000
0001
0000
2000
3000
,
1001
0000
0000
1000
0100
0000
0010
0001
,
0000
0001
0000
0001
1000
0000
1001
0000
,
1001
0000
0000
1000
0000
0000
1000
0000
0100
0000
0000
0000
0010
0000
0000
0000
,
1001
0000
0000
0001
0000
0000
0001
0000
0100
0000
0000
0000
0010
0000
0000
0000
,
1000
0000
0100
0010
0001
0000
0000
1000
,
0000
1001
0000
0001
0100
0000
1001
0000
,
2000
0000
0000
3200
0000
0000
0300
0000
,
0020
0000
0000
0032
0000
0000
0003
0000
,
2000
0000
0000
3002
0000
0000
0003
0000
,
0200
0000
0000
0320
0000
0000
2030
3000
,
0001
0010
0100
0001
,
0100
2000
0000
0000
,
0000
0000
0000
3000
,
2001
0000
0000
0000
0000
0000
3100
0100
,
1000
0000
0100
0010
0000
0001
0010
0100
,
1000
0000
0001
1000
0000
0000
0110
0000
,
1000
0000
0010
0100
0001
0000
0010
0100
,
1000
0000
0001
0100
0000
0000
0010
0000
,
1000
0010
0100
1000
,
0100
0000
0001
1000
0000
0100
0010
0000
,
0001
0000
1000
0010
1000
0000
0001
0000
,
1000
0100
1000
0000
2002
0000
3003
0000
,
0001
0000
0100
0010
0000
1000
0010
0100
,
0001
0000
1000
0001
0000
0000
0110
0000
,
0001
0000
0010
0100
1000
0000
0100
0010
,
0001
0010
0000
1000
0000
0010
0002
0000
,
1000
0000
1003
0010
1000
0000
0001
0000
,
1000
0000
0100
0010
0001
0000
1000
0000
,
0001
0000
1000
0010
1000
0000
0001
0000
,
1000
0000
0100
0000
0010
0001
2000
3000
,
0MM0
0000
0000
0000
,
0000
0MM0
0000
0MM0
0MM0
1000
0002
0000
,
1003
0000
1001
0000
1000
0000
0001
0100
,
0100
0000
0010
0010
1000
0001
0010
0100
,
1000
0000
1001
0000
0001
0000
1000
0100
,
0100
0000
0010
0010
0001
0100
0010
2000
,
0000
0000
0000
0000
0000
0000
0000
0000
0000
0000
0000
0000
0000
0000
0000
3000
;

//--------------- dance-single - ----------------
#NOTEDATA:;
#STEPSTYPE:dance-single;
#DESCRIPTION:;
#DIFFICULTY:Hard;
#METER:14;
#RADARVALUES:0,0,0,0,0;
#CHARTNAME:;
#CHARTSTYLE:;
#CREDIT:;
#METERF:1;
#NOTES:
0000
0000
0000
0000
,
0000
0000
0000
0000
,
0000
0000
0000
0000
,
1000
0000
0100
0010
0100
0000
1000
0001
,
0000
0001
0000
0001
0100
0010
2000
0000
,
3001
0000
1000
0100
0010
0001
0100
0010
,
0000
0010
0000
0010
1000
0100
0020
0000
,
0031
0000
1000
0010
0100
0001
0010
0100
,
0000
0100
0000
0100
1000
0000
1001
0000
,
0101
0000
0001
0100
0010
1000
0100
0010
,
0000
0010
0000
0010
0001
0100
0020
0000
,
1030
0000
0001
0010
0100
0010
0001
1000
,
0010
0100
0010
1000
0001
0010
0200
0000
,
1300
0000
1000
0010
0100
0001
0000
0100
,
0000
1000
0000
0100
0001
0100
0020
0000
,
1030
0000
0001
0010
0100
1000
0000
0100
,
0000
0001
0000
0100
1000
0000
1001
0000
,
1000
0000
0001
0100
0010
1000
0000
0010
,
0000
0001
0000
0010
1000
0010
0200
0000
,
0301
0000
1000
0100
0010
0001
0000
0011
,
0000
1001
0000
0001
0101
0000
1001
0000
,
1000
0100
0010
0100
1000
0010
0100
0001
,
0000
1000
0100
0010
0100
0000
2000
0000
,
3001
0100
0010
0100
0001
0010
0100
1000
,
0000
0001
0100
0010
0100
0000
1001
0000
,
0001
0010
0100
0010
0001
0100
0010
1000
,
0000
0001
0010
0100
0010
0000
0002
0000
,
1003
0010
0100
0001
1000
0000
0002
0003
,
1100
0000
1001
0000
1010
0000
2002
3003
,
0MM0
0000
0001
1000
,
0001
1000
0001
0000
,
100M
0100
1000
0100
0010
0100
0010
0001
,
0010
0100
0010
0001
2000
0000
0000
0000
,
300M
0000
0001
1000
,
0001
0000
1000
0000
0002
0000
0000
0003
,
1M00
0010
1000
0010
0100
0001
0100
0000
,
1010
0000
0101
0000
1010
0000
2002
3003
,
0001
0000
1000
0100
0000
1000
0100
0010
,
0001
0000
0010
0100
0000
1000
1001
0000
,
0001
0000
1000
0010
0100
0001
0100
0010
,
2000
0000
3100
2000
0000
3100
0010
0000
,
0001
0010
0100
0001
,
0100
0000
1000
0001
0000
1000
0010
0100
,
1000
0000
0100
0001
0100
0000
1000
0000
,
0100
0001
0100
0000
2020
0000
0000
3030
,
1000
0000
0001
0010
0000
0001
0010
0100
,
1000
0000
0100
0010
0000
0001
1001
0000
,
1000
0000
0001
0100
0010
1000
0010
0100
,
0001
0010
0100
1000
0000
0100
2000
0000
,
0100
0000
3001
1000
0010
0100
0001
0000
,
1000
0100
0010
0001
0010
0100
2000
0000
,
0010
0000
3001
1000
0100
0010
0001
0000
,
0100
0000
1000
0000
0100
0001
2000
3000
,
0001
0000
0010
0000
0100
0000
0000
1000
0000
0000
0001
0000
0001
0100
0001
0000
,
0100
0000
0010
0000
1000
0000
0000
1000
0000
0000
0001
0010
0001
0000
0010
0000
,
0100
0000
1000
0000
0001
0000
0000
1000
0000
0000
0001
0000
0001
0100
0001
0000
,
1000
0001
0010
0100
2000
0000
0000
3000
,
1001
0000
0000
0001
0100
0000
0010
1000
,
0000
1000
0000
1000
0100
0010
0002
0003
,
1001
0000
0000
1000
0100
0000
0010
0001
,
0000
0001
0000
0001
0100
0010
1010
0000
,
1001
0000
0000
1000
0000
0000
0100
0000
0010
0000
0000
0000
0001
0000
0000
0000
,
1001
0000
0000
0001
0000
0000
0100
0000
0010
0000
0100
0000
0001
0000
0000
0000
,
1000
0000
0100
0010
0001
0000
0000
0011
,
0000
1001
0000
0001
0101
0000
1001
0000
,
0002
0000
0010
0203
0000
0000
1300
0000
,
2000
0000
0100
3020
0000
0000
0031
0000
,
0002
0000
0100
0023
0000
0000
1030
0000
,
2000
0000
0010
3200
0000
0000
0301
0000
,
1000
0100
0010
1000
,
0010
0002
0000
0000
,
0000
0000
0000
0003
,
2001
0000
0000
0000
0000
0000
3100
0100
,
1000
0000
0001
0010
0000
0001
0010
0100
,
1000
0000
0100
0010
0000
0001
1001
0000
,
1000
0000
0001
0100
0010
1000
0010
0100
,
0002
0000
0013
0002
0000
0013
0100
0000
,
1000
0100
0001
1000
,
0010
0000
0001
1000
0000
0001
0100
0010
,
0001
0000
0010
1000
0010
0000
0001
0000
,
0010
1000
0010
0000
0202
0000
0000
0303
,
0001
0000
1000
0100
0000
1000
0100
0010
,
0001
0000
0010
0100
0000
1000
1001
0000
,
0001
0000
1000
0010
0100
0001
0100
0010
,
1000
0100
0010
0001
0000
0010
0002
0000
,
0010
0000
1003
0001
0100
0010
1000
0000
,
0001
0010
0100
1000
0100
0010
0002
0000
,
0100
0000
1003
0001
0010
0100
1000
0000
,
0010
0000
0001
0000
0010
1000
0002
0003
,
0MM0
0000
0000
0000
,
0000
0MM0
0000
0MM0
0MM0
1000
0002
0000
,
1003
0000
1001
0000
0001
1000
1000
0100
,
0100
0010
0010
0001
0001
0100
0010
1000
,
0100
0000
1001
0000
0001
0001
0100
0100
,
0010
0000
0010
0000
1000
0000
1000
0100
1000
0000
0001
0000
1000
0010
2000
0000
,
0000
0000
0000
0000
0000
0000
0000
0000
0000
0000
0000
0000
0000
0000
0000
3000
;
