#TITLE:Hikaru Nara;
#SUBTITLE:(Your Lie in April);
#ARTIST:Goose House / English Cover by S.B.R.M.P.N.Y;
#TITLETRANSLIT:;
#SUBTITLETRANSLIT:;
#ARTISTTRANSLIT:;
#GENRE:;
#CREDIT:Lenna;
#MUSIC:[Your Lie in April] Hikaru Nara(English Cover by S.B.R.M.P.N.Y).ogg;
#BANNER:Hikaru Nara-bn.png;
#BACKGROUND:Hikaru Nara-bg.png;
#CDTITLE:;
#SAMPLESTART:56.017;
#SAMPLELENGTH:23.939;
#SELECTABLE:YES;
#OFFSET:0.967;
#BPMS:0.000=160.044;
#STOPS:;
#BGCHANGES:0.000=Hikaru Nara-bga.avi=1.000=0=0=0=StretchNoLoop====,
95.000=Hikaru Nara-end.png=1.000=0=0=0=StretchNoLoop====
;
#FGCHANGES:;

//--------------- dance-single - Lenna ----------------
#NOTES:
     dance-single:
     Lenna:
     Easy:
     3:
     0,0,0,0,0:
0000
0000
0000
0000
,
0000
0000
0000
0000
,
0000
0000
0000
0000
,
1000
1000
0001
0001
,
1000
0000
1000
0000
,
0001
0000
0001
0000
,
0010
0000
0100
0000
,
0020
0000
0000
0030
,
1000
0000
0100
0000
,
0010
0000
0001
0000
,
0010
0000
0010
0000
,
0020
0000
0000
0030
,
0000
0000
1000
0000
,
1000
0000
0001
0000
,
0001
0000
0010
0000
,
0010
0000
0100
0000
,
0100
0000
0001
0000
,
0010
0000
0100
0000
,
2000
0000
0002
0000
,
3003
0000
0000
0000
,
1000
0000
0001
0000
,
1000
0000
0001
0000
,
0020
0000
0030
0000
,
0100
0000
0100
0000
,
0001
0000
1000
0000
,
0001
0000
1000
0000
,
0002
0000
0000
0000
,
1003
0000
0000
0000
,
0020
0000
0000
0000
,
0230
0000
0000
0000
,
0320
0000
0000
0000
,
0230
0000
0000
0300
,
0001
0000
1000
0000
,
0001
0000
1000
0000
,
0002
0000
0000
0000
,
0003
0000
0010
0100
,
1000
0000
0010
0000
,
0001
0000
0000
0000
,
1000
0000
0010
0000
,
1000
0000
0100
0000
,
1000
0000
0001
0000
,
0020
0000
0030
0000
,
0001
0000
0010
0000
,
0001
0000
0100
0000
,
0001
0000
1000
0000
,
0020
0000
0030
0000
,
1000
0000
0001
0000
,
0010
0000
0100
0000
,
1000
0000
0010
0000
,
0200
0000
0300
0000
,
0001
0000
1000
0000
,
0010
0000
0100
0000
,
0001
0000
0010
0000
,
0200
0000
0000
0300
,
1000
1000
1000
0000
,
0001
0001
0001
0000
,
0010
0000
0010
0000
,
0100
0000
0100
0000
,
0010
0010
0010
0000
,
0100
0100
0100
0000
,
1001
0000
1001
0000
,
2002
0000
3003
0000
,
1000
0000
0010
0000
,
0100
0000
0001
0000
,
0010
0000
0100
0000
,
1000
0000
0001
0100
,
0001
0000
0010
0000
,
1000
0000
0100
0000
,
0010
0000
0010
0000
,
0010
0000
0001
0000
,
2000
0000
0000
0000
,
0000
0000
0000
0000
,
3000
0000
0000
0000
;

//--------------- dance-single - Lenna ----------------
#NOTES:
     dance-single:
     Lenna:
     Medium:
     10:
     0,0,0,0,0:
0000
0000
0000
0000
,
0000
0000
0000
0000
,
0000
0000
0000
0000
,
1000
1001
0001
1001
,
0010
1000
0010
0000
1000
0001
1000
0000
,
0010
1000
0010
0000
0100
0001
0100
0000
,
0020
2030
3002
0203
,
0302
0003
0010
1001
,
1000
0010
0100
0001
,
0010
0000
0100
0100
0000
1000
0000
0002
,
0000
0000
0000
0000
0000
0000
1000
1003
,
0000
0000
0010
0100
,
1000
0000
0000
0000
0001
0010
0001
0000
,
1000
0100
1000
0000
0001
0010
0001
0000
,
0200
0000
0300
0000
0001
0100
0001
0000
,
0010
1000
0010
0000
0001
0100
0001
0000
,
0020
0030
0100
1100
,
1000
1010
0010
0011
,
0002
0000
0000
1000
2000
0000
0000
0000
,
3003
0000
0000
0000
,
0100
0000
0100
0000
0001
0010
0001
0000
,
1000
0010
1000
0000
0100
0100
0100
0000
,
0220
0000
0330
0000
,
1001
0010
0100
1000
,
0020
0000
0230
0000
,
0302
0000
1003
1000
,
2000
0000
0000
0000
0000
0000
0000
0001
,
0002
0000
0000
3003
,
0010
0001
1000
0100
,
0010
0100
1000
0000
,
0010
1000
0001
0100
,
0010
0100
0001
1000
,
0000
0010
0110
1000
,
0001
0000
0010
0100
0010
0100
0020
0000
,
0000
0000
0000
0000
,
0030
0000
1010
0011
,
2002
3003
0220
0330
,
2002
0000
0000
3003
,
1000
0010
1000
0010
1000
0000
1001
0000
,
0001
0010
0001
0010
0001
0000
0000
0000
,
0010
0100
0010
0100
0010
0000
1001
0000
,
2002
0000
0000
3003
,
0010
1000
0001
1000
0010
0000
0110
0000
,
0010
0001
1000
0001
0010
0000
0110
0000
,
1000
1000
1000
0000
0001
0001
0001
0000
,
2002
0000
0000
3003
,
0001
0010
0001
0010
0001
0000
1001
0000
,
1000
0010
1000
0010
1000
0000
0000
0000
,
0010
0100
0010
0100
0010
0000
1001
0000
,
2002
0000
0000
3003
,
0010
0001
1000
0001
0010
0000
0110
0000
,
0010
1000
0001
1000
0010
0000
0110
0000
,
0001
0001
0001
0001
1000
1000
1000
0000
,
2002
0000
0000
3003
,
1000
0100
0001
0010
,
1000
0100
0001
0100
,
1000
1000
1000
1000
0000
0000
0001
0001
,
0001
0001
0000
0000
0110
0000
0110
0000
,
0001
0100
1000
0010
,
0001
0100
1000
0100
,
0010
0001
0010
0020
0000
0130
1000
2000
,
0000
0000
0000
3000
,
0010
1000
0010
1000
0000
0000
0000
0000
,
0001
0100
0001
0100
0000
0000
0000
0000
,
1020
1030
0102
0103
,
2002
3003
0010
1000
,
0001
0100
0010
0100
,
0001
0000
0010
1000
0000
0001
0000
0000
,
1000
1000
0000
0001
0001
0000
0010
0010
,
0000
0001
0010
0100
1000
0010
0100
0002
,
0000
0000
0000
0000
,
0000
0000
0000
0000
0000
0000
0000
0003
;

//--------------- dance-single - Lenna ----------------
#NOTES:
     dance-single:
     Lenna:
     Hard:
     12:
     0,0,0,0,0:
0000
0000
0000
0000
,
0000
0000
0000
0000
,
0000
0000
0000
0000
,
0001
0000
0000
0001
0010
0000
0000
0010
0100
0000
0000
0100
1000
0000
0000
0000
,
0001
0010
0100
0010
0001
0100
0010
0000
,
1000
0010
0100
0010
1000
0100
0010
0000
,
0001
0010
0200
0000
1300
0010
0200
0000
,
0302
0000
2003
3100
,
1000
0000
0000
1000
0010
0000
0000
0010
0100
0000
0000
0100
0001
0000
0000
0001
,
0010
0000
0100
0100
0000
1000
0000
0000
,
0010
0011
0000
0100
1100
0000
0010
0011
,
0000
1000
0010
0100
0001
0010
0100
2000
,
0000
3000
0000
0000
1000
0010
0100
0002
,
0000
0000
0023
0200
0330
2000
0000
0002
,
3003
0000
0000
0000
0001
0010
0100
2000
,
0000
0000
3020
0130
0000
0002
0000
2000
,
3003
0000
1010
0011
,
1100
0101
0110
1001
,
2000
0000
0000
0001
3001
0000
1000
1001
,
0000
0110
0000
1001
0000
0110
0020
0000
,
0030
0000
0000
0000
1000
0010
0100
0100
,
0000
0001
1000
0001
0000
0010
0100
0010
,
0002
0000
1000
0000
0013
0100
0100
1000
,
0000
1000
0010
0000
0000
0010
0100
0000
0000
0100
0001
0000
0000
0000
0000
0000
,
0001
0010
0100
1000
0001
0010
0100
1000
,
0001
0000
0010
0000
0100
0000
1000
0000
0001
0010
0001
0000
1000
0100
1000
0000
,
0002
0010
0013
0000
2000
0100
3100
0000
,
0020
1000
0001
1030
,
0002
0010
1000
1000
,
0023
0001
1000
0100
,
0230
0010
0001
1000
,
2300
0001
0010
3010
,
1000
0010
0100
0010
1000
0000
0001
0000
,
0010
0100
1000
0001
0010
0001
1000
0000
,
0010
0001
1000
0100
1000
0001
0010
0000
,
1000
0010
0100
0010
2100
0000
3010
0000
,
0022
0000
0033
0000
1100
0000
0000
0022
,
0033
0000
0000
0000
0000
0000
0000
0000
1000
0000
0000
1000
0010
0000
0000
0000
,
1000
0010
0100
0001
0010
0001
0100
0010
,
1000
0001
0100
0010
1000
0010
1000
0100
,
1000
0010
0100
0010
1000
0001
0010
0200
,
1000
0000
0001
0000
1000
0300
0000
0000
,
0001
0010
0100
0010
0001
1000
0100
0010
,
0001
0010
0100
1000
0001
0010
0100
0000
,
0010
0010
0010
0020
0000
0130
0100
0200
,
0000
0000
0000
0300
,
1000
0000
0001
0010
0001
0000
0100
0000
0010
0000
1000
0001
1000
0000
0000
0000
,
0010
0000
1000
0100
1000
0000
0002
0000
0000
0000
0003
0000
0000
0000
1000
0000
,
0001
0000
0010
0100
0010
0000
0001
0000
1000
0000
0010
0100
0010
0000
1000
0000
,
0002
1000
0100
1003
,
0010
0010
0010
0010
0000
0100
0000
1001
,
0000
0001
0010
0100
0000
0000
0000
1000
,
0010
0100
0001
0010
0000
0100
0100
1000
,
0000
0001
0010
0100
1000
0100
0010
0001
,
2000
3200
0320
0032
,
2003
3200
0302
0203
,
1300
0010
0100
0010
1000
0100
0100
0000
,
0001
0010
0100
0010
0001
0100
0100
0000
,
0002
0023
0230
2300
,
3002
0203
2300
3200
,
0301
0010
0100
0100
0000
1000
0001
0200
,
0000
0000
0300
0000
,
1000
0010
0100
0010
1000
0100
0010
0000
,
0001
0010
0100
0010
0001
0100
0010
0000
,
0001
0010
0200
0000
1300
0010
0200
0000
,
0302
0000
2003
3100
,
0001
0000
0000
0001
0010
0000
0000
0010
0100
0000
0000
0100
1000
0000
0000
1000
,
0010
0000
0100
0100
0000
0001
0000
0000
,
0010
1010
0000
0100
0101
0000
0010
1010
,
0000
0001
0010
0100
1000
0010
0200
0002
,
0000
0000
0000
0000
,
0000
0000
0000
0000
,
0303
0000
0000
0000
;

//--------------- dance-double - Lenna ----------------
#NOTES:
     dance-double:
     Lenna:
     Hard:
     12:
     0,0,0,0,0:
00000000
00000000
00000000
00000000
,
00000000
00000000
00000000
00000000
,
00000000
00000000
00000000
00000000
,
10000000
00010000
00001000
00000001
,
00000010
00000001
00000010
00000000
00000001
00000100
00001000
00000000
,
00010000
00100000
01000000
00000000
10000000
01000000
00010000
00000000
,
00200000
00302000
00003020
00000230
,
00002300
00000000
00003001
00000100
,
00000001
00000000
00000000
00000001
00001000
00000000
00000000
00001000
00010000
00000000
00000000
00010000
10000000
00000000
00000000
10000000
,
01000000
00100000
00010000
00000000
00000010
00000001
00000010
00000000
,
00000001
00000001
00000000
00000100
00000100
00000000
00001000
00001000
,
00000000
00100000
00010000
10000000
01000000
00010000
00001000
02000000
,
00000000
00000000
00000000
03000000
00100000
10000000
00100000
10000000
,
01000000
00010000
01000000
00010000
00001000
00000010
00001000
00000010
,
00000001
00000000
00000110
00000000
00000010
00000001
00000010
00000001
,
00000100
00001000
00000100
00001000
00010000
00100000
00010000
00100000
,
10000000
01100000
20000000
32000000
,
03200000
00320000
00032000
00003200
,
00000320
00000000
00000000
00000001
00000031
00000000
00000001
00000100
,
00000000
00001000
00000000
00010000
00000000
10000000
01000000
00000000
,
02000000
00000000
00000000
00000000
03100000
00010000
00100000
10000000
,
00000000
00000000
01000000
00000000
10000000
00010000
00000000
00200000
,
00000000
00000000
00300000
00000000
00000000
01000000
01000000
00100000
,
00000000
00100000
10000000
00000000
00000000
10000000
00010000
00000000
00000000
00010000
01000000
00000000
00000000
00000000
00000000
00000000
,
20000000
00000000
30200000
00000000
,
02300000
00000000
03010000
00010000
,
00200000
00000000
00000000
00000000
00000000
00000000
00000000
01000000
,
01300000
00000000
00100000
01000000
,
00010000
00001000
00000000
00010000
00000000
00001000
00001000
00001000
,
00000010
00000100
00000000
00000100
00000000
00000010
00000001
00000000
,
00000010
00000100
00001000
00000100
00001000
00000010
00000100
00000001
,
00000010
00000000
00000011
00000001
00000000
00000001
00000101
00000000
,
00000010
00001000
00000010
00001000
00000001
00000000
00000100
00001000
,
00000000
00010000
01100000
20100000
,
00100000
01000000
00100000
01000000
,
00100000
00000000
01000000
00000000
31000000
00010000
00001000
00000000
,
00000220
00000000
00000330
00000000
00002002
00000000
00003003
00000220
,
00000000
00000000
00000000
00000330
,
00000001
00000010
00000100
00001000
00010000
00100000
01000000
10000000
,
00100000
01000000
00010000
00100000
01000000
00010000
00001000
00000000
,
00000010
00000001
00000100
00000000
00000010
00001000
00000100
00000000
,
00000020
00000001
00000001
00000031
,
00000001
00000100
00001000
00010000
00000010
00000100
00001000
00100000
,
01000000
00010000
00000010
00000200
00000000
00000000
00000300
00000000
,
00001000
00001000
00001000
00002000
00000000
00100000
01003000
10000000
,
00000000
00000000
00000000
00000000
,
10000000
00100000
01000000
00010000
00001000
00000010
00000100
00000001
,
00000010
00000100
00001000
00000010
00000100
00001000
00010000
00000000
,
00100000
10000000
01000000
00000000
00100000
00010000
01000000
00000000
,
00200000
10000000
10000000
10300000
,
10000000
01000000
00010000
00001000
00100000
01000000
00010000
00000010
,
00000100
00001000
00100000
02000000
00000000
00000000
03000000
00100000
,
00100000
00100000
00100000
00100000
00000000
01000000
00010000
00001000
,
00000000
00000010
00000001
00000010
,
00000002
00000203
00002300
00023000
,
02030000
23000000
30200000
00310000
,
00001000
00010000
00001000
00010000
00000000
00000000
00000010
00000100
,
00000010
00000100
00000000
00000000
00020000
00000000
10030000
00000000
,
20000000
32000000
03020000
00032000
,
00003200
00000302
00000023
00000230
,
00001300
00010000
00001000
00010000
00000000
00100000
01000000
20000000
,
00000000
00010000
00100000
31000000
,
10000000
00100000
10000000
00100000
00000000
01000000
00000000
00010000
,
00000000
00100000
01000000
00100000
00000000
01000000
00000000
00100000
,
00000000
00000000
00010000
00001000
00000000
00000010
00000000
00000100
,
00000000
00000000
00000110
00001001
,
00000010
00000100
00010000
00000000
00001000
00000010
00000100
00000000
,
00001000
00000000
00010000
00001000
00000000
00001000
00000000
00000000
,
00100000
00100000
00000000
01000000
01000000
00000000
00100000
00100000
,
00000000
00100000
01000000
00010000
00001000
00000100
00000010
00000002
,
00000000
00000000
00000000
00000003
;
