#VERSION:0.83;
#TITLE:HiTECH Stay Alive;
#SUBTITLE:;
#ARTIST:siqlo;
#TITLETRANSLIT:;
#SUBTITLETRANSLIT:;
#ARTISTTRANSLIT:;
#GENRE:;
#ORIGIN:;
#CREDIT:;
#BANNER:HiTECH Stay Alive.png;
#BACKGROUND:HiTECH Stay Alive-bg.png;
#PREVIEWVID:;
#JACKET:HiTECH Stay Alive-jacket.png;
#CDIMAGE:;
#DISCIMAGE:;
#LYRICSPATH:;
#CDTITLE:tastevault.png;
#MUSIC:HiTECH Stay Alive.ogg;
#OFFSET:0.000000;
#SAMPLESTART:23.684211;
#SAMPLELENGTH:15.000000;
#SELECTABLE:YES;
#GASongDataVersion:1;
#GASongData:{"SyncOffset"\:0,"DefaultChartType"\:"dance_single","DefaultChartIndex"\:4};
#BPMS:0.000000=152.000000;
#STOPS:;
#DELAYS:;
#WARPS:;
#TIMESIGNATURES:0.000000=4=4;
#TICKCOUNTS:;
#COMBOS:;
#SPEEDS:;
#SCROLLS:;
#FAKES:;
#LABELS:;
#LASTSECONDHINT:0.000000;
#KEYSOUNDS:;
#ATTACKS:;

//---------------dance-single - ----------------
#NOTEDATA:;
#CHARTNAME:;
#STEPSTYPE:dance-single;
#DESCRIPTION:;
#CHARTSTYLE:;
#DIFFICULTY:Beginner;
#METER:4;
#RADARVALUES:;
#CREDIT:tastevault;
#GAChartDataVersion:1;
#GAChartData:{"MusicOffset"\:0,"ShouldUseChartMusicOffset"\:false,"ExpressedChartConfig"\:"a19d532e-b0ce-4759-ad1c-02ecbbdf2efd","Patterns"\:{}};
#OFFSET:0.000000;
#BPMS:0.000000=152.000000;
#STOPS:;
#DELAYS:;
#WARPS:;
#TIMESIGNATURES:0.000000=4=4;
#TICKCOUNTS:;
#COMBOS:;
#SPEEDS:;
#SCROLLS:;
#FAKES:;
#LABELS:;
#DISPLAYBPM:152.000000;
#NOTES:
0000
0000
0000
0000
,
0000
0000
0000
0000
,
0000
0000
0000
0000
,
0000
0000
0000
0000
,
1000
0000
0000
0000
,
0100
0000
0000
0000
,
0010
0000
0010
0000
,
0001
0000
0001
0000
,
0100
0000
0010
0000
,
1000
0000
1000
0000
,
0001
0000
0010
0000
,
0100
0000
1000
0000
,
0002
0000
0000
0000
,
2003
0000
0000
3000
,
2002
0000
0000
0000
,
3003
0000
0000
0000
,
1000
0000
0000
0000
,
0100
0000
0000
0000
,
1000
0000
0000
0000
,
0001
0000
0000
0000
,
0100
0000
0000
0000
,
0010
0000
0000
0000
,
0100
0000
0000
0000
,
0002
0000
0000
0000
,
1003
0000
0000
0000
,
0100
0000
0000
0000
,
0010
0000
0000
0000
,
0001
0000
0000
0000
,
0100
0000
0000
0000
,
0010
0000
0000
0000
,
1000
0000
1000
0000
,
1001
0000
0000
0000
,
0000
0001
0001
0001
,
0000
0000
0000
0000
,
0000
1000
1000
1000
,
0000
0000
0000
0000
,
0000
0100
0100
0100
,
0000
0000
0000
0000
,
0000
0010
0010
0010
,
0002
0000
0003
0000
,
1000
0000
0100
0000
,
1000
0000
1000
0000
,
0001
0000
0100
0000
,
0010
0000
1000
0000
,
0002
0000
0000
0000
,
2003
0000
0000
3000
,
2002
0000
0000
0000
,
3003
0000
0000
0000
,
1001
0000
0001
0000
,
0001
0000
0001
0000
,
1001
0000
1000
0000
,
1000
0000
1000
0000
,
1001
0000
0010
0000
,
0010
0000
0010
0000
,
1001
0000
0100
0000
,
0100
0000
0100
0000
,
2002
0000
0000
0000
,
3003
0000
0000
0000
,
1000
0000
0100
0000
,
1000
0000
0000
0000
,
0001
0000
0000
0000
,
0100
0000
0000
0000
,
0010
0000
0000
0000
,
1000
0000
0100
0000
,
0010
0000
0000
0000
,
0001
0000
0000
0000
,
1000
0000
0010
0000
,
0100
0000
0001
0001
,
1000
0000
0000
0000
,
0100
0000
0000
0000
,
0010
0000
0000
0000
,
0001
0000
0000
0000
,
1000
0000
0000
0000
,
0010
0000
0000
0000
,
0100
0000
0000
0000
,
0001
0001
1000
1000
,
0001
0000
0000
0000
,
0010
0000
0000
0000
,
0001
0000
0000
0000
,
1000
0000
0000
0000
,
0010
0000
0000
0000
,
0100
0000
0000
0000
,
0010
0000
0000
0000
,
2000
0000
0000
3000
,
1001
0000
1000
0000
,
1000
0000
1000
0000
,
1001
0000
0001
0000
,
0001
0000
0001
0000
,
1001
0000
0100
0000
,
0100
0000
0100
0000
,
1001
0000
0010
0000
,
0010
0000
0010
0100
,
1100
0000
0000
0000
;

//---------------dance-single - ----------------
#NOTEDATA:;
#CHARTNAME:;
#STEPSTYPE:dance-single;
#DESCRIPTION:;
#CHARTSTYLE:;
#DIFFICULTY:Easy;
#METER:8;
#RADARVALUES:;
#CREDIT:tastevault;
#GAChartDataVersion:1;
#GAChartData:{"MusicOffset"\:0,"ShouldUseChartMusicOffset"\:false,"ExpressedChartConfig"\:"a19d532e-b0ce-4759-ad1c-02ecbbdf2efd","Patterns"\:{}};
#OFFSET:0.000000;
#BPMS:0.000000=152.000000;
#STOPS:;
#DELAYS:;
#WARPS:;
#TIMESIGNATURES:0.000000=4=4;
#TICKCOUNTS:0.000000=4;
#COMBOS:0.000000=1;
#SPEEDS:0.000000=1.000000=0.000000=0;
#SCROLLS:0.000000=1.000000;
#FAKES:;
#LABELS:;
#DISPLAYBPM:152.000000;
#NOTES:
0000
0000
0000
0000
,
0000
0000
0000
0000
,
0000
0000
0000
0000
,
0000
0000
0000
0000
,
1001
0000
1000
0000
,
0001
0000
0001
0000
,
0100
0000
0010
0000
,
1000
0000
0100
0000
,
1000
0000
1000
0000
,
0001
0000
0001
0000
,
0100
0000
0100
0000
,
0010
0000
0010
0000
,
1000
0100
0010
0001
,
1000
0010
0100
0001
,
0010
0100
1000
0010
,
0100
0000
0000
0000
,
0001
0100
0001
0001
,
1000
0100
1000
1000
,
0001
0010
0001
0001
,
1000
0100
0010
0001
,
1000
0100
1000
1000
,
0001
0100
0001
0001
,
1000
0010
1000
1000
,
0001
0010
0001
0000
2002
0000
3003
0000
,
1000
0100
0010
0000
,
0001
0100
0010
0010
,
1000
0010
0100
0000
,
0001
0010
0100
1000
,
0001
0010
0001
0001
,
1000
0010
0100
0100
,
0002
0000
0000
0000
,
1003
0100
1000
0000
,
0001
1001
1001
1001
,
0000
0000
0000
0000
,
0100
0110
0110
0110
,
0000
0000
0000
0000
,
1000
1001
1001
1001
,
0000
0000
0000
0000
,
0010
0110
0110
0110
,
1001
0000
0000
0000
,
1000
0000
0100
0000
,
1000
0000
0010
0000
,
0100
0000
0001
0000
,
1000
0000
0100
0000
,
1000
0100
0010
0001
,
1000
0010
0100
0001
,
0010
0100
1000
0010
,
0100
0000
0000
0000
,
1001
0000
0001
0100
,
0001
0100
0001
0000
,
1001
0000
1000
0100
,
1000
0100
1000
0000
,
1001
0000
0001
0010
,
0001
0010
0001
0000
,
1001
0000
1000
0010
,
1000
0010
1000
0000
,
0001
0000
0010
0000
,
0100
0000
1000
0000
,
0001
0000
0001
0000
,
1001
0000
0000
0000
,
1000
0100
0010
0000
,
0001
0100
0010
0000
,
1000
0010
0100
0000
,
0001
1000
0100
0000
,
0010
0001
1000
0000
,
0010
0100
0001
0000
,
1000
0100
0010
0000
,
0100
1000
0010
0000
,
0100
0001
0010
0000
,
0001
0100
0010
0000
,
1000
0100
0010
0000
,
0001
0100
0010
0000
,
1000
0010
0100
0000
,
0001
1000
0100
0000
,
0010
0001
1000
0000
,
0001
0100
0010
1000
,
0001
0010
0100
0000
,
1000
0010
0100
0000
,
0001
0100
0010
0000
,
0100
0001
0010
0100
,
1000
0000
0001
1000
,
0010
0000
1000
0001
,
0100
0000
0001
0010
,
0100
1000
0010
1000
,
1001
0000
0001
0100
,
0001
0100
0001
0000
,
1001
0000
1000
0100
,
1000
0100
1000
0000
,
1001
0000
0001
0010
,
0001
0010
0001
0000
,
1001
0000
1000
0010
,
1000
0010
1000
0000
,
M110
0000
0000
0000
;

//---------------dance-single - sj XO!----------------
#NOTEDATA:;
#CHARTNAME:;
#STEPSTYPE:dance-single;
#DESCRIPTION:sj XO!;
#CHARTSTYLE:;
#DIFFICULTY:Medium;
#METER:13;
#RADARVALUES:;
#CREDIT:tastevault;
#GAChartDataVersion:1;
#GAChartData:{"MusicOffset"\:0,"ShouldUseChartMusicOffset"\:false,"ExpressedChartConfig"\:"a19d532e-b0ce-4759-ad1c-02ecbbdf2efd","Patterns"\:{}};
#OFFSET:0.000000;
#BPMS:0.000000=152.000000;
#STOPS:;
#DELAYS:;
#WARPS:;
#TIMESIGNATURES:0.000000=4=4;
#TICKCOUNTS:;
#COMBOS:;
#SPEEDS:;
#SCROLLS:;
#FAKES:;
#LABELS:;
#DISPLAYBPM:152.000000;
#NOTES:
0000
0000
0000
0000
,
0000
0000
0000
0000
,
0000
0000
0000
0000
,
0000
0000
0000
0000
,
1000
0100
0010
0001
,
1000
0010
0100
0001
,
0020
0230
2300
3020
,
0230
0302
0023
0032
,
1003
0100
0010
0001
0100
0010
1000
1000
,
0010
0100
0001
0010
0100
1000
0001
0100
,
0001
0010
0100
1000
0010
0100
0001
1000
,
1000
0100
0010
0001
0100
0010
1000
0001
,
0100
0010
1000
0100
0010
0100
1000
0010
,
0100
0001
0010
0100
0010
0001
0100
0010
,
1000
0100
0010
0001
1000
0100
0010
0001
,
0100
0000
0000
0000
0010
1000
0010
0000
0100
0000
0001
0000
1000
0000
0000
0000
,
2001
0000
3100
0010
0001
0100
0010
0000
,
1002
0000
0013
0100
1000
0010
0100
0000
,
0102
0000
1003
0100
0010
0001
0100
0000
,
0001
0010
0100
1000
0010
0100
0001
1000
,
1002
0000
0103
0010
1000
0100
0010
0000
,
2001
0000
3010
0100
0001
0010
0100
0000
,
2100
0000
3001
0100
0010
1000
0100
0000
,
1000
0000
0010
0000
0100
0000
0001
0000
0010
0000
0001
1000
0001
0000
1000
0100
,
1000
0000
0000
0010
0000
0000
0100
0000
0001
0000
0100
0000
0010
0000
0100
0000
,
0001
0000
0000
1000
0000
0000
0100
0000
0010
0000
0100
0000
0010
0000
0001
0000
,
1000
0000
0000
0100
0000
0000
0010
0000
0001
0000
0010
0000
0100
0000
0010
0000
,
0001
0000
1000
0010
0000
0000
0100
0001
1000
0000
1000
0000
0100
0000
1000
0000
,
0001
0000
0000
0010
0000
0000
0100
0000
1000
0000
0100
0000
0010
0000
0100
0000
,
1000
0000
0000
0001
0000
0000
0100
0000
0010
0000
0100
0000
0010
0000
1000
0000
,
0200
0000
0310
0001
0200
0000
0310
1000
,
0001
0010
0100
1000
0010
0100
0010
1000
,
0001
0101
1100
0101
,
1000
0100
0010
0100
0001
0100
1000
0001
,
1000
1100
0101
1100
,
1000
0100
0010
0001
0010
0100
1000
0001
,
0010
0011
1010
0011
,
1000
0010
0100
0010
0001
0010
1000
0001
,
1000
1010
0011
1010
,
2001
0000
0000
0000
0000
0000
0000
0000
3100
0010
0000
0002
0000
0000
0000
0000
,
1003
0100
0010
0001
0100
0010
1000
0001
,
0001
0010
0100
1000
0010
0100
0001
1000
,
0100
1000
0010
0100
0001
1000
0100
1000
,
1000
0010
0100
0001
0010
0100
1000
0001
,
0100
0010
0100
0001
0010
0100
1000
0010
,
0100
0010
1000
0100
0010
0100
1000
0001
,
0100
0010
1000
0100
0010
0001
0100
0001
,
1000
0000
0000
0000
0000
0000
0001
1000
,
1002
0000
1003
0100
0001
0100
0010
0100
,
1000
0100
0010
0100
0001
0100
1000
0000
,
2001
0000
3001
0100
1000
0100
0010
0100
,
0001
0100
0010
0100
1000
0100
0001
0000
,
1002
0000
1003
0010
0001
0010
0100
0010
,
1000
0010
0100
0010
0001
0010
1000
0000
,
2001
0000
3001
0010
1000
0010
0100
0010
,
0001
0000
0010
0000
0100
0000
0010
0000
0001
0000
0001
1000
0000
1000
0000
0000
,
0002
0000
0203
0000
0320
0000
1030
0001
,
2000
0000
3200
0000
0320
0000
0031
1000
,
0010
0100
0001
0010
0100
1000
0010
1000
,
0001
0000
0000
0000
0010
0000
0000
0000
0100
0000
0000
0000
1000
0001
1000
0001
,
1000
0000
0000
0010
0000
0000
0100
0000
0001
0000
0100
0000
1000
0000
0100
0000
,
0001
0000
0000
1000
0000
0000
0100
0000
0010
0000
0100
0000
0001
0000
0100
0000
,
1000
0000
0000
0100
0000
0000
0010
0000
0001
0000
0010
0000
1000
0000
0010
0000
,
0001
0000
1000
0010
0000
0000
0100
0001
1000
0000
1000
0000
0010
0000
0100
0000
,
0001
0000
0000
0010
0000
0000
0100
0000
1000
0000
0100
0000
0001
0000
0100
0000
,
1000
0000
0000
0001
0000
0000
0100
0000
0010
0000
0100
0000
1000
0000
0100
0000
,
0001
0000
0000
1000
0000
0000
0100
0000
0010
0000
0001
0000
1000
0000
0010
0000
,
0001
0010
0100
0010
1000
1000
0100
0010
,
0001
0000
0000
0010
0000
0000
0100
0000
1000
0000
0100
0000
0001
0000
0100
0000
,
1000
0000
0000
0001
0000
0000
0100
0000
0010
0000
0100
0000
1000
0000
0100
0000
,
0001
0000
0000
0100
0000
0000
0010
0000
1000
0000
0010
0000
0001
0000
0010
0000
,
1000
0000
0001
0010
0000
0000
0100
1000
0001
0000
0001
0000
0010
0000
0100
0000
,
1000
0000
0000
0010
0000
0000
0100
0000
0001
0000
0100
0000
1000
0000
0100
0000
,
0001
0000
0000
1000
0000
0000
0100
0000
0010
0000
0100
0000
0001
0000
0100
0000
,
1000
0000
0000
0001
0000
0000
0100
0000
0010
0000
1000
0000
0001
0000
0010
0000
,
1000
0010
0100
0010
0001
0100
0010
1000
,
1002
0000
0013
0100
1000
0010
0100
0000
,
2001
0000
3100
0010
0001
0100
0010
0000
,
2010
0000
3001
0010
0100
1000
0010
0000
,
1000
0100
0010
0001
0100
0010
1000
0001
,
2001
0000
3010
0100
0001
0010
0100
0000
,
1002
0000
0103
0010
1000
0100
0010
0000
,
0012
0000
1003
0010
0100
0001
0010
0000
,
0001
0000
0100
0000
0010
0000
1000
0000
0100
0000
1000
0001
1000
0000
0001
0010
,
0002
0000
0103
0010
0001
0010
1000
0010
,
0100
0010
1000
0010
0001
0010
0100
0001
,
2001
0000
3100
0010
1000
0010
0001
0010
,
0100
0010
0001
0010
1000
0010
0100
1000
,
1002
0000
0013
0100
0001
0100
1000
0100
,
0010
0100
1000
0100
0001
0100
0010
0001
,
2001
0000
3010
0100
1000
0100
0001
0100
,
0010
0100
0001
0100
1000
0100
0010
1000
,
1100
0000
0000
0000
;

//---------------dance-single - ds fs XO----------------
#NOTEDATA:;
#CHARTNAME:;
#STEPSTYPE:dance-single;
#DESCRIPTION:ds fs XO;
#CHARTSTYLE:;
#DIFFICULTY:Hard;
#METER:15;
#RADARVALUES:;
#CREDIT:tastevault;
#GAChartDataVersion:1;
#GAChartData:{"MusicOffset"\:0,"ShouldUseChartMusicOffset"\:false,"ExpressedChartConfig"\:"a19d532e-b0ce-4759-ad1c-02ecbbdf2efd","Patterns"\:{}};
#OFFSET:0.000000;
#BPMS:0.000000=152.000000;
#STOPS:;
#DELAYS:;
#WARPS:;
#TIMESIGNATURES:0.000000=4=4;
#TICKCOUNTS:;
#COMBOS:;
#SPEEDS:;
#SCROLLS:;
#FAKES:;
#LABELS:;
#DISPLAYBPM:152.000000;
#NOTES:
0000
0000
0000
0000
,
0000
0000
0000
0000
,
0000
0000
0000
0000
,
0000
0000
0000
0000
,
0001
0000
0100
0000
0010
1000
0100
0010
,
0001
0000
0010
0100
1000
0000
0100
0010
,
0002
0203
0320
2030
,
3200
0320
0032
2003
,
3001
0100
0001
1000
0100
0010
0001
1000
,
1000
0000
0010
0000
0100
0000
0001
0000
0010
0000
0100
0000
1000
0000
0001
0100
,
0001
1000
0100
0010
0001
1000
0010
1000
,
1000
0000
0001
0000
0100
0000
0010
0000
1000
0000
0100
0000
0010
0000
0001
1000
,
0001
0010
0100
1000
0001
0010
0100
1000
,
0001
0100
0010
1000
0001
0100
0010
1000
,
0001
0010
0100
1000
0010
0100
0010
1000
,
0100
0000
0000
0000
0010
0001
0010
0000
0100
0000
1000
0000
0001
0000
1000
0000
,
2001
0000
0000
0000
3001
0000
0100
0010
0000
1000
0001
0000
0010
0000
0001
0000
,
1002
0000
0000
0000
1003
0000
0100
0010
0000
0001
0000
0001
1000
0000
0010
0000
,
2001
0000
0000
0000
3001
0000
0100
0010
0000
1000
0001
0000
1000
0000
0100
0000
,
0010
0000
0001
0000
0100
0000
0001
1000
0010
0000
1000
0000
0100
0000
0000
0000
,
2001
0000
0000
0000
3001
0000
0100
0010
0000
1000
0001
0000
0010
0000
0001
0000
,
1002
0000
0000
0000
1003
0000
0100
0010
0000
0001
0000
0001
1000
0000
0010
0000
,
2001
0000
0000
0000
3001
0000
0100
0010
0000
1000
0001
0000
1000
0000
0100
0000
,
0010
0000
0001
0000
0100
0000
0001
1000
0010
0000
0010
0000
0100
0000
0000
0000
,
0001
0000
0001
1000
0000
0000
0100
0000
0010
0000
0100
0000
1000
0000
0010
0000
,
0100
0000
0100
0001
0000
0000
0100
0000
0010
0000
1000
0000
0001
0000
0010
0000
,
0100
0000
0100
0010
0000
0000
0001
0000
1000
0000
0010
0000
0100
0000
0001
0000
,
0010
0000
0100
1000
0000
0100
0010
0001
1000
0000
0010
0000
0100
0000
0001
0000
,
1000
0000
1000
0010
0000
0000
0100
0000
0001
0000
0100
0000
0010
0000
1000
0000
,
0100
0000
0100
0010
0000
0000
0001
0000
0010
0000
0100
0000
1000
0000
0010
0000
,
0002
0000
1003
0100
0002
0000
1003
0100
,
0010
0000
0010
0000
0001
0000
0100
0010
1000
0000
0010
0100
0001
0000
1000
0000
,
0100
1000
1010
0000
0011
0000
1010
1000
,
0100
0000
0010
0001
0100
0000
0001
0000
1000
0000
0010
1000
0100
0000
1000
0000
,
0001
1000
1010
0000
0011
0000
1010
0000
,
0001
0010
0100
1000
0010
0000
0100
0000
0010
1000
0100
0010
0001
0000
1000
0000
,
0001
0010
0011
0000
1010
0000
0011
0001
,
0100
0000
0010
1000
0100
0000
0010
0000
0001
0000
0010
0001
0100
0000
0010
0000
,
1000
0000
1010
0000
0011
0000
1010
0001
,
1002
0000
0000
0000
0000
0000
0000
0000
0103
0010
0000
2010
0000
0000
0000
0000
,
3001
1000
0001
0010
0100
1000
0001
0001
,
0100
0000
0010
0000
1000
0000
0100
0000
0010
0000
0001
0000
1000
0010
1000
0000
,
0001
0010
0100
1000
0001
0100
0001
0001
,
1000
0000
0010
0000
0100
0000
0001
0000
0010
0000
0100
0000
1000
0001
1000
0000
,
0100
0010
0001
1000
0100
0010
0001
1000
,
0010
0100
0001
1000
0010
0100
0001
1000
,
0100
0010
0001
0100
0010
0100
0001
0010
,
0100
1000
1000
0010
0010
0100
0100
0001
,
2001
0000
3100
0010
0012
1003
2010
3001
,
0012
0000
1003
0000
2010
0000
3001
0000
0012
0000
1003
0100
0010
0100
1000
0000
,
1002
0000
0103
0010
2010
3001
0012
1003
,
2010
0000
3001
0000
0012
0000
1003
0000
2010
0000
3001
0100
0010
0100
0001
0000
,
2001
0000
3010
0100
0102
1003
2100
3001
,
0102
0000
1003
0000
2100
0000
3001
0000
0102
0000
1003
0010
0100
0010
1000
0000
,
1002
0000
0013
0100
2100
3001
0102
1003
,
0100
0010
0001
0000
0100
0010
1000
0000
0100
0010
0001
1000
0000
1000
0000
0000
,
0002
0000
0203
0000
0320
0000
1030
0001
,
1000
0100
0010
0001
1000
0100
0010
0001
,
0100
0000
1000
0000
0100
0000
0001
0000
0010
0000
0100
0000
1000
0001
1000
0010
,
1000
0000
0000
0000
0100
0000
0000
0000
0010
0000
0001
0000
1000
0010
0100
0001
,
1000
0000
1000
0010
0000
0000
0100
0000
0001
0000
0010
0000
001M
0000
1000
0000
,
0001
0000
1000
0100
0000
0000
0010
0000
0001
0000
0100
0000
010M
0000
1000
0000
,
0001
0000
1000
0100
0000
0000
0010
0000
0001
0000
0010
0000
001M
0000
1000
0000
,
0010
0000
0100
1000
0000
0000
0100
0010
1000
0000
0001
0000
0011
0000
1000
0000
,
1001
0000
0001
0010
0000
0000
0100
0000
1000
0000
0010
0000
M010
0000
0001
0000
,
1000
0000
0001
0100
0000
0000
0010
0000
1000
0000
0100
0000
M100
0000
0001
0000
,
1000
0000
0001
0100
0010
0000
0100
0001
0010
0000
0100
0000
1000
0000
0010
0000
,
0001
0000
0010
0100
0001
0000
0001
1000
0100
0000
0100
0000
0010
0001
0100
0001
,
1000
0000
1000
0100
0000
0000
0010
0000
0001
0000
0100
0000
010M
0000
1000
0000
,
0001
0000
1000
0010
0000
0000
0100
0000
0001
0000
0010
0000
001M
0000
1000
0000
,
0001
0000
1000
0010
0000
0000
0100
0000
0001
0000
0100
0000
010M
0000
1000
0000
,
0100
0000
0010
1000
0000
0000
0010
0100
1000
0000
0001
0000
0101
0000
1000
0000
,
1001
0000
0001
0100
0000
0000
0010
0000
1000
0000
0100
0000
M100
0000
0001
0000
,
1000
0000
0001
0010
0000
0000
0100
0000
1000
0000
0010
0000
M010
0000
0001
0000
,
1000
0000
0001
0010
0100
0000
0010
0001
0100
0000
0010
0000
1000
0000
0100
0000
,
0001
0000
0100
0010
0001
0000
0001
1000
0010
0000
0010
0000
0100
0010
1000
0000
,
1002
0000
0000
0000
1003
0000
0100
0010
0000
0001
1000
0000
0010
0000
1000
0000
,
2001
0000
0000
0000
3001
0000
0100
0010
0000
1000
0000
1000
0001
0000
0010
0000
,
1002
0000
0000
0000
1003
0000
0100
0010
0000
0001
1000
0000
0001
0000
0100
0000
,
0010
0000
1000
0000
0100
0000
1000
0001
0010
0000
0001
0000
0100
0000
0000
0000
,
1002
0000
0000
0000
1003
0000
0100
0010
0000
0001
1000
0000
0010
0000
1000
0000
,
2001
0000
0000
0000
3001
0000
0100
0010
0000
1000
0000
1000
0001
0000
0010
0000
,
1002
0000
0000
0000
1003
0000
0100
0010
0000
0001
1000
0000
0001
0000
0100
0000
,
0010
0000
1000
0000
0100
0000
1000
0001
0010
0000
0010
0000
0100
0000
1000
0000
,
1002
0000
0013
0100
2100
3001
0102
1003
,
2100
0000
3001
0000
0102
0000
1003
0000
2100
0000
3001
0010
0100
0010
0001
0000
,
2001
0000
3010
0100
0102
1003
2100
3001
,
0102
0000
1003
0000
2100
0000
3001
0000
0102
0000
1003
0010
0100
0010
1000
0000
,
1002
0000
0103
0010
2010
3001
0012
1003
,
2010
0000
3001
0000
0012
0000
1003
0000
2010
0000
3001
0100
0010
0100
0001
0000
,
2001
0000
3100
0010
0012
1003
2010
3001
,
0010
0100
1000
0000
0010
0100
0001
0000
0010
0100
1000
0010
0100
0000
0000
0000
,
1100
0000
0000
0000
;

//---------------dance-single - ds sj FS XO!----------------
#NOTEDATA:;
#CHARTNAME:;
#STEPSTYPE:dance-single;
#DESCRIPTION:ds sj FS XO!;
#CHARTSTYLE:;
#DIFFICULTY:Challenge;
#METER:17;
#RADARVALUES:;
#CREDIT:tastevault;
#GAChartDataVersion:1;
#GAChartData:{"MusicOffset"\:0,"ShouldUseChartMusicOffset"\:false,"ExpressedChartConfig"\:"0c0ba200-8f90-4060-8912-e9ea65831ebc","Patterns"\:{}};
#OFFSET:0.000000;
#BPMS:0.000000=152.000000;
#STOPS:;
#DELAYS:;
#WARPS:;
#TIMESIGNATURES:0.000000=4=4;
#TICKCOUNTS:;
#COMBOS:;
#SPEEDS:;
#SCROLLS:;
#FAKES:;
#LABELS:;
#DISPLAYBPM:152.000000;
#NOTES:
0000
0000
0000
0000
,
0000
0000
0000
0000
,
0000
0000
0000
0000
,
0000
0000
0000
0000
,
1000
0000
0010
0100
0001
0100
0010
0000
,
1000
0000
0100
0010
0001
0000
0100
0010
,
2000
3200
0320
0032
,
0203
0320
2030
3002
,
1003
0000
0100
0000
0010
0000
0001
0000
0010
0000
0100
0000
1000
0000
0001
1000
,
0001
0000
0100
0000
0010
0000
1000
0000
0010
0000
0100
0000
0001
1000
0001
1000
,
0001
0000
0010
0000
0100
0000
1000
0000
0100
0000
0010
0000
0001
0000
1000
0001
,
1000
0000
0010
0000
0100
0000
0001
0000
0100
0000
0010
0000
1000
0001
1000
0001
,
1000
0000
0100
0010
0001
0000
1000
0010
0100
0000
0001
1000
0100
0000
0010
0001
,
1000
0000
0001
0100
0010
0000
1000
0001
0010
0000
0001
1000
0010
0000
0100
0001
,
1000
0100
0010
0001
1000
0100
0010
0001
1000
0010
0100
0001
1000
0010
0100
0001
,
1000
0000
0000
0000
0001
0010
0100
0000
0001
0000
0100
0000
1000
0010
1000
0001
,
2001
0000
0000
0000
3100
0010
0001
0100
0000
0100
0001
0000
0100
0010
1000
0000
,
1002
0000
0000
0000
0103
0010
1000
0100
0000
0100
0000
0010
0001
0000
0010
0000
,
2001
0000
0000
0000
3100
0010
0001
0100
0000
0100
0004
0000
0103
0000
0010
0000
,
1000
0000
0001
0100
0010
0000
0010
1000
0001
0000
0001
1000
0100
0000
1000
0000
,
1002
0000
0000
0000
0103
0010
1000
0100
0000
0100
1000
0000
0100
0010
0001
0000
,
2001
0000
0000
0000
3100
0010
0001
0100
0000
0100
0000
0010
1000
0000
0010
0000
,
1002
0000
0000
0000
0103
0010
1000
0100
0000
0100
4000
0000
3100
0000
0010
0000
,
0001
0000
0001
0000
0040
0000
0130
1000
0001
0000
0001
0100
0010
1000
0100
1000
,
1001
0000
0001
0100
0000
010M
1000
0000
0001
0000
0010
0000
0100
0000
1000
0000
,
1001
0000
1000
0100
0000
M100
0001
0000
1000
0000
0010
0000
0100
0000
0001
0000
,
0011
0000
0001
0010
0000
001M
1000
0000
0001
0000
0010
0000
0100
0000
1000
0000
,
1010
0000
0010
0100
0000
01M0
1000
0100
0010
0000
0001
0000
1000
0000
0010
0000
,
1001
0000
1000
0100
0000
M100
0001
0000
1000
0000
0010
0000
0100
0000
0001
0000
,
1001
0000
0001
0100
0000
010M
1000
0000
0001
0000
0010
0000
0100
0000
1000
0000
,
1020
0000
1030
1000
0021
0000
0031
0001
,
1000
0000
1000
0000
0004
0000
0103
0010
1000
0000
1000
0010
0100
0001
0010
0100
,
1000
0001
0012
0003
2010
3000
0012
1003
,
0010
0000
0010
0100
1000
0000
0100
0000
0010
0000
1000
0100
0001
0000
0100
0000
,
1000
0001
0012
0003
2010
3000
0012
1003
,
0010
0100
0001
0100
0010
0000
1000
0000
0100
0000
0001
0000
0100
0000
1000
0000
,
0001
1000
2010
3000
0012
0003
2010
3001
,
0010
0000
0010
0100
0001
0000
0100
0000
0010
0000
0001
0100
1000
0000
0100
0000
,
0001
1000
2010
3000
0012
0003
2010
3001
,
1001
0000
1000
0000
1000
0000
0100
0000
0001
0100
0000
0020
0000
0000
0031
0000
,
1000
0000
0010
0000
0100
0000
0001
0000
0100
0000
0010
0000
1000
0000
0001
1000
,
0001
0000
0010
0000
0100
0000
1000
0000
0100
0000
0010
0000
0001
1000
0100
1000
,
0001
0000
0100
0000
0010
0000
1000
0000
0010
0000
0100
0000
0001
0000
1000
0001
,
1000
0000
0100
0000
0010
0000
0001
0000
0010
0000
0100
0000
1000
0001
0100
0001
,
1000
0000
0010
0100
0001
0000
1000
0100
0010
0000
0001
1000
0010
0000
0100
0001
,
1000
0000
0001
0010
0100
0000
1000
0001
0100
0000
0001
1000
0100
0000
0010
0001
,
1000
0010
0100
0001
1000
0010
0100
0001
1000
0100
0010
0001
1000
0100
0010
0001
,
1000
0100
1000
0010
0100
0001
0010
0001
,
1002
0000
0000
0000
0013
0000
0400
0000
0301
0100
0010
0000
0001
0100
0010
0000
,
0001
0010
0100
0000
0001
0010
0100
0000
0001
0100
0010
0001
1000
0010
0100
0000
,
2001
0000
0000
0000
3010
0000
0400
0000
1300
0100
0010
0000
1000
0100
0010
0000
,
1000
0010
0100
0000
1000
0010
0100
0000
1000
0100
0010
1000
0001
0010
0100
0000
,
1002
0000
0000
0000
0103
0000
0040
0000
0031
0010
0100
0000
0001
0010
0100
0000
,
0001
0100
0010
0000
0001
0100
0010
0000
0001
0010
0100
0001
1000
0100
0010
0000
,
2001
0000
0000
0000
3100
0000
0040
0000
1030
0010
0100
0000
1000
0010
0100
0000
,
1000
0100
0010
0000
1000
0100
0010
0000
1000
0010
0100
1000
0000
0001
0000
0000
,
0001
0100
0010
1000
0010
0100
0001
1000
,
0100
0010
0001
0100
0001
0010
0100
1000
,
0001
0000
1000
0000
0100
0000
0010
0000
0001
0000
1000
0000
0001
1000
0001
1000
,
0002
0000
0000
0000
0023
0000
0000
0000
0130
0000
1000
0000
0001
1000
0010
1000
,
0100
0000
1000
0010
0000
M010
0001
0000
1000
0000
0010
0000
0001
0000
0010
0000
,
1000
0000
0001
0100
0000
010M
1000
0000
0001
0000
0100
0000
1000
0000
0100
0000
,
0001
0000
1000
0010
0000
M010
0001
0000
1000
0000
0010
0000
0001
0000
0010
0000
,
1000
0000
0100
0010
0000
0M10
1000
0001
0010
0000
1000
0000
0001
0000
0100
0000
,
1000
0000
0001
0010
0000
001M
1000
0000
0001
0000
0010
0000
1000
0000
0010
0000
,
0001
0000
1000
0100
0000
M100
0001
0000
1000
0000
0100
0000
0001
0000
0100
0000
,
1000
0000
0001
0010
0000
001M
1000
0001
0010
0000
0001
0000
0100
0000
0010
0000
,
0001
0000
1000
0100
0001
0000
1000
0100
0001
0000
0001
0000
0100
1000
0010
1000
,
0100
0000
1000
0100
0000
M100
0001
0000
1000
0000
0100
0000
0001
0000
0100
0000
,
1000
0000
0001
0010
0000
001M
1000
0000
0001
0000
0010
0000
1000
0000
0010
0000
,
0001
0000
1000
0100
0000
M100
0001
0000
1000
0000
0100
0000
0001
0000
0100
0000
,
1000
0000
0010
0100
0000
01M0
1000
0001
0100
0000
1000
0000
0001
0000
0010
0000
,
1000
0000
0001
0100
0000
010M
1000
0000
0001
0000
0100
0000
1000
0000
0100
0000
,
0001
0000
1000
0010
0000
M010
0001
0000
1000
0000
0010
0000
0001
0000
0010
0000
,
1000
0000
0001
0100
0000
010M
1000
0001
0100
0000
0001
0000
0010
0000
0100
0000
,
0001
0000
1000
0010
0001
0000
1000
0010
0001
0000
0010
0000
1000
0001
0010
0001
,
2001
0000
0000
0000
3100
0010
0001
0100
0000
010M
1000
0000
0100
0000
0010
0000
,
1002
0000
0000
0000
0103
0010
1000
0100
0000
M100
0000
0001
0010
0000
0001
0000
,
2001
0000
0000
0000
3100
0010
0001
0100
0000
010M
4000
0000
3100
0000
0010
0000
,
0001
0000
1000
0100
0010
0000
0010
0001
0100
0000
0100
0010
1000
0000
0001
0000
,
1002
0000
0000
0000
0103
0010
1000
0100
0000
M100
0001
0000
0010
0100
1000
0000
,
2001
0000
0000
0000
3100
0010
0001
0100
0000
010M
0000
1000
0010
0000
1000
0000
,
1002
0000
0000
0000
0103
0010
1000
0100
0000
M100
0004
0000
0103
0000
0010
0000
,
1000
0000
1000
0000
0400
0000
0310
0001
1000
0000
1000
0010
0100
0001
0010
0001
,
2001
0000
0000
0000
3010
0000
0400
0000
1300
0100
0010
0000
1000
0100
0010
0000
,
1000
0010
0100
0000
1000
0010
0100
0000
1000
0100
0010
1000
0001
0010
0100
0000
,
1002
0000
0000
0000
0013
0000
0400
0000
0301
0100
0010
0000
0001
0100
0010
0000
,
0001
0010
0100
0000
0001
0010
0100
0000
0001
0100
0010
0001
1000
0010
0100
0000
,
2001
0000
0000
0000
3100
0000
0040
0000
1030
0010
0100
0000
1000
0010
0100
0000
,
1000
0100
0010
0000
1000
0100
0010
0000
1000
0010
0100
1000
0001
0100
0010
0000
,
1002
0000
0000
0000
0103
0000
0040
0000
0031
0010
0100
0000
0001
0010
0100
0000
,
0001
0100
0010
0000
0001
0100
0010
0000
0001
0010
0100
0001
1000
0100
0010
0000
,
0011
0000
0000
0000
;
