#TITLE:花冠 feat.Aikapin;
#SUBTITLE:;
#ARTIST:RoughSkreamZ;
#TITLETRANSLIT:Hanakanmuri feat.Aikapin;
#SUBTITLETRANSLIT:;
#ARTISTTRANSLIT:;
#GENRE:;
#CREDIT:;
#BANNER:;
#BACKGROUND:;
#LYRICSPATH:;
#CDTITLE:;
#MUSIC:Hanakanmuri feat.Aikapin.ogg;
#OFFSET:1.520939;
#SAMPLESTART:74.050003;
#SAMPLELENGTH:12.000000;
#LASTBEATHINT:0.642430;
#SELECTABLE:YES;
#BPMS:0.000000=82.500000
,20.000000=165.000000
,248.000000=180.000000
;
#STOPS:
;
#BGCHANGES:;
#KEYSOUNDS:;
#ATTACKS:;

//---------------dance-single - ----------------
#NOTES:
     dance-single:
     :
     Hard:
     16:
     0.787019,1.000194,0.306511,0.524295,0.649319,683.000000,645.000000,38.000000,65.000000,0.000000,0.000000,0.787019,1.000194,0.306511,0.524295,0.649319,683.000000,645.000000,38.000000,65.000000,0.000000,0.000000:
// measure 0
0000
0000
0000
0000
,  // measure 1
0000
0000
0000
0000
,  // measure 2
0000
0000
0000
0000
,  // measure 3
0000
0000
0000
0000
,  // measure 4
0000
0000
0000
0000
,  // measure 5
0001
0000
0000
0100
0010
0000
1000
0000
0001
0000
0010
0100
0010
0000
0001
0000
,  // measure 6
1000
0100
0010
0001
0100
0010
1000
0000
0000
0000
0000
0000
,  // measure 7
0001
0000
0000
0010
0100
0000
1000
0000
0001
0000
1000
0100
1000
0000
0001
0000
,  // measure 8
1000
0020
0031
0020
1030
0020
0031
0020
,  // measure 9
1030
0000
0000
0010
0100
0000
0001
0000
1000
0000
0001
0010
0001
0000
1000
0000
,  // measure 10
0001
0020
1030
0020
0031
0020
1030
0020
,  // measure 11
0031
0000
0000
1000
0010
0000
0100
0000
0001
0000
1000
0100
1000
0000
0001
0000
,  // measure 12
0010
0000
0000
0100
0010
0000
0001
0000
1000
0000
0001
0100
0001
0000
1000
0000
,  // measure 13
0010
0000
0000
0100
0010
0000
1000
0000
0001
0000
0010
0100
0010
0000
0001
0000
,  // measure 14
1000
0000
0010
0100
0001
0000
1000
0100
0010
0001
0010
0001
1000
0000
0000
0000
,  // measure 15
0001
0000
0000
1000
0100
0000
0001
0000
0100
0000
1000
0001
1000
0000
0010
0000
,  // measure 16
0100
2000
3100
0002
0103
2000
3100
0002
,  // measure 17
1003
0000
0000
0001
0010
0000
1000
0000
0010
0000
0001
1000
0001
0000
0100
0000
,  // measure 18
0010
0002
0013
2000
3010
0002
0013
2000
,  // measure 19
3001
0000
0000
0010
0100
0000
0001
0000
0100
0000
1000
0100
1000
0000
0001
0000
,  // measure 20
1000
0000
0000
0010
0100
0000
1000
0000
0100
0000
0001
0100
0001
0000
1000
0000
,  // measure 21
0100
0000
0000
0010
0100
0000
0001
0000
0100
0000
1000
0100
1000
0000
0001
0000
,  // measure 22
1000
0010
0100
0001
0010
0100
1000
0000
0000
0000
0000
0000
,  // measure 23
0101
0000
0000
0101
0000
0000
1000
0001
0010
0000
0100
0000
0100
0000
0100
0000
,  // measure 24
0000
0000
1000
0000
1000
0000
0001
1000
0100
0000
0010
0000
0002
0000
0003
0000
,  // measure 25
1100
0000
0000
1100
0000
0000
0001
0100
0020
0000
0000
0000
0000
0000
0130
0001
,  // measure 26
0000
0000
0101
0000
0101
0000
1000
0001
0010
0000
0100
0000
1000
0000
0001
0000
,  // measure 27
1100
0000
0000
1100
0000
0000
0001
1000
0010
0000
0100
0000
0010
0000
0110
0000
,  // measure 28
0000
0000
1010
0000
1010
0000
0001
1000
0100
0000
0010
0000
0001
0000
1000
0000
,  // measure 29
0101
0000
0000
0101
0000
0000
1000
0001
0010
0000
0010
0000
0010
0000
0100
1000
,  // measure 30
0001
0010
0001
0000
0100
0000
0001
1000
0020
0000
0000
0000
0000
0000
0030
0000
,  // measure 31
1000
0000
0000
0001
0010
0000
0001
0000
1000
0000
0001
0100
1000
0000
0100
0000
,  // measure 32
0001
0000
0000
1000
0010
0000
1000
0000
0001
0000
1000
0100
0001
0000
0100
0000
,  // measure 33
1000
0000
0000
0001
0100
0000
0001
0000
1000
0000
0001
0010
1000
0000
0010
0000
,  // measure 34
0001
0000
0000
1000
0100
0000
1000
0000
0001
0000
0011
0000
1000
0000
1100
0000
,  // measure 35
1002
0000
0003
1000
0100
0000
0010
0000
0001
0000
1000
0010
0001
0000
0010
0000
,  // measure 36
2010
0000
3000
0001
0100
0000
0010
0000
1000
0000
0001
0010
1000
0000
0010
0000
,  // measure 37
0001
0100
0001
1000
0000
0000
1000
0100
1000
0001
0000
0000
,  // measure 38
0001
0010
0100
1000
0010
0100
0001
0000
0000
0000
0000
0000
,  // measure 39
1000
0000
0000
0000
1000
0000
0000
0000
0001
0000
0000
0010
0000
0000
0110
0000
,  // measure 40
0001
0000
0000
0000
0001
0000
0000
0000
1000
0000
0000
0001
0000
0000
0101
0000
,  // measure 41
0010
0000
0000
0000
0010
0000
0000
0000
1000
0000
0000
0100
0000
0000
0110
0000
,  // measure 42
1000
0001
1000
0001
2000
0000
3001
0000
,  // measure 43
0101
0000
0000
0001
0000
0000
0010
0000
1100
0000
0000
1000
0000
0000
0010
0000
,  // measure 44
0101
0000
0000
1000
0000
0000
0100
0000
0011
0000
0000
0001
0000
0000
0100
0000
,  // measure 45
1010
0000
0000
0101
0000
0000
1100
0000
0011
0000
0000
1100
0000
0000
1010
0000
,  // measure 46
0001
0010
0100
1000
0010
0100
0001
0100
0010
1000
0100
0010
,  // measure 47
0002
0000
0003
0101
,  // measure 48
1000
0000
0000
0001
0100
0000
0010
0000
0001
0000
0010
1000
0010
0000
0100
0000
,  // measure 49
0001
0000
0010
0100
0020
0000
0130
1000
0200
0000
1300
0010
0000
0100
0001
1000
,  // measure 50
0002
0000
0003
1000
0100
0000
0010
0000
1000
0000
0010
0001
0010
0000
0001
0000
,  // measure 51
1000
0000
0010
0100
0020
0000
0130
0001
0200
0000
0301
0010
0000
0100
1000
0001
,  // measure 52
2000
0000
3000
0010
0100
0000
0001
0000
1000
0000
0100
0001
0100
0000
1000
0000
,  // measure 53
0001
0000
0000
0010
0100
0000
1000
0000
0001
0000
0100
1000
0100
0000
0001
0000
,  // measure 54
1000
0000
0000
0100
0010
0000
0001
0000
1000
0000
0010
0001
0010
0000
1000
0000
,  // measure 55
0001
0000
0010
0100
1000
0000
0010
0100
0001
1000
0001
1000
0001
0000
0000
0000
,  // measure 56
1000
0000
0000
0001
0010
0000
1000
0000
0001
0000
0100
0010
0001
0000
1000
0000
,  // measure 57
0010
0000
0100
0001
2000
0000
3100
1000
0002
0000
1003
0010
0000
1000
0001
0010
,  // measure 58
0200
0000
0300
1000
0010
0000
0001
0000
1000
0000
0100
0010
1000
0000
0001
0000
,  // measure 59
0010
0000
0100
1000
0002
0000
0103
0001
2000
0000
3001
0100
0000
0001
0010
0100
,  // measure 60
2000
0000
3000
0010
0100
0000
1000
0000
0001
0000
0010
0100
0001
0000
1000
0000
,  // measure 61
0100
0000
0000
0010
0100
0000
0001
0000
1000
0000
0010
0100
1000
0000
0001
0000
,  // measure 62
2002
0000
0000
3003
,  // measure 63
0001
0000
0010
0000
0010
0000
0010
0000
0010
0000
0000
0000
0001
1000
0001
1000
,  // measure 64
0002
0103
0010
0020
1030
0002
0013
0100
,  // measure 65
2000
3100
0010
0020
0031
2000
3010
0100
,  // measure 66
0002
0013
0100
0200
1300
0020
0130
0001
,  // measure 67
2000
3010
0100
0200
0301
0020
0130
1000
,  // measure 68
0002
0003
0010
0002
0013
0000
0200
0000
1300
0000
0002
0000
0103
0000
0010
0000
,  // measure 69
2000
3000
0100
2000
3100
0000
0020
0000
0031
0000
2000
0000
3010
0000
0100
0000
,  // measure 70
0002
0103
1000
2000
3100
0020
0130
0002
,  // measure 71
2003
3100
0001
0002
0103
0020
0130
2000
,  // measure 72
3001
0100
0001
0000
0010
0000
0100
1000
0100
0000
0010
0000
0001
1000
0001
0000
,  // measure 73
0100
0000
0010
1000
0010
0000
0100
0000
0101
0000
0000
0000
0011
0000
0000
0000
,  // measure 74
1000
0100
0010
0000
0001
0000
0010
0100
1000
0000
0001
0000
1000
0010
0100
0000
,  // measure 75
0001
0000
0010
0100
1000
0000
0001
0000
0101
0000
0000
0000
1001
0000
0000
0000
,  // measure 76
0001
0100
0001
0100
0010
0000
1000
0100
1000
0100
0010
0000
0100
1000
0100
1000
,  // measure 77
0001
0000
0100
0010
0100
0010
1000
0000
1100
0000
0001
0000
1001
0000
0000
0000
,  // measure 78
1000
0010
0100
0001
1000
0000
0001
0010
0100
1000
0001
0000
0100
0010
1000
0001
,  // measure 79
1000
0100
1000
0100
1000
0100
1000
0100
0010
0001
0010
0001
0010
0001
0010
0001
,  // measure 80
1000
0000
0000
0000
;

//---------------dance-single - ----------------
#NOTES:
     dance-single:
     :
     Medium:
     12:
     0.492031,0.613022,0.193586,0.290379,0.193586,427.000000,403.000000,24.000000,36.000000,0.000000,0.000000,0.492031,0.613022,0.193586,0.290379,0.193586,427.000000,403.000000,24.000000,36.000000,0.000000,0.000000:
0000
0000
0000
0000
,
0000
0000
0000
0000
,
0000
0000
0000
0000
,
0000
0000
0000
0000
,
0000
0000
0000
0000
,
1000
1100
0001
0101
,
1000
0001
1000
0001
1000
0001
1000
0000
0000
0000
0000
0000
,
0001
0000
0100
0010
0000
1000
0000
0002
,
0000
0010
0000
1000
0000
0103
0002
0000
,
0023
0000
0130
0010
0000
0001
0000
2000
,
0000
0010
0000
0001
0000
0100
0000
3001
,
0100
0000
0010
1000
0001
1000
0000
0200
,
0000
0310
0001
0000
1000
0001
1000
0001
,
0000
0000
0100
0001
0000
1000
0000
0002
,
0000
0023
0000
0230
0000
0000
2300
0000
,
3002
0000
1003
0010
0000
0100
0000
0002
,
0000
0010
0000
1000
0000
0103
0020
0000
,
2030
0000
3001
0010
0000
0100
0000
2000
,
0000
0010
0000
0001
3000
1000
0001
0010
,
0000
0100
0000
0010
0001
0000
0000
1000
,
0000
0001
1000
0010
0100
0010
1000
0002
,
0000
0020
0000
0000
0000
0000
0033
0000
,
0001
1000
0001
1000
0001
1000
0001
0000
0000
0000
0000
0000
,
1000
0000
0000
1000
0000
0000
1000
0000
0001
0000
0100
0000
0001
0000
0100
0000
,
0000
0010
0100
0010
1000
0100
0010
0000
,
0001
0000
0000
0001
0000
0000
0100
0000
0020
0000
0000
0000
0000
0000
0030
0000
,
0000
0100
0100
0001
1000
0100
0010
0000
,
0001
0000
0000
0001
0000
0000
0010
0000
0001
0000
0100
0000
0001
0000
0010
0000
,
0000
0001
0001
0100
0010
1000
0001
0000
,
0010
0000
0000
0010
0000
0000
0010
0000
0001
0000
1000
0000
0001
0000
1000
0000
,
0000
0100
0010
0000
0220
0000
0330
0000
,
1000
0000
0000
0100
1000
0000
0100
0000
0010
0000
0000
0000
0001
0000
0000
0000
,
0100
0000
0000
0010
0100
0000
0001
0000
1000
0000
0000
0000
1100
0000
0000
0000
,
0001
0000
0000
0010
0001
0000
0010
0000
0100
0000
0000
0000
1000
0000
0000
0000
,
0010
0000
0000
0100
0010
0000
1000
0000
0001
0000
0001
0000
1000
0000
1000
0000
,
0001
0000
0000
0010
0001
0000
1000
0000
0010
0000
0000
0100
0010
0000
1000
0000
,
0001
0000
0000
0010
0100
0000
1000
0000
0001
0000
0000
0000
1001
0000
0000
0000
,
0001
0010
0001
0010
0000
0000
0100
1000
0100
1000
0000
0000
,
0001
1000
0001
1000
0001
1000
0001
0000
0000
0000
0000
0000
,
1000
0000
0000
0000
1000
0000
0000
0000
0001
0000
0000
0001
0000
0000
1000
0000
,
0010
0000
0000
0000
0010
0000
0000
0000
0100
0000
0000
0100
0000
0000
0001
0000
,
0010
0000
0000
0000
0010
0000
0000
0000
0100
0000
0000
0100
0000
0000
1000
0000
,
0001
0000
0000
0000
0001
0000
0000
0000
1000
0000
0000
1000
0000
0000
0001
0000
,
0100
0000
0000
0100
0000
0000
0100
0000
0010
0000
0000
0010
0000
0000
0010
0000
,
1000
0000
0000
1000
0000
0000
1000
0000
0001
0000
0000
0001
0000
0000
0001
0000
,
0010
0000
0000
0100
0000
0000
1000
0000
0010
0000
0000
0100
0000
0000
0001
0000
,
0010
0001
0010
0001
0010
0001
1000
0001
1000
0001
1000
0001
,
2000
0000
0000
3002
,
0203
0000
0310
1000
0000
1100
0000
2010
,
0000
0001
0000
0100
0000
3001
2000
0000
,
3200
0000
0310
0001
0000
0101
0000
0012
,
0000
1000
0000
0100
0000
1000
0000
0013
,
0100
0000
1000
0001
0100
0001
0000
0010
,
0000
0100
0100
0000
1000
0001
1000
0010
,
0000
0000
0100
0001
0000
0010
0000
0011
,
0000
0110
0000
1100
0000
0000
0002
0000
,
0203
0000
0310
1000
0000
1100
0000
0201
,
0000
0010
0000
1000
0000
0310
2000
0000
,
3200
0000
0310
0001
0000
0101
0000
1200
,
0000
0010
0000
0001
0000
0310
0100
1000
,
0000
0010
0100
0001
1000
0000
0000
0001
,
0000
0000
0100
0000
0010
0000
1000
0000
0001
0000
0000
0010
0000
0000
0220
0000
,
0000
0000
0000
0330
,
1000
0001
1000
0001
1000
0000
0000
0000
,
0001
0000
0010
0001
0000
0100
0001
0000
,
1000
0000
0010
1000
0000
0100
1000
0000
,
0001
0000
1000
0100
0000
0010
0001
0000
,
1000
0000
0001
0100
0000
0010
1000
0000
,
0001
0000
0000
0010
0000
0000
0100
0000
0000
0000
1000
0000
0010
0000
0000
0000
,
1000
0000
0000
0010
0000
0000
0100
0000
0000
0000
0001
0000
0010
0000
0000
0000
,
0002
0000
0010
0010
0000
0100
0000
1003
,
2000
0000
0010
0010
0000
0100
0000
3001
,
0100
0001
1000
0001
0010
0000
0100
1000
,
0001
1000
0010
0000
1001
0000
1001
0000
,
1000
0100
0010
0001
1000
0000
0001
0100
,
0010
1000
0001
0000
0101
0000
1001
0000
,
0001
0010
0100
1000
0010
0000
1000
0010
,
0100
0001
0010
0000
0110
0000
1100
0000
,
0001
0100
1000
0100
0001
0000
1000
0010
,
0001
0010
1000
0001
1000
0100
0010
0001
,
1001
0000
0000
0000
;

//---------------dance-single - ----------------
#NOTES:
     dance-single:
     :
     Easy:
     6:
     0.262724,0.354907,0.104859,0.112925,0.000000,228.000000,215.000000,13.000000,14.000000,0.000000,0.000000,0.262724,0.354907,0.104859,0.112925,0.000000,228.000000,215.000000,13.000000,14.000000,0.000000,0.000000:
0000
0000
0000
0000
,
0000
0000
0000
0000
,
0000
0000
0000
0000
,
0000
0000
0000
0000
,
0000
0000
0000
0000
,
1000
0000
0001
0000
,
2000
3002
1003
0000
,
0001
0000
1000
0000
,
0001
0010
0100
1000
,
0001
0000
0100
0000
,
0001
1000
0010
0100
,
0001
0000
1000
0000
,
0100
0000
0100
0000
,
0010
0000
0001
0000
,
1000
0001
1000
0000
,
0001
0000
0100
0000
,
0010
1000
0001
0100
,
0010
0000
1000
0000
,
0100
1000
0001
0010
,
0100
0000
0010
0000
,
0001
1000
0100
0000
,
1000
0001
0100
0000
,
0002
2003
3001
0000
,
1000
0000
0001
0002
,
0003
1000
0100
0000
,
0010
0000
0002
0000
,
0003
1000
0001
1000
,
0010
0000
0100
0100
,
0000
0001
1000
0000
,
0100
0000
0010
0000
,
0001
1000
0002
0003
,
1000
0100
1000
0000
,
0001
0100
0010
0000
,
1000
0001
1000
0000
,
0001
0010
0100
0100
,
1000
0001
0100
0000
,
0010
1000
0001
0000
,
1100
0000
0101
0000
,
1001
0110
1001
0000
,
0001
0000
0010
0000
,
0100
0000
1000
0000
,
0001
0100
0010
1000
,
0001
0001
0001
0000
,
1001
0000
1001
0000
,
1100
0000
1100
0000
,
1001
0000
0101
0000
,
0002
0023
0230
2300
,
3002
0000
0000
1003
,
0001
0001
1000
0001
,
0010
0000
0100
0000
,
1000
1000
0001
1000
,
0010
0000
0100
0000
,
0001
0100
0001
0000
,
1000
0100
1000
0000
,
0001
0010
0100
1000
,
0001
0001
0001
0000
,
1000
0010
1000
0001
,
0010
0000
0100
0000
,
1000
0010
1000
0001
,
0100
0000
0001
0000
,
1000
0100
0010
0000
,
0001
0100
0010
0000
,
2002
0000
0000
0000
,
3003
0000
0000
0000
,
0001
0100
0001
0000
,
1000
0100
1000
0000
,
0001
0010
0100
0000
,
1000
0010
0100
0000
,
0001
0100
1000
0000
,
1000
0100
0001
0000
,
1000
0100
0010
0001
,
0001
0100
0010
1000
,
0001
0100
0001
1000
,
0100
0010
0100
0000
,
1000
0010
1000
0001
,
0010
0100
0010
0000
,
0001
0100
0010
1000
,
0100
0010
0001
0000
,
1000
0010
0100
0001
,
0010
0100
1000
0000
,
1001
0000
0000
0000
;

//---------------dance-single - ----------------
#NOTES:
     dance-single:
     :
     Beginner:
     3:
     0.127905,0.193586,0.056463,0.080661,0.000000,111.000000,104.000000,7.000000,10.000000,0.000000,0.000000,0.127905,0.193586,0.056463,0.080661,0.000000,111.000000,104.000000,7.000000,10.000000,0.000000,0.000000:
0000
0000
0000
0000
,
0000
0000
0000
0000
,
0000
0000
0000
0000
,
0000
0000
0000
0000
,
0000
0000
0000
0000
,
0002
0000
0000
0000
,
0003
0000
0000
0000
,
1000
0000
1000
0000
,
0001
0000
0000
0000
,
0001
0000
0001
0000
,
1000
0000
0000
0000
,
0010
0000
0000
0000
,
0100
0000
0000
0000
,
0010
0000
0000
0000
,
0100
0000
0100
0000
,
1001
0000
0000
0000
,
0001
0000
0100
0000
,
0001
0000
0000
0000
,
1000
0000
0100
0000
,
1000
0000
0000
0000
,
0010
0000
0000
0000
,
0100
0000
0000
0000
,
0002
0000
0003
0000
,
1000
0000
1000
0000
,
0000
0000
0001
0000
,
0010
0000
0010
0000
,
0000
0000
0001
0000
,
0001
0000
1000
0000
,
0000
0000
1000
0000
,
1000
0000
0010
0000
,
0200
0000
0000
0300
,
0001
0000
0000
0000
,
1000
0000
0000
0000
,
0100
0000
0000
0000
,
0010
0000
0010
0000
,
0001
0000
0000
0000
,
1000
0000
0000
0000
,
0010
0000
0010
0000
,
0100
0100
0100
0000
,
0002
0000
0003
0000
,
2000
0000
3000
0000
,
0200
0000
0300
0000
,
0020
0000
0030
0000
,
0001
0000
0001
0000
,
1000
0000
1000
0000
,
0010
0000
0010
0000
,
0200
0000
0000
0000
,
0300
0000
0000
0000
,
0001
0000
0001
0000
,
1000
0000
0000
0000
,
0010
0000
0010
0000
,
0100
0000
0000
0000
,
0001
0000
1000
0000
,
0001
0000
0000
0000
,
1000
0000
0100
0000
,
1000
0000
0000
0000
,
0100
0000
0100
0000
,
0100
0000
0000
0000
,
1000
0000
1000
0000
,
0001
0000
0000
0000
,
0001
0000
0001
0000
,
0100
0000
0000
0000
,
2002
0000
0000
0000
,
3003
0000
0000
0000
,
0001
0000
0000
0000
,
1000
0000
0000
0000
,
1001
0000
0000
0000
,
1001
0000
0000
0000
,
0010
0000
0000
0000
,
0100
0000
0000
0000
,
0110
0000
0000
0000
,
0110
0000
0000
0000
,
0001
0000
0001
0000
,
0001
0000
0001
0000
,
1000
0000
1000
0000
,
1000
0000
1000
0000
,
0100
0000
0100
0000
,
0010
0000
0010
0000
,
0001
0000
1000
0000
,
0001
0000
1000
0000
,
1001
0000
0000
0000
;
