#VERSION:0.83;
#TITLE:HYPERION;
#SUBTITLE:;
#ARTIST:L.E.D.;
#TITLETRANSLIT:;
#SUBTITLETRANSLIT:;
#ARTISTTRANSLIT:;
#GENRE:MORNING FULL ON;
#ORIGIN:beatmania IIDX 16 EMPRESS;
#TAGS:;
#CREDIT:;
#BANNER:HYPERION.png;
#BACKGROUND:HYPERION-bg.png;
#PREVIEWVID:;
#JACKET:HYPERION-jacket.png;
#CDIMAGE:;
#DISCIMAGE:;
#LYRICSPATH:;
#CDTITLE:cdtitle.png;
#MUSIC:HYPERION.ogg;
#OFFSET:-0.364000;
#SAMPLESTART:53.164001;
#SAMPLELENGTH:25.600000;
#SELECTABLE:YES;
#BPMS:0.000000=150.000000
;
#STOPS:96.000000=0.800000
,226.000000=0.800000
;
#DELAYS:;
#WARPS:;
#TIMESIGNATURES:0.000000=4=4
,96.000000=2=4
,98.000000=4=4
,226.000000=2=4
,228.000000=4=4
;
#TICKCOUNTS:0.000000=4
;
#COMBOS:0.000000=1
;
#SPEEDS:0.000000=1.000000=0.000000=0
;
#SCROLLS:0.000000=1.000000
;
#FAKES:;
#LABELS:0.000000=Song Start
;
#BGCHANGES:;
#KEYSOUNDS:;
#ATTACKS:
;

//---------------dance-single - ----------------
#NOTEDATA:;
#CHARTNAME:The Stars Above...;
#CHARTHASH:3156907225;
#STEPSTYPE:dance-single;
#BANNER:;
#DESCRIPTION:;
#CHARTSTYLE:;
#DIFFICULTY:Hard;
#METER:13;
#METERF:0.000000;
#LASTSECONDHINT:118.764000;
#RADARVALUES:0.514402,0.667303,0.047693,0.254362,0.425261,453.000000,447.000000,6.000000,32.000000,0.000000,0.000000,0.000000,0.000000,0.000000,0.514402,0.667303,0.047693,0.254362,0.425261,453.000000,447.000000,6.000000,32.000000,0.000000,0.000000,0.000000,0.000000,0.000000;
#CREDIT:YOSEFU feat. Astronomy;
#NOTES:
// measure 0
0000
0000
0000
0000
,  // measure 1
0000
0000
0000
0000
,  // measure 2
0000
0000
0000
0000
,  // measure 3
0000
0000
0000
0000
,  // measure 4
2000
0000
0000
0000
,  // measure 5
3200
0000
0000
0000
,  // measure 6
0320
0000
0000
0000
,  // measure 7
0032
0000
0000
0000
0000
0000
0000
0103
,  // measure 8
0020
0230
0302
2003
0000
0000
0100
0000
,  // measure 9
0000
0000
3010
1000
0002
0000
0023
0030
,  // measure 10
0200
2300
3200
0320
0000
0000
0001
0000
,  // measure 11
0000
0000
0100
0000
0000
0000
0031
1000
,  // measure 12
0002
0203
0302
2003
0000
0000
0100
0000
,  // measure 13
0000
0001
3020
0230
,  // measure 14
0302
0100
0000
0010
,  // measure 15
2003
0100
3002
0100
,  // measure 16
0023
0000
0000
0000
,  // measure 17
0000
0000
0000
0000
,  // measure 18
0230
0000
0000
0000
,  // measure 19
0000
0000
0000
0000
0000
0000
0300
0100
,  // measure 20
1000
0100
0010
0001
1000
0010
0100
0001
,  // measure 21
0101
0100
0010
1000
0100
0010
0001
1000
,  // measure 22
1001
0001
0100
0010
1000
0001
0010
0100
,  // measure 23
1000
0100
0001
0100
1000
0001
0100
1000
,  // measure 24
0200
0000
0000
0000
0000
0000
0000
0000
0301
0000
1000
0000
0100
0000
0000
0100
,  // measure 25
0000
0000
0010
0000
0000
0010
0000
0000
0001
0000
0000
0001
0000
0000
1000
0000
,  // measure 26
0000
1000
0000
0000
0010
0000
0000
0100
0001
0000
0010
0000
0100
0000
0000
0100
,  // measure 27
0000
0000
1000
0000
0000
1000
0000
0000
0001
0000
0000
0001
0000
0000
0100
0000
,  // measure 28
0000
0100
0000
0000
0010
0000
0000
1000
0001
0000
0010
0000
0100
0000
0000
0100
,  // measure 29
0000
0000
1000
0000
0000
1000
0000
0000
0001
0000
0000
0001
0000
0000
0100
0000
,  // measure 30
0000
0100
0000
0000
0010
0000
0000
1000
0001
0000
0010
0000
0100
0000
0001
0000
,  // measure 31
0100
1000
0010
0100
0002
0000
0000
0000
,  // measure 32
1003
0100
1000
0000
0001
0010
0001
0000
1000
0010
0000
0000
0010
0000
0000
0100
,  // measure 33
0001
0000
0100
0001
0000
0000
0001
0000
0010
0000
0000
0010
0100
0000
0100
0000
,  // measure 34
0000
0100
0000
1000
0001
0000
0000
0100
0001
0000
0100
0000
0010
0000
0000
0010
,  // measure 35
0000
0000
1000
0000
0000
1000
0000
0001
0010
0000
0000
0010
0000
0000
0100
0000
,  // measure 36
0000
1000
0000
0010
0000
0100
0000
0001
1000
0000
0100
0000
0010
0000
0000
0010
,  // measure 37
0000
0000
0001
0000
0000
0001
0000
1000
0010
0000
0000
0100
0001
0000
0010
0000
,  // measure 38
0000
0010
0000
0000
0100
0000
0000
0100
1000
0000
0001
0000
0100
0000
0000
0100
,  // measure 39
0000
0000
0010
0000
0000
0010
0000
0000
1000
0000
0000
1000
0000
0000
0100
0000
,  // measure 40
0000
0010
0000
0001
0000
0100
0000
0010
1000
0000
0000
0001
0010
0000
0000
0100
,  // measure 41
1000
0000
0001
0000
0000
0001
0000
0000
0100
0000
0000
0100
0000
0000
0010
0000
,  // measure 42
0000
0010
0000
1000
0001
0000
1000
0010
1000
0000
0100
0000
0010
0000
0000
0010
,  // measure 43
0000
0001
0000
1000
0000
0010
1000
0000
0001
0000
1000
0100
0000
0000
0100
0000
,  // measure 44
0010
0001
0000
0100
0000
0010
0000
1000
0001
0000
0010
0000
0100
0000
1000
0000
,  // measure 45
0010
0100
0001
1000
1100
0100
0010
0001
,  // measure 46
0100
0010
0000
1000
0000
0100
0000
0010
0001
0000
0100
0000
0010
0000
1000
0000
,  // measure 47
1001
0000
0001
0000
0010
0000
0100
0000
1000
0000
0100
0010
0000
0001
0100
0000
,  // measure 48
0010
1000
0000
0001
0010
0000
0000
0100
2000
0000
0000
0000
0001
0000
0000
0000
,  // measure 49
0000
0100
3020
0100
,  // measure 50
0000
1000
0230
0001
,  // measure 51
0000
0010
0302
0000
,  // measure 52
0010
0000
0000
0000
1003
0100
0010
0001
,  // measure 53
0100
0010
1000
0001
1001
1000
0010
0100
,  // measure 54
0001
0010
0100
1000
1100
0100
0010
1000
,  // measure 55
0010
0000
0001
0000
1000
0000
0010
0000
1000
0100
1000
0000
0001
0000
0100
0000
,  // measure 56
0001
0010
0001
0000
1000
0000
0010
0000
0200
0000
0000
0000
0000
0000
0000
0000
,  // measure 57
0301
0010
0001
0000
1000
0000
0010
0000
0100
0000
0001
0000
1000
0000
0000
0000
,  // measure 58
0001
0010
0001
0000
1000
0000
0001
0000
0010
0000
0100
0000
1000
0010
1000
0000
,  // measure 59
0001
0100
0001
0000
1000
0000
0010
0000
0100
0000
0001
0000
1000
0000
0000
0000
,  // measure 60
0100
0010
0100
0000
1000
0000
0010
0000
0100
0000
0001
0000
1000
0100
1000
0000
,  // measure 61
0001
0100
0001
0000
0010
0000
0100
0000
1000
0000
0001
0000
0100
0000
0000
0000
,  // measure 62
0010
1000
0010
0000
0100
0000
0001
0000
1000
0000
0100
0000
0010
0001
0010
0000
,  // measure 63
0100
0000
1000
0001
0000
0100
0010
0000
1000
0000
0001
0000
0010
0100
0000
0000
,  // measure 64
1000
0000
0001
0100
0000
0010
1000
0000
0001
0000
1000
0100
0000
0010
0001
1000
,  // measure 65
0001
1000
0100
0000
0010
0000
0001
0000
1000
0000
0010
0000
0100
0010
1000
0000
,  // measure 66
0001
0010
0100
0000
1000
0000
0001
0000
0100
0000
0010
0000
1000
0001
0010
0000
,  // measure 67
0001
1000
0010
0000
0100
0000
0001
0000
1000
0000
0100
0000
0010
0001
0100
0000
,  // measure 68
0001
0100
0010
0000
1000
0000
0100
0000
0010
0000
0001
0000
0100
0001
0100
0001
,  // measure 69
0010
0001
0010
0100
0001
0100
1000
0010
,  // measure 70
0001
0010
0100
0001
0010
0100
1000
0001
,  // measure 71
0100
0000
0001
0100
0000
0010
1000
0000
0001
0000
1000
0100
0000
0010
0001
0000
,  // measure 72
1000
0000
0010
0100
0000
0001
0010
0000
0100
0000
1000
0010
0000
0100
0001
0010
,  // measure 73
0100
0000
0000
0000
;
