#VERSION:0.83;
#TITLE:HARDCORE No Kokoroe;
#SUBTITLE:;
#ARTIST:DJ Myosuke;
#TITLETRANSLIT:;
#SUBTITLETRANSLIT:;
#ARTISTTRANSLIT:;
#GENRE:;
#CREDIT:;
#MUSIC:HARDCORE No Kokoroe-audio.ogg;
#BANNER:HARDCORE No Kokoroe-banner.png;
#BACKGROUND:HARDCORE No Kokoroe-background.png;
#JACKET:HARDCORE No Kokoroe-jacket.png;
#DISCIMAGE:;
#CDIMAGE:;
#SELECTABLE:YES;
#LYRICSPATH:;
#CDTITLE:scr-cdtitle.png;
#SAMPLESTART:96.000000;
#SAMPLELENGTH:10.105000;
#BPMS:0.000=190.000;
#STOPS:;
#WARPS:;
#DELAYS:;
#SPEEDS:0.000=1.000=0.000=0,
116.000=0.000=0.000=0,
116.021=1.000=4.000=0,
148.000=0.000=0.000=0,
148.021=1.000=24.000=0,
204.000=0.000=0.000=0,
204.021=1.000=4.000=0,
236.000=0.500=0.000=0,
236.021=1.000=3.000=0,
368.000=0.000=0.000=0,
368.021=2.000=4.000=0
;
#SCROLLS:0.000=1.000,
27.000=0.800,
28.000=1.000,
35.000=0.800,
36.000=1.000,
43.000=0.800,
44.000=1.000,
80.000=0.500,
80.250=0.542,
80.500=0.583,
80.750=0.625,
81.000=0.666,
81.250=0.708,
81.500=0.749,
81.750=0.791,
82.000=0.832,
82.250=0.874,
82.500=0.915,
82.750=0.957,
83.000=1.000,
182.000=0.750,
184.000=1.000,
190.500=0.750,
190.750=0.792,
191.000=0.833,
191.250=0.875,
191.500=0.916,
191.750=0.958,
192.000=1.000,
198.000=0.750,
200.000=1.000,
342.500=0.500,
344.000=1.000,
350.000=0.500,
352.000=1.000
;
#TICKCOUNTS:0.000=4;
#TIMESIGNATURES:0.000=4=4;
#LABELS:0.000=Song Start;
#COMBOS:0.000=1;
#FAKES:;
#BGCHANGES:;
#FGCHANGES:;
#ATTACKS:;
#PREVIEWVID:;
#KEYSOUNDS:;

//---------------dance-single - [XMOD] XO, DS-, RH----------------
#NOTEDATA:;
#CHARTNAME:;
#CHARTSTYLE:;
#CREDIT:Scrypts;
#STEPSTYPE:dance-single;
#DESCRIPTION:[XMOD] XO, DS-, RH-;
#DIFFICULTY:Hard;
#METER:13;
#METERF:13;
#RADARVALUES:0.674927,0.831255,0.323479,0.323479,0.400092,555.000000,517.000000,38.000000,38.000000,0.000000,0.000000,0.000000,0.000000,0.000000,0.674927,0.831255,0.323479,0.323479,0.400092,555.000000,517.000000,38.000000,38.000000,0.000000,0.000000,0.000000,0.000000,0.000000;
#NOTES:
// measure 0
0000
0000
0000
0000
,  // measure 1
0000
0000
0000
0000
,  // measure 2
0000
0000
0000
0000
,  // measure 3
0000
0000
0000
0000
,  // measure 4
0000
0000
0000
0000
,  // measure 5
1000
0010
0100
0001
0100
0010
1000
0001
,  // measure 6
1000
0100
0010
0001
0100
0010
2000
0000
,  // measure 7
3001
0000
1000
0001
1000
0000
0010
0000
0100
0000
0010
0000
1000
0100
1000
0000
,  // measure 8
0010
0000
0100
0000
0001
0010
0001
0000
1000
0000
0001
0000
2000
0000
0000
0000
,  // measure 9
3001
0010
0100
1000
0100
0010
0001
1000
,  // measure 10
0001
0100
0010
1000
0100
0010
0002
0000
,  // measure 11
1003
0000
0001
0100
0001
0000
1000
0000
0010
0000
0100
0000
0001
0000
1000
0000
,  // measure 12
0100
0000
0010
0001
0010
0000
0100
0000
2000
0000
0000
0000
3020
0000
0230
0000
,  // measure 13
0301
1000
0000
1000
0100
0000
0000
0000
,  // measure 14
0010
0000
0000
0000
0000
0000
0000
0000
0000
0010
0000
0000
0001
0000
0100
0000
0010
0000
1000
0000
0010
0000
0100
0000
,  // measure 15
0001
1000
0000
1000
0100
0000
0000
0000
,  // measure 16
1000
0000
0000
0000
0000
0000
0010
0000
1000
0000
0001
0010
0001
0000
0000
0000
,  // measure 17
1000
0010
0100
0001
0000
0000
1000
0000
1000
0100
0000
0000
,  // measure 18
0010
0001
1000
0010
0100
0001
1000
0000
1000
0001
0000
0000
,  // measure 19
0101
1010
0011
1100
,  // measure 20
2002
0000
0000
3003
,  // measure 21
1000
0100
0010
0001
0100
0010
1000
0010
,  // measure 22
0001
0010
1000
0001
0010
0100
2000
0000
,  // measure 23
3001
0100
0010
1000
0100
0010
0001
0010
,  // measure 24
1000
0010
0001
1000
0010
0100
0002
0000
,  // measure 25
1003
0010
0100
0001
0010
0100
1000
0100
,  // measure 26
0001
0100
1000
0001
0100
0010
2000
0000
,  // measure 27
3001
0010
0100
1000
0010
0100
0001
0100
,  // measure 28
0010
0000
1000
0001
1000
0001
0010
0000
0100
1000
0000
0000
,  // measure 29
1002
0000
0000
0000
,  // measure 30
1003
0000
0010
0000
1000
0000
0001
0000
0010
0100
0010
0100
1000
0000
0000
0000
,  // measure 31
0001
0100
0010
0100
0001
0010
0100
0010
,  // measure 32
1000
0010
0001
1000
0010
0100
0102
0000
,  // measure 33
1003
0100
1000
0010
0100
0001
2000
0000
,  // measure 34
3001
0100
0001
0010
0100
1000
0002
0000
,  // measure 35
1003
0010
0100
0001
1000
0100
0010
0001
,  // measure 36
0100
0000
0010
0000
1000
0000
0001
0000
0010
0100
0010
0000
0001
1000
0001
0000
,  // measure 37
0200
0000
0000
0000
,  // measure 38
0000
0000
0000
0000
,  // measure 39
0000
0000
0000
0000
,  // measure 40
0000
0000
0000
0000
,  // measure 41
0000
0000
0000
0000
,  // measure 42
0000
0000
0000
0000
,  // measure 43
0300
0000
0000
0000
,  // measure 44
1001
0000
0000
1100
0000
0011
0000
0000
,  // measure 45
1001
0000
0110
0000
2000
0000
0000
3000
,  // measure 46
1010
0000
0000
1010
0000
0000
0101
0000
0000
0000
0101
0000
0000
0000
0000
0000
,  // measure 47
1001
0000
0011
0011
0002
0000
0003
0000
,  // measure 48
0101
0101
0000
1010
0000
1010
0000
0000
,  // measure 49
1100
0011
2000
3000
,  // measure 50
1010
0000
0000
0110
0000
0000
0101
0000
0000
1001
0000
0000
1100
0000
1100
0000
,  // measure 51
0000
0000
0000
0000
,  // measure 52
1000
0000
0000
0010
0000
0000
0100
0000
0000
0001
0000
0001
,  // measure 53
1000
0000
0000
0100
0000
0000
0010
0000
0010
0001
0000
0001
,  // measure 54
1000
0000
0000
0010
0000
0000
0100
0000
0000
0010
0000
0010
,  // measure 55
1000
0000
0000
1001
0000
0001
0010
0000
0100
1000
0010
0100
,  // measure 56
0001
0000
0001
0100
0000
0100
0010
0000
0010
1000
0000
1000
,  // measure 57
0001
0100
0010
1000
0010
0100
0001
0100
0010
1000
0000
0000
,  // measure 58
0001
0000
0010
0100
0000
1000
0010
0000
0100
0001
0000
0010
,  // measure 59
0200
0000
0000
1300
,  // measure 60
0001
0000
0001
0100
0000
0100
0010
0000
0010
1000
0010
0100
,  // measure 61
0002
0000
0000
0023
0000
0000
0130
1000
0100
1000
0000
0000
,  // measure 62
1000
0000
1000
0100
0000
0100
0010
0000
0010
0001
1000
0010
,  // measure 63
0200
0000
0301
0020
0000
0130
1000
0000
0000
1001
0000
0000
,  // measure 64
1000
0000
1000
0010
0000
0010
0100
0000
0100
0001
0100
0010
,  // measure 65
2000
0000
0000
3200
0000
0000
0310
0001
0010
0001
0000
0000
,  // measure 66
0001
0000
0001
0010
0000
0010
0100
0000
0100
1000
0001
0100
,  // measure 67
0001
1000
0001
1000
0001
1000
0002
0000
0023
0000
0230
0000
,  // measure 68
2300
0100
3002
0100
,  // measure 69
2003
0000
0000
0100
0000
0000
3001
1000
0001
1000
0000
1000
,  // measure 70
0002
0010
2003
0010
,  // measure 71
3002
0000
0000
0010
0000
0000
1003
0000
0001
0000
0000
0000
,  // measure 72
1000
0100
0010
0001
,  // measure 73
0100
0010
0100
0000
0001
0000
0010
0100
,  // measure 74
1000
0001
1000
0001
0100
0010
0100
0010
,  // measure 75
1000
0100
0001
0100
2000
0000
0010
0000
,  // measure 76
3001
0000
0100
1000
0000
0100
0010
0100
,  // measure 77
0001
0010
0100
1000
0010
0100
0001
1000
,  // measure 78
0001
0000
0010
1000
0000
0010
0001
0100
,  // measure 79
1000
0100
0010
0100
0001
1000
1001
0000
,  // measure 80
1000
0000
0100
0001
0000
0100
0010
0100
,  // measure 81
1000
0010
0100
0001
0010
0100
1000
0001
,  // measure 82
1000
0000
0010
0001
0000
0010
1000
0100
,  // measure 83
0001
0100
0010
0100
1000
0001
1000
0010
,  // measure 84
0100
0000
0001
0010
0000
0100
1000
0010
,  // measure 85
0100
0001
0100
0010
1000
1M01
0000
0000
,  // measure 86
0001
0000
0010
0100
0000
1000
0010
0100
,  // measure 87
0001
0100
0010
1000
020M
0000
0000
0000
,  // measure 88
0301
0000
0000
0100
0000
0000
1000
0000
0000
0010
0000
0000
0100
0000
0001
0000
,  // measure 89
0000
0000
0100
0000
0000
1000
0000
0100
0000
0001
0000
1000
0100
0000
0010
0000
,  // measure 90
0001
0011
0110
1100
,  // measure 91
1000
0000
0010
0000
0001
0000
0010
0000
1000
0000
0100
0000
0001
0000
0100
1000
,  // measure 92
0002
0000
0000
0000
,  // measure 93
0003
0000
0000
0000
;

//---------------dance-single - [XMOD] XO+, DS, SJ----------------
#NOTEDATA:;
#CHARTNAME:;
#CHARTSTYLE:;
#CREDIT:Scrypts;
#STEPSTYPE:dance-single;
#DESCRIPTION:[XMOD] XO+, DS, SJ-;
#DIFFICULTY:Challenge;
#METER:17;
#METERF:17;
#RADARVALUES:0.933953,1.147923,0.408605,0.417117,1.085356,768.000000,720.000000,48.000000,49.000000,2.000000,0.000000,12.000000,0.000000,0.000000,0.933953,1.147923,0.408605,0.417117,1.085356,768.000000,720.000000,48.000000,49.000000,2.000000,0.000000,12.000000,0.000000,0.000000;
#NOTES:
// measure 0
0000
0000
0000
0000
,  // measure 1
0000
0000
0000
0000
,  // measure 2
0000
0000
0000
0000
,  // measure 3
0000
0000
0000
0000
,  // measure 4
0000
0000
0000
0000
,  // measure 5
1000
0000
0100
0000
0010
0000
0001
0100
0000
0100
0001
0000
0100
0000
0010
1000
,  // measure 6
0001
0000
0010
0000
0100
0000
1000
0010
0000
0010
1000
0000
0200
0000
0000
0000
,  // measure 7
0310
0000
0001
1000
0100
1000
0001
1000
0010
0000
0100
0000
0010
1000
0001
1000
,  // measure 8
0100
0000
0100
0000
0010
0001
1000
0001
0100
0001
1000
0001
0010
0000
0000
0000
,  // measure 9
1001
0000
1000
0000
0100
0000
1000
0010
0000
0010
1000
0000
0001
0010
0001
0010
,  // measure 10
0100
0000
1000
0000
0001
0000
1000
0100
0000
0100
1000
0000
0020
0000
0000
0000
,  // measure 11
0130
0000
0001
1000
0100
0000
1000
0000
0010
1000
0001
0000
0010
0001
1000
0001
,  // measure 12
0100
0000
0010
1000
0100
0000
0010
0001
0200
0000
0000
0000
0310
0000
1000
0000
,  // measure 13
1001
0001
0000
0001
0011
0000
0000
0000
,  // measure 14
1100
0000
0000
0000
0000
0000
0000
0000
0000
1000
0000
0000
0001
0000
0100
0000
0010
0000
1000
0000
0100
0000
0010
0000
,  // measure 15
0001
1000
0000
1000
1010
0000
0000
0000
,  // measure 16
0101
0000
0000
0000
0000
0000
1002
0000
0013
0000
0001
1000
0020
0000
0000
0000
,  // measure 17
0130
0001
1000
0100
0000
0100
0010
0000
0010
0001
1000
0010
,  // measure 18
0100
0010
1000
0100
0040
0031
1000
0000
1000
0002
0000
0000
,  // measure 19
0103
0010
1000
0100
0010
0001
0100
0010
1000
0100
0010
0001
,  // measure 20
0200
0000
0000
0000
0000
0000
0000
0000
0000
0000
0000
0000
0301
1000
0001
1000
,  // measure 21
0001
0000
0010
0000
0100
0010
0001
0000
0100
0000
0010
0100
0001
0000
0010
0000
,  // measure 22
1000
0000
0010
0000
0001
0100
0010
0000
1000
0000
1000
0000
1001
0000
0000
0000
,  // measure 23
1000
0000
0010
0000
0100
0010
1000
0000
0100
0000
0010
0100
1000
0100
1000
0100
,  // measure 24
0001
0000
0100
0000
1000
0100
0010
0000
0001
0000
0001
0000
1001
0000
1000
0100
,  // measure 25
1000
0000
0010
0000
0100
0010
1000
0000
0100
0000
0010
0100
1000
0000
0001
0100
,  // measure 26
1000
0000
0100
0000
0001
0010
0100
0000
1000
0000
1000
0000
1001
0000
0000
0000
,  // measure 27
1000
0000
0010
0000
0100
0010
1000
0000
0100
0000
0010
0100
1000
0010
1000
0010
,  // measure 28
0100
0000
0010
0100
0001
1000
0100
0000
0100
0010
0000
0000
,  // measure 29
1002
0000
0000
0000
,  // measure 30
2003
0000
0010
0000
3002
0000
0010
0000
1003
0010
0100
0001
1000
0000
0000
0000
,  // measure 31
1000
0000
0010
0000
0100
0010
1000
0000
0100
0000
0010
0100
1000
0100
1000
0100
,  // measure 32
0001
0000
0100
0000
0010
0100
1000
0001
0100
0000
0001
0000
1001
0000
0000
0000
,  // measure 33
1000
0100
0010
0001
0100
0010
2000
0000
,  // measure 34
3001
0010
0100
1000
0010
0100
0002
0000
,  // measure 35
1003
0000
0100
0010
0001
0000
0100
0010
1000
0000
0100
1000
0010
0000
0100
0001
,  // measure 36
0010
0000
0100
0000
1000
0000
0001
0000
1000
0100
1000
0010
0100
0001
0010
0001
,  // measure 37
2000
0000
0000
0000
,  // measure 38
0000
0000
0000
0000
,  // measure 39
0000
0000
0000
0000
,  // measure 40
0000
0000
0000
0000
,  // measure 41
0000
0000
0000
0000
,  // measure 42
0000
0000
0000
0000
,  // measure 43
0000
0000
3000
0000
,  // measure 44
0021
0000
0000
0000
0130
0000
1020
0000
0130
0000
0021
0000
0000
0000
0130
1000
,  // measure 45
0020
0130
0021
0130
2000
0000
0000
3000
,  // measure 46
1010
0000
0000
0011
0000
0000
1020
0000
0130
0000
0021
0000
0130
0000
1000
0001
,  // measure 47
0020
0130
1010
0010
2000
0000
0000
3000
,  // measure 48
1100
0000
1200
0000
0310
0000
0201
0000
0310
0000
1200
0000
0310
0000
0010
0001
,  // measure 49
0200
0310
1200
0310
0002
0000
0003
0000
,  // measure 50
0102
0000
2003
0100
0000
3002
0100
0000
2003
0100
0000
3002
0100
0000
0100
0000
,  // measure 51
0003
0000
0000
0000
,  // measure 52
1001
0000
0000
1000
0000
0000
0010
0000
0000
0100
0000
0100
,  // measure 53
0001
0000
0000
0010
0000
0000
0100
0000
0100
1000
0000
1000
,  // measure 54
0001
0000
0000
0100
0000
0000
0010
0000
0000
1000
0000
1000
,  // measure 55
1100
0000
0000
0101
0000
0001
1000
0000
0100
0040
0031
1000
,  // measure 56
0010
0000
0010
0100
0000
0100
0001
0000
0001
0010
0000
0010
,  // measure 57
0100
1000
0010
0100
0010
1000
0004
0013
0100
1000
0000
1000
,  // measure 58
0100
0010
0001
0400
0310
1000
0100
0040
0031
0100
0040
1030
,  // measure 59
0002
0000
0003
1001
,  // measure 60
1000
0010
0100
1000
0000
0100
0010
1000
0001
0100
0010
1000
,  // measure 61
0100
1000
0001
0100
0001
1000
0100
0010
0001
1000
0000
1000
,  // measure 62
0001
0010
0100
0001
0000
0100
0010
0001
1000
0100
0010
0001
,  // measure 63
0100
0001
1000
0100
1000
0001
0010
0001
0100
0010
0100
0001
,  // measure 64
1000
0100
0010
1000
0000
0010
0100
1000
0001
0010
0100
1000
,  // measure 65
0010
1000
0001
0010
0001
1000
0010
0100
0001
1000
0000
1000
,  // measure 66
0001
0100
0010
0001
0000
0010
0100
0001
1000
0010
0100
0001
,  // measure 67
0010
0001
1000
0010
1000
0001
0020
0000
0230
0000
1300
0000
,  // measure 68
1200
0310
0201
0310
,  // measure 69
1200
0000
0000
0310
0000
0000
0004
0103
0010
1000
0000
0001
,  // measure 70
0020
0130
1020
0130
,  // measure 71
0021
0000
0000
0130
0000
0000
0110
0000
2001
0000
0000
0000
,  // measure 72
3001
0000
0000
0000
0010
0000
0000
0000
0100
0000
0000
0000
1000
0000
0001
1000
,  // measure 73
0001
0000
0100
0000
0010
0000
0000
0000
1000
0000
0000
0000
0001
1000
0001
1000
,  // measure 74
0001
0010
0100
1000
0010
0100
0001
1000
,  // measure 75
0001
0010
0100
1000
0001
0100
0010
0100
0001
1000
0001
1000
0200
0000
0000
0000
,  // measure 76
1300
0000
0100
0010
0100
0000
0001
0000
0100
0000
1000
0001
0010
0000
0100
0000
,  // measure 77
1000
0000
0001
1000
0010
0000
0001
0000
0010
0000
1000
0000
2001
0000
0000
0000
,  // measure 78
3001
0000
0100
0010
0100
0000
1000
0000
0100
0000
0001
0000
1000
0100
0010
0001
,  // measure 79
1000
0000
0100
0010
0001
0010
0100
0000
1000
0001
0010
0000
1000
0000
0010
0001
,  // measure 80
1000
0000
0010
0100
1000
0000
1200
0000
0300
0000
0120
0000
1030
0010
1000
0001
,  // measure 81
0010
0000
0100
0010
1000
0000
0010
0000
0001
1000
0001
0000
0200
0000
0310
1000
,  // measure 82
0001
0000
0010
0100
0001
0000
0201
0000
0300
0000
0210
0000
1300
0010
0100
0001
,  // measure 83
0010
0000
0001
0100
0010
0000
0001
0010
0200
0000
0302
0000
0023
0000
0230
0000
,  // measure 84
1300
0000
0010
0100
0001
0000
0201
0000
0300
0000
0100
0001
0100
0010
1000
0001
,  // measure 85
0010
0100
0010
0100
1000
0000
0001
0000
1001
0000
1M01
0000
0000
0000
0000
0000
,  // measure 86
0001
0000
0010
0100
1000
0000
1200
0000
0000
0000
1300
0001
1000
0010
0100
0001
,  // measure 87
0010
0000
0001
1000
0010
0000
0100
0000
M102
0000
0000
0000
0003
0000
0000
0000
,  // measure 88
1001
0000
0001
0010
0000
0100
0001
0000
0100
0010
0000
0001
1000
0000
0010
0000
,  // measure 89
0400
0000
1300
0000
0100
0010
0000
1000
0000
0100
0000
0010
1000
0000
0010
0000
,  // measure 90
0100
0000
1000
0010
0100
0000
0001
0010
0100
0000
1000
0010
0100
0000
0001
0010
,  // measure 91
0001
1000
0010
0100
0001
1000
0100
0010
0001
0100
0001
0010
0100
1000
0010
1000
,  // measure 92
0002
0000
0000
0000
,  // measure 93
0003
0000
0000
0000
;
