#VERSION:0.83;
#TITLE:Giudecca;
#SUBTITLE:;
#ARTIST:D.J.SETUP;
#TITLETRANSLIT:;
#SUBTITLETRANSLIT:;
#ARTISTTRANSLIT:;
#GENRE:;
#CREDIT:;
#MUSIC:Giudecca.ogg;
#BANNER:;
#BACKGROUND:;
#CDTITLE:;
#SAMPLESTART:38.914;
#SAMPLELENGTH:12.387;
#SELECTABLE:YES;
#OFFSET:-0.213;
#BPMS:0.000=155.000;
#STOPS:;
#SCROLLS:0.000=1.000,
30.500=0.900,
30.750=0.800,
31.000=0.700,
31.250=0.600,
31.500=0.500,
31.750=0.400,
32.000=0.300,
32.250=0.200,
32.500=0.100,
32.750=0.000,
33.750=0.100,
34.000=0.200,
34.250=0.300,
34.500=0.400,
34.750=0.500,
35.000=0.600,
35.250=0.700,
35.500=0.800,
35.750=0.900,
36.000=1.000
;
#BGCHANGES:;
#FGCHANGES:;

//--------------- dance-single - DS+ ----------------
#NOTEDATA:;
#STEPSTYPE:dance-single;
#DESCRIPTION:DS+;
#DIFFICULTY:Medium;
#METER:12;
#RADARVALUES:0,0,0,0,0;
#CREDIT:valgrind | 12 |;
#CHARTNAME:intro to 8th DS;
#NOTES:
0000
0000
0000
0000
,
0000
0000
0000
0000
,
0000
0000
0000
0000
,
0000
0000
0000
0000
,
0000
0000
0000
0000
0000
0000
0000
0000
0000
0000
0000
0000
0000
1000
0000
0000
,
0000
0000
0000
0000
0000
1000
0000
0000
0000
0000
0000
0000
0000
0001
0000
0000
,
0000
0000
0000
0000
0000
0001
0000
0000
0000
0000
0000
0000
0000
0100
0000
0000
,
0000
0000
0000
0000
0000
0200
0000
0000
0000
0000
0000
0000
0000
0000
0000
0000
,
0000
0000
0000
0300
0000
0000
0000
0000
0000
0000
0000
0000
0000
0000
0000
0000
,
0001
0001
1000
1000
,
0100
0100
0010
0010
,
0001
0001
1000
1000
,
0010
0000
0010
0000
0100
0001
2000
0000
,
3001
0010
0001
0000
1000
0010
1000
0000
,
0001
0100
0001
0000
1000
0100
1000
0000
,
0010
0100
0010
0000
1000
0001
1000
0000
,
0100
0010
0010
0010
0100
0000
1001
0000
,
0001
1000
0010
0000
1000
0001
0100
0000
,
0001
1000
0100
0000
1000
0001
0010
0000
,
0100
1000
0001
0000
0100
0001
1000
0000
,
0010
1000
0001
0000
0010
0001
1000
0000
,
0001
0100
0010
0000
1000
0100
0010
0000
,
0001
0010
0100
0000
1000
0010
0100
0000
,
0010
1000
0100
0000
0010
0001
0100
0000
,
0001
0100
0100
0100
0010
0000
1002
0000
,
0100
1003
0001
2000
0100
3001
1000
0002
,
0100
1003
0001
2000
0100
3001
1000
0002
,
0010
1003
0001
2000
0010
3001
1000
0002
,
0010
1003
0001
2000
0010
3001
1000
0200
,
0010
1300
0001
0020
0100
0031
1000
0020
,
0100
1030
0001
0200
0010
0301
1000
0200
,
0010
1300
0001
0020
0100
0031
1000
0020
,
0100
2030
0010
3002
0100
2003
0010
3001
,
1001
1000
1000
1000
,
0001
0001
0001
0001
,
0010
0010
0010
0010
,
0100
0000
0100
0000
0100
0000
0100
1000
,
0001
0001
0001
0001
,
1000
1000
1000
1000
,
0010
0010
0010
0010
,
0100
0000
0100
0000
0100
0000
0100
0001
,
1000
0000
0001
0010
0001
0000
0100
0000
,
0001
0000
1000
0010
1000
0000
0100
0000
,
1000
0000
0001
0100
0001
0000
0010
0000
,
0001
0000
1000
0100
1000
0000
0010
0000
,
1001
1000
0100
0010
,
1001
0001
0100
0010
,
1001
0100
1001
0001
,
1000
0100
0100
0100
0010
0000
1001
0000
,
0001
0100
0010
2000
0100
0000
3001
0000
,
1000
0100
0010
0002
0100
0000
1003
0000
,
0001
0010
0100
2000
0010
0000
3001
0000
,
1000
0010
0100
0002
0010
0000
1003
0000
,
0001
0100
0001
0020
0100
0000
0031
0000
,
1000
0100
1000
0020
0100
0000
1030
0000
,
0001
0010
0001
0200
0010
0000
0301
0000
,
1000
0100
0100
0100
0010
0000
1002
0000
,
1000
0103
0001
2000
0001
3100
1000
0002
,
1000
0103
0001
2000
0001
3100
1000
0002
,
1000
0013
0001
2000
0001
3010
1000
0002
,
1000
0013
0001
2000
0001
3010
1000
0200
,
1000
0310
0100
0020
0001
0130
1000
0200
,
1000
0310
0100
0020
0001
0130
1000
0020
,
1000
0130
0010
0200
0001
0310
1000
0020
,
1000
0230
0001
0320
1000
0130
0001
0000
,
1000
0100
1000
0000
0001
0100
0001
0000
,
1000
0010
1000
0000
0001
0010
0001
0000
,
0100
0010
0100
0000
0001
1000
0001
0000
,
0010
0100
0010
0100
0000
0100
1000
0000
,
0001
0100
0010
0000
1000
0010
0100
0000
,
0001
0010
0100
0000
1000
0100
0010
0000
,
0001
1000
0010
0010
0100
0100
0001
0001
,
1000
0000
0100
0000
0010
0000
0100
0000
0010
0100
0010
0100
0010
0000
0000
0000
;

//--------------- dance-single - DS+ ----------------
#NOTEDATA:;
#STEPSTYPE:dance-single;
#DESCRIPTION:DS+;
#DIFFICULTY:Hard;
#METER:16;
#RADARVALUES:0,0,0,0,0;
#CREDIT:valgrind | 16- |;
#CHARTNAME:konami number?;
#NOTES:
0000
0000
0000
0000
,
0000
0000
0000
0000
,
0000
0000
0000
0000
,
0000
0000
0000
0000
,
0000
0000
0000
0000
0000
0000
0000
0000
0000
0000
0000
0000
0000
1000
0000
0000
,
0001
0000
0200
0000
0000
0301
0000
0000
1000
0000
0200
0000
0000
1300
0000
0000
,
0001
0000
0200
0000
0000
0310
0000
0000
1000
0000
0200
0000
0000
0310
0000
0000
,
0001
0000
0200
0000
0000
0310
0000
0000
1000
0000
0200
0000
0000
0000
0000
0000
,
0000
0000
0000
0300
0000
0000
0000
0000
0000
0000
0000
0000
0000
0000
0000
0000
,
1000
0000
0001
0100
0001
0000
0010
0000
,
0001
0000
1000
0100
1000
0000
0010
0000
,
1000
0000
0001
0010
0001
0000
0100
0000
,
0001
0000
1000
0010
1000
0100
0020
0000
,
0030
0001
1000
0000
0000
0000
1000
0000
0000
0000
1000
0000
0000
0010
1000
0000
,
0000
0001
0100
0000
0000
0000
0100
0000
0000
0010
1000
0000
0000
1000
0001
0000
,
0000
0010
0001
0000
0000
0000
0001
0000
0000
0000
0001
0000
0000
1000
0010
0000
,
0000
0100
0001
0000
0002
0000
0100
0000
2003
0000
0010
0000
3001
0000
1000
0000
,
1001
0000
0001
0000
0100
0000
0001
1000
0001
0000
0010
0000
0100
0000
1000
0001
,
1000
0000
0010
0000
0100
0000
0001
1000
0001
0000
0010
0000
0100
0000
1000
0001
,
1000
0000
0100
0000
0010
0000
0001
1000
0001
0000
0100
0000
0010
0000
1000
0001
,
1000
0000
0100
0000
0010
0000
0001
1000
0001
0000
0100
0000
0010
0000
0100
0010
,
1000
0000
0001
0000
0010
0000
0100
0010
0001
0000
1000
0000
0010
0000
0100
0010
,
1000
0000
0001
0000
0010
0000
0100
0010
0001
0000
1000
0000
0001
0000
0010
0100
,
1000
0000
0001
0000
0100
0000
0010
0100
0001
0000
1000
0000
0100
0000
0010
0100
,
1000
0000
0001
0000
0002
0000
0100
0000
1003
0000
0200
0000
0000
1300
0001
0200
,
0010
0000
0301
0000
1000
0001
1000
0200
0010
0000
1300
0000
0001
1000
0001
0200
,
0010
0000
0301
0000
1000
0001
1000
0200
0010
0000
1300
0000
0001
1000
0001
0020
,
0100
0000
0031
0000
1000
0001
1000
0020
0100
0000
1030
0000
0001
1000
0001
0020
,
0100
0000
0031
0000
1000
0001
1000
0020
0100
0000
1030
0000
0001
0010
0001
2000
,
0100
0000
3001
0000
1000
0010
1000
0002
0100
0000
1003
0000
0001
0010
0001
2000
,
0100
0000
3001
0000
1000
0010
1000
0002
0100
0000
1003
0000
0001
0100
0001
2000
,
0010
0000
3001
0000
1000
0100
1000
0002
0010
0000
1003
0000
0001
0100
0001
2000
,
0010
3002
0100
2003
0100
3002
0010
1003
,
1001
0001
0001
0001
,
1000
1000
1000
1000
,
0010
0010
0010
0010
,
0100
0000
0100
0000
0100
0000
0100
0001
,
1000
1000
1000
1000
,
0001
0001
0001
0001
,
0010
0010
0010
0010
,
0100
0000
0100
0000
0100
0000
0100
1000
,
0001
0000
1000
0010
1000
0000
0100
0000
,
1000
0000
0001
0010
0001
0000
0100
0000
,
0001
0000
1000
0100
1000
0000
0010
0000
,
1000
0000
0001
0100
0001
0000
0010
0000
,
0001
0000
1000
0000
0001
0000
0100
0000
0010
0000
1000
0010
1000
0000
0001
0000
,
1000
0000
0001
0000
1000
0000
0100
0000
0010
0000
0001
0010
0001
0000
1000
0000
,
0001
0000
0100
0000
0010
0000
1000
0000
0001
0000
0010
0100
0010
0000
0002
0000
,
0000
0000
1000
0000
2003
0000
0100
0000
3001
0000
0100
0010
0100
0000
0001
0000
,
1000
0000
0100
0000
0010
0001
0010
0001
0000
1000
0000
0100
0000
1000
0001
0100
,
0001
0000
0100
0000
0010
1000
0010
1000
0000
0001
0000
0100
0000
0001
1000
0100
,
1000
0000
0010
0000
0100
0001
0100
0001
0000
1000
0000
0010
0000
1000
0001
0010
,
0001
0000
0010
0000
0100
1000
0100
1000
0000
0001
0000
0010
0000
0001
1000
0010
,
1000
0000
0100
0000
1000
0001
1000
0010
0000
0100
0000
0010
0000
1000
0100
1000
,
0001
0000
0010
0000
0001
1000
0001
0100
0000
0010
0000
0100
0000
0001
0010
0001
,
1000
0000
0010
0000
1000
0001
1000
0100
0000
0010
0000
0100
0000
1000
0010
1000
,
0002
0000
1000
0000
2003
0000
0010
0000
3001
0000
0020
0000
0000
0130
1000
0002
,
0100
0000
1003
0000
0100
0010
0001
2000
0010
0000
3001
0000
0100
0010
1000
0002
,
0010
0000
1003
0000
0100
0010
0001
2000
0010
0000
3001
0000
0010
0100
1000
0002
,
0100
0000
1003
0000
0010
0100
0001
2000
0100
0000
3001
0000
0010
0100
1000
0002
,
0100
0000
1003
0000
0010
0100
0001
2000
0100
0000
3001
0000
1000
0100
0010
0002
,
0100
0000
1003
0000
0001
0100
0010
2000
0100
0000
3001
0000
1000
0100
0010
0002
,
0100
0000
1003
0000
0001
0100
0010
2000
0100
0000
3001
0000
1000
0010
0100
0002
,
0010
0000
1003
0000
0001
0010
0100
2000
0010
0000
3001
0000
1000
0010
0100
0002
,
0010
0000
1003
0000
0100
1000
0010
0200
0010
0000
0301
0000
2000
0000
0000
0000
,
0100
3001
1000
0002
0100
1003
0001
2000
,
0010
3001
1000
0002
0010
1003
0100
2000
,
0010
3001
0100
0002
0010
1003
0010
2000
,
0100
3002
0010
2003
0100
3001
1000
0020
,
0100
1030
0001
0020
0100
0031
1000
0200
,
0010
1300
0001
0200
0010
0301
1000
0100
,
0010
0001
1000
1000
0001
0001
0100
0100
,
0010
0000
0100
0010
1000
0001
1000
0001
0010
0100
0010
0100
2000
0000
0000
0000
,
0000
3000
0000
0000
;

//--------------- dance-single - KS+ FS XO- ----------------
#NOTEDATA:;
#STEPSTYPE:dance-single;
#DESCRIPTION:KS+ FS XO-;
#DIFFICULTY:Challenge;
#METER:17;
#RADARVALUES:0,0,0,0,0;
#CREDIT:valgrind | 17 |;
#CHARTNAME:ZiV's intro to kickswitch;
#NOTES:
0000
0000
0000
0000
,
0000
0000
0000
0000
,
0000
0000
0000
0000
,
0000
0000
0000
0000
,
0000
0000
0000
0000
0000
0000
0000
0000
0000
0000
0000
0000
0000
1000
0100
0010
,
0001
0000
0100
0000
0000
0001
0100
0010
1000
0000
0100
0000
0000
1000
0100
0010
,
0001
0000
0100
0000
0000
0001
0010
0100
1000
0000
0010
0000
0000
1000
0010
0100
,
0001
0000
0010
0000
0000
0001
0010
0100
1000
0000
0020
0000
0000
0000
0000
0000
,
0000
0000
0000
0030
0000
0000
0000
0000
0000
0000
0000
0000
0000
0000
0000
0000
,
1000
0001
1000
0010
1000
0001
1000
0010
,
1000
0001
0010
0001
1000
0001
0010
0001
,
1000
0010
0100
0010
1000
0010
0100
0010
,
1000
0001
1000
0100
1000
0010
0200
0000
,
0310
1000
0001
0000
0100
0000
0001
0000
1000
0000
0001
0000
0010
0001
1000
0000
,
0001
1000
0010
0000
1000
0000
0010
0000
0100
0010
1000
0000
0001
1000
0100
0000
,
0010
0100
1000
0000
0010
0000
1000
0000
0001
0000
1000
0000
0100
1000
0001
0000
,
0010
0001
0100
0000
0200
0000
0001
0000
0320
0000
1000
0000
0130
0000
0001
0000
,
1000
0100
0010
0000
0001
0000
1000
0000
0001
0100
0010
0000
1000
0010
0100
0001
,
1000
0000
0100
0000
1000
0100
0010
0001
1000
0000
0010
1000
0001
0010
0100
1000
,
0001
0000
0100
0000
0001
0100
0010
1000
0001
0000
0010
0000
0001
0010
0100
1000
,
0001
0000
0100
0000
0001
0100
0010
1000
0001
0000
0010
0001
1000
0001
0100
0100
,
1000
0000
0010
0000
1000
0001
0010
0010
1000
0000
0100
0000
1000
0001
0100
0100
,
1000
0000
0010
0000
1000
0001
0010
0010
1000
0000
0100
1000
0001
1000
0010
0010
,
0001
0000
0100
0000
0001
1000
0100
0100
0001
0000
0010
0000
0001
1000
0010
0010
,
0001
0000
1000
0000
1000
0000
1000
0000
0010
0100
0002
0000
0000
1003
0010
0200
,
0001
0300
010M
0000
1000
0001
0010
0200
1000
0300
M100
0000
0001
1000
0010
0200
,
0001
0300
010M
0000
1000
0001
0010
0200
1000
0300
M100
0000
0001
1000
0100
0020
,
0001
0030
001M
0000
1000
0001
0100
0020
1000
0030
M010
0000
0001
1000
0100
0020
,
0001
0030
001M
0000
1000
0001
0100
0010
1000
0100
0010
0000
0001
1000
0100
0200
,
0001
0300
010M
0000
1000
0001
0100
0200
1000
0300
M100
0000
0001
1000
0100
0200
,
0001
0300
010M
0000
1000
0001
0100
0200
1000
0300
M100
0000
0001
1000
0010
0020
,
0001
0030
001M
0000
1000
0001
0010
0020
1000
0030
M010
0000
0001
1000
0010
0020
,
0001
0030
002M
0000
1000
0000
0230
0000
0001
0000
0310
0000
1000
0000
0001
0000
,
1001
1000
1000
1000
,
0001
0001
0001
0001
,
0100
0100
0100
0100
,
0010
0000
0010
0000
0010
0000
0010
1000
,
0001
0001
0001
0001
,
1000
1000
1000
1000
,
0100
0100
0100
0100
,
0010
0000
0010
0000
0010
0000
0010
0001
,
1000
0000
0000
0001
0000
0000
0100
0000
0000
0001
0000
0000
1000
0000
0000
0010
,
0000
0000
1000
0000
0001
0000
0000
0010
0000
0000
0100
0000
0000
0010
0000
0000
,
0001
0000
0000
1000
0000
0000
0100
0000
0000
1000
0000
0000
0001
0000
0000
0010
,
0000
0000
0001
0000
1000
0000
0000
0010
0000
0000
0100
0000
0000
0010
1000
0000
,
0001
0000
0010
0000
0100
0000
0010
0000
0001
0000
1000
0010
0100
0000
0001
0000
,
1000
0000
0100
0000
0010
0000
0100
0000
1000
0000
0001
0100
0010
0000
1000
0000
,
0001
0010
0100
1000
0001
0100
0010
1000
,
0001
0010
0100
1000
0100
0010
0100
1000
0001
0100
0001
0010
0100
1000
0000
0010
,
1000
0001
0100
0001
1000
0100
0010
0001
0000
1000
0010
0100
0000
0001
0010
0100
,
0000
1000
0001
0100
0001
0100
0010
1000
0000
0001
0100
0010
0000
1000
0100
0010
,
0000
0001
1000
0100
1000
0100
0010
0001
0000
1000
0010
0100
0000
0001
0010
0100
,
0000
1000
0001
0010
0001
0010
0100
1000
0000
0001
0010
0100
0000
1000
0010
0100
,
0000
0001
0100
0001
1000
0100
0010
0001
0000
1000
0010
0100
0000
1000
0100
0010
,
0000
1000
0010
1000
0001
0010
0100
1000
0000
0001
0010
0100
0000
0001
0100
0010
,
0000
0001
0010
0001
1000
0010
0100
0001
0000
1000
0100
0010
0000
1000
0010
0100
,
0000
0010
0001
0000
0001
0000
0001
0000
0010
0100
2000
0000
3000
0001
1000
0200
,
0010
0300
01M0
0000
0001
1000
0001
0200
0010
0300
01M0
0000
1000
0001
1000
0200
,
0010
0300
01M0
0000
0001
1000
0001
0200
0010
0300
01M0
0000
1000
0001
1000
0020
,
0100
0030
0M10
0000
0001
1000
0001
0020
0100
0030
0M10
0000
1000
0001
1000
0020
,
0100
0030
0M10
0000
0001
1000
0001
0020
0100
0030
0M10
0000
1000
0001
0100
0200
,
0010
0300
01M0
0000
0001
1000
0100
0200
0010
0300
01M0
0000
1000
0001
0100
0200
,
0010
0300
01M0
0000
0001
1000
0100
0200
0010
0300
01M0
0000
1000
0001
0010
0020
,
0100
0030
0M10
0000
0001
1000
0010
0020
0100
0030
0M10
0000
1000
0001
0010
0020
,
0100
0030
0M10
0000
0001
0010
0000
0200
1000
0000
0310
0000
0002
0000
0000
0000
,
1000
0103
0001
2000
0001
3100
1000
0002
,
1000
0000
0013
0000
0001
0000
2000
0000
0001
0000
3010
0000
1000
0010
0000
0200
,
0001
0310
1000
0002
1000
0013
0001
0200
,
0001
0000
0320
0000
1000
0000
0230
0000
0001
0000
0310
0000
1000
0100
0000
0020
,
0001
0000
0130
0000
1000
0000
0020
0000
1000
0000
0130
0000
0001
0000
0010
0200
,
1000
0000
0310
0000
0001
0000
0200
0000
0001
0000
0310
0000
1000
0010
0000
0100
,
0001
1000
0001
0001
0010
0010
0100
0100
,
1000
0000
1000
0001
1000
0010
1000
0010
0100
0001
0100
0001
0020
0000
0000
0000
,
0000
0030
0000
0000
;
